osu file format v9

[General]
AudioFilename: pp.mp3
AudioLeadIn: 0
PreviewTime: 75395
Countdown: 0
SampleSet: Soft
StackLeniency: 0.7
Mode: 0
LetterboxInBreaks: 1

[Editor]
DistanceSpacing: 2
BeatDivisor: 4
GridSize: 8

[Metadata]
Title:Private Place
Artist:Ayane
Creator:Rorry
Version:Insane
Source:ryu-koku
Tags:akarina Clementia mirutg

[Difficulty]
HPDrainRate:9
CircleSize:4
OverallDifficulty:8
ApproachRate:8
SliderMultiplier:1.8
SliderTickRate:1

[Events]
//Background and Video events
0,0,"1.jpg"
//Break Periods
//Storyboard Layer 0 (Background)
//Storyboard Layer 1 (Fail)
//Storyboard Layer 2 (Pass)
//Storyboard Layer 3 (Foreground)
//Storyboard Sound Samples
//Background Colour Transformations
3,100,163,162,255

[TimingPoints]
16456,352.941176470588,4,2,1,80,1,0
48838,-100,4,2,1,90,0,0
50955,-100,4,2,1,95,0,0
51485,-100,4,2,1,80,0,0
67897,-100,4,2,1,80,0,0
74338,2823.52941176471,4,2,1,5,1,0
75043,352.941176470588,4,2,1,5,1,0
75219,-100,4,2,1,80,0,0
75395,-100,4,2,1,90,0,1
81043,-100,4,2,1,80,0,0
86690,-100,4,2,1,90,0,1
92337,-100,4,2,1,80,0,0
109631,-100,4,2,1,5,0,0

[HitObjects]
192,88,16456,2,0,B|168:96|144:88,2,45,8|0|0
280,104,16808,1,0
344,168,16985,1,8
344,168,17073,1,0
344,168,17161,1,0
304,304,17338,1,0
304,304,17514,1,12
80,152,17867,6,0,B|80:200|120:232,1,90
192,176,18220,2,0,B|280:176,1,90,8|0
376,176,18573,1,0
376,176,18750,1,0
424,256,18926,2,0,B|408:304|360:312,1,90,8|0
272,104,19279,5,0
272,104,19456,1,0
272,192,19632,2,0,B|184:216,1,90,12|0
96,248,19985,1,0
96,248,20161,1,0
168,304,20338,1,12
168,304,20514,1,0
256,304,20691,6,0,B|304:304|328:256,1,90
176,88,21044,2,0,B|128:88|104:136,1,90,8|0
8,336,21397,2,0,B|47:363|94:337,1,90
104,134,21750,1,8
104,134,21926,1,0
192,160,22103,6,0,B|280:184,1,90
192,200,22456,2,0,B|270:245,1,90,12|0
184,240,22808,2,0,B|248:304,1,90
160,328,23161,1,12
160,328,23250,1,0
160,328,23338,1,0
88,272,23514,5,0
68,182,23691,1,0
98,95,23867,1,8
168,36,24044,1,0
258,21,24220,1,0
343,55,24397,1,0
399,128,24573,1,8
409,219,24750,1,0
371,302,24926,5,0
240,336,25103,1,0
296,232,25279,1,12
164,265,25456,1,0
264,120,25632,1,0
280,296,25809,1,0
160,160,25985,1,12
336,208,26161,1,0
240,208,26338,6,0,B|216:296,1,90
360,328,26691,2,0,B|272:344,1,90,8|0
304,264,27044,2,0,B|368:200,2,90,0|0|8
304,264,27573,1,0
103,328,27750,6,0,B|143:248,1,90
248,160,28103,2,0,B|207:240,1,90,12|0
311,168,28456,2,0,B|351:88,1,90
352,88,28808,1,12
352,88,28897,1,0
352,88,28985,1,0
136,144,29161,6,0,B|121:211|184:240|184:240|192:312,1,180,0|8
240,224,29691,2,0,B|328:248,1,90
416,272,30044,1,0
416,272,30220,1,8
480,208,30397,1,0
504,296,30573,1,0
448,360,30750,1,0
360,336,30926,1,12
416,272,31103,2,0,B|280:152,1,180
281,152,31632,1,8
281,152,31808,1,0
240,72,31985,6,0,B|288:48|368:56|408:96,1,180,0|8
496,104,32514,2,0,B|464:192,1,90
432,272,32867,1,0
432,272,33044,1,8
352,224,33220,2,0,B|272:264,1,90
271,264,33573,1,0
208,328,33750,1,12
296,352,33926,1,0
271,264,34103,1,0
112,216,34279,1,0
271,264,34456,1,12
112,216,34632,1,0
40,272,34808,6,0,B|68:321|143:350|196:339,1,180,4|8
280,304,35338,2,0,B|368:336,1,90
360,248,35691,2,0,B|448:248,2,90,0|8|0
272,232,36220,1,0
184,216,36397,1,0
248,152,36573,1,12
160,136,36750,1,0
224,72,36926,2,0,B|320:32|384:120,1,180,0|8
384,296,37632,6,0,B|208:336,1,180,0|8
208,335,38161,1,0
152,264,38338,2,0,B|80:320,2,90,0|0|8
280,216,38867,1,0
408,168,39044,2,0,B|456:192|448:240,1,90
392,312,39397,2,0,B|304:328,1,90,12|0
216,312,39750,1,0
112,224,39926,1,0
224,144,40103,1,12
224,144,40191,1,0
224,144,40279,1,0
224,144,40367,1,0
224,144,40456,6,0,B|128:112|56:176,1,180,0|8
24,256,40985,2,0,B|104:296,1,90
192,296,41338,1,0
192,296,41514,1,8
280,272,41691,6,0,B|368:304,1,90
136,200,42044,2,0,B|48:232,1,90,0|12
280,128,42397,2,0,B|368:160,1,90
136,56,42750,2,0,B|48:88,2,90,0|12|0
224,56,43279,2,0,B|408:56,1,180,0|8
404,56,43808,1,0
480,104,43985,1,0
480,104,44161,1,0
416,168,44338,1,8
496,208,44514,6,0,B|488:264|440:272,1,90
248,160,44867,2,0,B|256:104|304:96,1,90,0|12
368,312,45220,2,0,B|280:344,1,90
208,296,45573,2,0,B|296:264,2,90,0|12|0
208,296,46014,1,0
208,296,46103,1,8
128,256,46279,5,0
112,168,46455,1,8
176,104,46632,2,0,B|256:48|352:96,1,180
346,93,47338,1,0
432,200,47515,1,0
432,200,47691,1,0
322,281,47868,1,12
322,281,48044,1,0
234,313,48220,2,0,B|186:313|154:265,1,90
226,57,48573,2,0,B|274:57|306:105,1,90,12|0
378,49,48926,5,8
474,169,49103,1,0
330,129,49279,1,8
378,273,49455,1,0
258,185,49632,1,8
258,337,49808,1,0
170,209,49985,1,8
98,345,50161,1,0
82,193,50338,2,0,B|130:113|218:81,1,180,8|0
362,201,51044,5,8
154,201,51220,1,12
248,48,51573,6,0,B|432:64,1,180
464,144,52103,2,0,B|504:224,1,90,8|0
416,224,52455,2,0,B|433:311,2,90,0|0|8
352,288,52985,2,0,B|272:328|176:312,1,180,0|0
112,248,53514,5,12
200,232,53691,1,0
400,136,53867,1,8
312,152,54044,1,0
240,104,54220,2,0,B|168:168|72:152,1,180,12|0
112,72,54750,6,0,B|200:48,1,90,0|8
288,48,55103,1,0
376,72,55279,2,0,B|408:104|416:152,1,90,0|0
240,192,55632,2,0,B|208:224|200:272,1,90,8|0
272,328,55985,1,0
384,256,56161,1,0
328,136,56338,1,12
384,256,56514,1,0
272,328,56691,6,0,B|192:368|96:352,1,180,0|8
240,56,57397,2,0,B|320:16|416:32,1,180,0|8
488,80,57926,1,0
408,120,58103,1,0
424,208,58279,1,0
336,192,58455,1,8
272,256,58632,1,0
272,256,58808,2,0,B|318:336|422:340,1,180,0|12
264,168,59338,2,0,B|168:208|88:152,1,180,0|12
232,40,60044,5,0
320,72,60220,1,8
408,104,60397,1,0
320,72,60573,1,8
408,104,60750,1,0
408,192,60926,1,8
320,224,61103,1,0
408,192,61279,1,12
320,224,61455,1,0
256,160,61632,2,0,B|184:232|224:328,1,180,8|4
104,88,62338,5,0
120,96,62426,1,8
136,104,62514,1,0
152,112,62603,1,0
168,120,62691,1,0
128,200,62867,6,0,B|80:288|-16:304,1,180
80,312,63397,2,0,B|168:320,1,90,8|0
432,312,63750,2,0,B|344:320,2,90,0|0|8
176,256,64279,1,0
256,208,64455,2,0,B|288:248|344:240,1,90
336,152,64808,5,12
400,88,64985,1,0
424,176,65161,1,0
336,152,65338,1,0
248,128,65514,2,0,B|160:136,1,90,12|0
80,184,65867,6,0,B|32:304|152:304,1,180,0|8
200,232,66397,1,0
200,232,66573,1,0
280,280,66750,2,0,B|368:288,2,90,0|8|0
200,232,67279,2,0,B|160:256|152:312,1,90
256,104,67632,2,0,B|296:128|304:184,1,90,12|0
144,96,67985,6,0,B|64:256,1,180,0|8
63,256,68514,1,4
240,248,68867,2,0,B|248:200|280:168,2,90,0|8|0
240,248,69397,2,0,B|416:296,1,180,0|8
413,295,69926,1,4
176,24,70632,6,0,B|208:56|256:72,1,90
344,88,70985,1,0
400,160,71161,2,0,B|320:208,1,90,8|4
322,206,71867,1,8
144,224,72220,2,0,B|224:272,1,90
392,328,72750,6,0,B|208:328,1,180
184,240,73279,1,8
328,240,73455,1,0
160,168,73632,1,8
352,168,73808,1,0
256,64,73985,5,8
256,96,74073,1,0
256,128,74161,1,0
256,160,74250,1,0
256,192,74338,2,0,B|256:240,1,45
392,240,75307,6,0,B|440:224,4,45
352,256,75748,2,0,B|280:320|184:304,1,180,0|8
112,256,76278,1,0
104,168,76454,2,0,B|192:192,1,90,0|0
272,144,76807,2,0,B|312:224,1,90,8|4
360,48,77337,6,0,B|408:56|448:24,2,90,0|8|0
272,72,77866,1,0
272,72,78043,1,0
192,32,78219,2,0,B|104:48,1,90,8|0
160,120,78572,2,0,B|184:216|112:288,1,180,0|8
312,176,79101,2,0,B|288:80|360:8,1,180,0|8
488,136,79807,6,0,B|384:288,1,180
320,344,80337,2,0,B|272:352|232:328,1,90,12|0
56,296,80690,2,0,B|104:304|144:280,1,90,8|0
224,248,81043,5,12
224,248,81219,1,0
224,248,81395,2,0,B|400:280,1,180,0|8
440,104,81925,2,0,B|392:176|272:176,1,180
168,40,82454,5,8
168,40,82631,1,0
168,40,82807,2,0,B|72:72|48:168,1,180,0|8
232,176,83337,2,0,B|416:200,1,180
256,296,83866,6,0,B|168:320,1,90,8|0
144,144,84219,2,0,B|192:224|296:232,1,180,0|8
352,64,84748,2,0,B|416:232,1,180
448,320,85278,1,8
448,320,85454,1,0
328,184,85631,1,8
152,320,85807,1,8
216,104,85984,1,8
152,320,86160,1,8
53,168,86337,5,8
79,203,86425,1,0
116,228,86513,1,0
160,240,86601,1,0
204,233,86690,1,8
248,230,86778,1,0
290,242,86866,1,0
325,269,86954,1,0
360,296,87043,6,0,B|392:336|446:322,1,90,0|0
384,152,87395,2,0,B|352:112|298:126,1,90,12|0
232,176,87748,2,0,B|144:184,2,90,0|0|8
320,168,88278,2,0,B|384:232|368:336,1,180,4|0
200,256,88807,2,0,B|240:288|288:280,1,90,8|0
456,224,89160,1,0
456,224,89337,1,0
344,80,89513,2,0,B|256:96,1,90,8|0
112,208,89866,2,0,B|128:304|224:336,1,180,0|12
328,184,90395,2,0,B|152:136,1,180,0|12
304,72,91101,6,0,B|368:144|472:128,1,180,4|0
328,248,91631,1,8
160,184,91807,1,0
200,360,91984,1,8
376,320,92160,1,0
440,152,92336,1,8
264,192,92513,1,0
264,192,92690,6,0,B|224:280|128:304,1,180,12|0
312,288,93219,2,0,B|480:352,1,180,0|0
392,192,93748,2,0,B|416:280,1,90,0|0
368,104,94101,2,0,B|288:160|192:128,1,180,0|0
196,129,94631,1,0
96,288,95160,6,0,B|272:328,1,180,0|0
488,40,95866,1,0
488,40,96042,2,0,B|464:136|376:184,1,180
232,80,96572,2,0,B|151:124|127:220,1,180
480,296,97278,1,0
120,320,97631,2,0,B|296:352,1,180
80,64,98337,5,0
80,64,98690,2,0,B|152:120,1,90,8|0
224,168,99042,1,0
312,184,99219,1,0
224,168,99395,1,8
152,224,99572,2,0,B|208:304|312:296,1,180
464,216,100101,2,0,B|376:232,1,90,8|0
288,248,100454,1,0
248,328,100631,1,0
184,264,100807,1,8
144,344,100984,1,0
112,168,101160,6,0,B|176:96|280:112,1,180,0|8
360,136,101690,1,0
408,208,101866,2,0,B|456:288,2,90,0|0|8
360,136,102395,2,0,B|296:208|192:192,1,180
197,192,102925,1,8
424,328,103278,5,0
88,328,103631,1,0
256,40,103984,1,0
256,192,104513,12,0,109631
