osu file format v9

[General]
AudioFilename: Ayane - Private Place.mp3
AudioLeadIn: 0
PreviewTime: 76959
Countdown: 0
SampleSet: Normal
StackLeniency: 0.5
Mode: 0
LetterboxInBreaks: 1

[Editor]
DistanceSpacing: 0.9
BeatDivisor: 4
GridSize: 8

[Metadata]
Title:Private Place
Artist:Ayane
Creator:MForever
Version:Hard
Source:ryu-koku
Tags:game ayane op frost-b-spec taka1235

[Difficulty]
HPDrainRate:6
CircleSize:4
OverallDifficulty:4
ApproachRate:4
SliderMultiplier:1.6
SliderTickRate:0.5

[Events]
//Background and Video events
0,0,"ryukoku.jpg"
//Break Periods
2,111497,121095
//Storyboard Layer 0 (Background)
//Storyboard Layer 1 (Fail)
//Storyboard Layer 2 (Pass)
//Storyboard Layer 3 (Foreground)
//Storyboard Sound Samples
//Background Colour Transformations
3,100,0,0,255

[TimingPoints]
19533,352.941176470588,4,1,1,60,1,0
77373,-100,4,1,1,70,0,1
99078,-100,4,2,0,60,0,0
133313,-100,4,1,1,60,0,0
169137,-100,4,1,1,70,0,1
197901,-100,4,1,0,0,0,0
203019,-100,4,1,0,0,0,0

[Colours]
Combo1 : 241,3,241
Combo2 : 0,244,244
Combo3 : 0,165,244

[HitObjects]
88,56,30474,1,8
88,56,30650,1,0
160,56,30827,2,0,B|232:40|264:104|344:32,1,160
392,56,31356,1,0
440,112,31532,1,0
416,184,31709,1,0
344,192,31885,1,8
272,192,32062,2,0,B|216:232|168:160|96:192,1,160
88,256,32591,1,8
88,256,32768,2,0,B|96:352|208:352,1,160
272,352,33297,1,8
304,256,33650,6,0,B|272:240|216:296|144:256,1,160,0|8
104,200,34180,1,0
120,128,34356,1,0
184,88,34533,6,0,B|224:96|272:64,1,80,0|8
328,40,34885,1,0
400,64,35062,1,0
432,128,35238,1,0
440,200,35415,1,8
408,264,35591,2,0,B|248:304|280:216|160:216,1,240,0|8
88,112,36474,6,0,B|176:64|256:112,1,160,0|8
200,168,37003,2,0,B|288:216|360:168,1,160
424,144,37533,1,8
424,216,37709,1,0
424,288,37885,2,0,B|256:288,1,160,0|8
192,288,38415,1,0
192,216,38591,2,0,B|360:216,1,160,0|8
344,80,39297,5,0
280,40,39474,1,0
280,112,39650,1,8
344,80,39827,1,0
280,40,40003,1,0
256,192,40180,12,0,41062
256,48,41768,5,8
256,48,41944,1,0
256,120,42121,2,0,B|440:120,1,160,0|8
488,120,42650,1,0
488,192,42827,1,0
488,264,43003,1,0
416,264,43180,1,8
416,336,43356,2,0,B|232:336,1,160
184,336,43885,1,8
112,328,44062,1,0
64,272,44238,1,0
40,200,44415,2,0,B|40:104,1,80,8|8
72,48,44768,5,0
120,104,44944,1,0
168,48,45121,1,0
216,104,45297,1,8
264,48,45474,2,0,B|360:48|360:160,1,160
344,224,46003,1,8
272,224,46180,2,0,B|88:224,1,160
112,296,46709,1,8
176,336,46885,1,0
248,320,47062,1,0
312,288,47238,1,8
320,216,47415,1,8
376,168,47591,1,0
448,152,47768,6,0,B|520:224|432:312,1,160,0|8
384,256,48297,2,0,B|312:320|304:320,1,80
272,256,48650,2,0,B|208:184,1,80,0|8
272,144,49003,2,0,B|336:88,1,80
384,144,49356,2,0,B|456:208,1,80,0|8
384,64,49885,6,0,B|472:64,2,80,0|0|8
256,192,50591,12,0,52356
256,192,52709,5,0
256,192,52885,1,0
448,192,53238,6,0,B|352:104|208:304|48:192,1,400,0|0
64,128,54297,1,0
136,152,54474,1,8
192,104,54650,1,0
248,56,54827,1,0
304,104,55003,1,0
360,152,55180,2,0,B|360:264,3,80,8|0|0|0
360,304,55885,1,8
216,304,56238,6,0,B|216:248|216:88|72:32,1,320,0|0
80,112,57121,1,0
80,184,57297,1,8
80,256,57474,1,0
152,256,57650,2,0,B|152:352|280:336,1,160,0|8
376,248,58356,6,0,B|336:176,1,80,0|0
336,104,58709,2,0,B|224:104,1,80,8|0
256,32,59062,2,0,B|160:32,1,80,0|0
104,32,59415,1,8
104,104,59591,1,0
104,176,59768,2,0,B|136:216|192:192,1,80,0|0
240,168,60121,2,0,B|296:160|328:208,1,80,8|0
368,240,60474,1,0
440,216,60650,1,0
480,152,60827,1,8
480,80,61003,2,0,B|376:80|368:80,1,80,0|0
336,120,61356,5,0
312,192,61533,1,8
256,240,61709,1,0
192,272,61885,2,0,B|120:280|24:208,1,160,0|8
256,192,62415,12,8,63650
256,192,64003,5,0
256,192,64180,1,0
64,192,64533,6,0,B|160:104|304:304|464:192,1,400,0|0
448,128,65591,1,0
376,152,65768,1,8
320,104,65944,1,0
272,48,66121,1,0
224,104,66297,1,0
168,152,66474,2,0,B|168:264,3,80,8|0|0|0
168,304,67180,1,8
312,304,67533,6,0,B|312:248|312:88|456:32,1,320,0|0
448,112,68415,1,0
448,184,68591,1,8
448,256,68768,2,0,B|376:256|328:256,1,80,0|0
64,88,69297,5,8
64,88,69474,2,0,B|144:56,1,80,0|0
208,40,69827,1,0
280,56,70003,2,0,B|360:96,1,80,8|0
408,136,70356,1,0
448,200,70533,1,0
408,264,70709,1,8
344,304,70885,2,0,B|264:352,1,80,0|0
200,336,71238,1,0
144,288,71415,2,0,B|72:224,1,80,8|0
368,48,72121,5,8
368,48,72297,2,0,B|448:112,1,80,0|0
472,160,72650,1,0
424,216,72827,2,0,B|344:256,1,80,8|0
280,256,73180,2,0,B|192:256,1,80,0|0
128,240,73533,2,0,B|64:168,1,80,8|0
72,104,73885,1,0
136,72,74062,1,0
208,56,74238,1,8
280,64,74415,1,4
256,192,74591,12,0,76003
440,184,77062,5,8
384,128,77238,1,0
336,72,77415,2,0,B|168:72,1,160,0|8
104,72,77944,2,0,B|56:112|120:152,1,80
104,208,78297,1,0
104,280,78474,2,0,B|160:312|176:264|192:272,1,80,8|0
296,208,79003,2,0,B|296:40,1,160
296,48,79533,1,0
392,152,79885,5,8
392,152,80062,1,0
392,152,80238,2,0,B|336:184|288:104|216:136,1,160,0|8
168,128,80768,1,0
96,128,80944,1,0
96,200,81121,2,0,B|120:248|184:248,1,80,0|8
232,248,81474,1,0
304,248,81650,1,0
376,248,81827,1,0
448,248,82003,2,0,B|448:152,1,80,8|0
232,152,82709,6,0,B|232:264,2,80,8|0|0
232,80,83238,1,0
232,80,83415,1,8
232,80,83591,1,0
384,232,84121,2,0,B|384:336,2,80,8|0|0
384,160,84650,1,0
384,160,84827,1,8
384,160,85003,1,0
208,40,85533,6,0,B|208:208,1,160,8|0
264,248,86062,1,0
336,232,86238,1,8
368,168,86415,1,0
320,112,86591,1,0
248,112,86768,2,0,B|160:112|160:112,2,80,0|8|0
248,184,87297,2,0,B|248:272,1,80
200,208,87650,2,0,B|160:280,1,80,8|0
368,208,88356,5,0
336,144,88533,1,0
280,96,88709,2,0,B|208:128|248:216|184:224,1,160,0|8
200,296,89238,2,0,B|112:328,1,80
56,304,89591,1,0
40,232,89768,2,0,B|80:200|32:184|80:168|80:160,1,80,8|0
168,280,90297,2,0,B|336:280,1,160
400,280,90827,1,0
440,160,91180,6,0,B|376:80,1,80,8|0
328,56,91533,1,0
256,56,91709,1,0
192,96,91885,2,0,B|120:160,1,80,8|0
104,216,92238,1,0
104,288,92415,1,0
160,336,92591,1,8
232,336,92768,2,0,B|392:376|472:256,1,240,0|8
432,56,94003,5,8
360,56,94180,2,0,B|264:56,1,80
280,128,94533,1,0
208,128,94709,2,0,B|112:128,1,80,8|0
128,200,95062,1,0
128,272,95238,2,0,B|240:272,1,80,0|8
280,272,95591,1,0
352,272,95768,2,0,B|352:168,1,80
352,120,96121,1,8
352,120,96297,1,0
64,144,96827,6,0,B|64:312,1,160,8|0
136,304,97356,1,0
208,304,97533,2,0,B|280:304|296:304,1,80,8|0
360,304,97885,1,0
408,248,98062,1,0
408,176,98238,1,8
368,112,98415,1,0
304,72,98591,1,0
256,376,99297,5,0
120,288,99650,2,0,B|120:112|120:112,1,160,0|0
256,192,100533,12,4,104062
296,112,104415,2,0,B|392:112,1,80
248,208,104944,5,0
304,264,105121,1,0
368,312,105297,1,0
248,208,105650,2,0,B|80:224|144:40,1,240
256,192,106356,12,0,111297
448,312,122415,5,0
448,312,122591,2,0,B|376:328|344:264|264:336,1,160,0|2
224,304,123121,1,0
168,256,123297,1,0
136,192,123474,1,0
136,120,123650,1,2
168,56,123827,2,0,B|224:16|272:88|344:56,1,160
392,88,124356,1,2
384,160,124533,2,0,B|376:216|328:240,1,80
288,184,124885,2,8,B|232:216|256:280,1,80,2|2
152,320,125238,5,0
152,320,125415,2,0,B|136:288|192:232|152:160,1,160,0|2
152,88,125944,1,0
224,88,126121,1,0
224,160,126297,2,0,B|264:200|320:184,1,80,0|2
352,144,126650,2,0,B|408:152|424:216,1,80
408,264,127003,1,0
352,304,127180,1,2
280,312,127356,2,0,B|248:288|184:320,1,80
136,336,127709,2,2,B|88:352|48:304,1,80
24,160,128238,6,0,B|112:208|192:160,1,160,0|2
176,96,128768,2,0,B|88:48|16:96,1,160
24,160,129297,1,2
24,232,129474,1,0
24,304,129650,2,0,B|192:304,1,160,0|2
256,304,130180,1,0
328,304,130356,2,0,B|416:152,1,160,0|2
432,96,130885,1,0
360,96,131062,5,0
288,112,131238,1,0
232,160,131415,1,2
192,224,131591,1,0
184,296,131768,1,4
256,192,131944,12,4,132827
304,344,133533,5,8
304,344,133709,1,0
232,344,133885,2,0,B|48:344,1,160,0|8
96,272,134415,1,0
48,216,134591,1,0
96,160,134768,1,0
48,104,134944,1,8
96,48,135121,2,0,B|280:48,1,160
328,48,135650,2,0,B|328:144,2,80,8|0|0
384,96,136180,2,0,B|472:144,1,80,8|8
464,208,136533,5,0
424,272,136709,1,0
360,304,136885,1,0
288,296,137062,1,8
224,264,137238,2,0,B|128:264|128:152,1,160
128,88,137768,1,8
200,88,137944,2,0,B|384:88,1,160
416,136,138474,1,8
432,208,138650,1,0
416,280,138827,1,0
360,328,139003,1,8
288,352,139180,6,0,B|184:352,1,80,8|0
168,296,139533,2,0,B|96:224|24:224,1,160,0|8
72,168,140062,2,0,B|144:104|152:104,1,80
192,72,140415,2,0,B|272:144,1,80,0|8
304,176,140768,2,0,B|240:232,1,80
184,264,141121,2,0,B|112:200,1,80,0|8
128,64,141650,6,0,B|40:64,2,80,0|0|8
256,192,142356,12,0,144121
256,192,144474,5,0
256,192,144650,1,0
64,192,145003,6,0,B|160:280|304:80|464:192,1,400
448,256,146062,1,0
376,256,146238,1,8
448,256,146415,1,0
376,256,146591,1,0
448,256,146768,1,0
448,184,146944,2,0,B|448:72,3,80,8|0|0|0
448,32,147650,1,8
304,56,148003,6,0,B|240:112|240:200,1,160,0|8
232,272,148533,2,0,B|200:320|144:320,1,80
96,320,148885,1,0
96,248,149062,1,8
96,176,149238,2,0,B|96:80|304:96,1,240,0|8
440,56,150121,6,0,B|400:128,1,80
352,184,150474,2,0,B|464:184,1,80,8|0
384,232,150827,2,0,B|480:232,1,80
464,304,151180,1,8
400,336,151356,2,0,B|344:280|240:304,1,160
184,328,151885,1,8
120,288,152062,1,0
128,184,152238,5,0
192,216,152415,1,0
256,184,152591,1,8
320,216,152768,2,0,B|424:216|432:216,1,80
440,152,153121,1,0
416,80,153297,1,8
352,48,153474,1,0
280,48,153650,2,0,B|200:40|128:112,1,160,0|8
88,160,154180,1,0
256,192,154356,12,0,155415
256,192,155768,5,0
256,192,155944,1,0
448,192,156297,6,0,B|352:280|208:80|48:192,1,400
64,256,157356,1,0
136,232,157533,1,8
192,280,157709,1,0
248,328,157885,1,0
304,280,158062,1,0
360,232,158238,2,0,B|360:120,3,80,8|0|0|0
360,80,158944,1,8
216,80,159297,6,0,B|256:208|168:240,1,160,0|8
192,304,159827,2,0,B|192:312|200:304|288:304,1,80,0|0
344,304,160180,1,0
344,232,160356,1,8
344,160,160533,2,0,B|416:160|464:160,1,80
448,296,161062,5,8
448,296,161238,2,0,B|368:328,1,80
304,344,161591,1,0
232,328,161768,2,0,B|152:288,1,80,8|0
104,248,162121,1,0
56,192,162297,1,0
104,136,162474,1,8
152,80,162650,2,0,B|232:32,1,80
296,32,163003,1,0
368,32,163180,2,0,B|440:104,1,80,8|0
144,336,163885,5,8
144,336,164062,2,0,B|64:272,1,80
32,232,164415,1,0
80,176,164591,2,0,B|160:136,1,80,8|0
224,136,164944,2,0,B|312:136,1,80
376,136,165297,2,0,B|440:208,1,80,8|0
432,272,165650,1,0
368,304,165827,1,0
296,320,166003,1,8
224,312,166180,1,0
256,192,166356,12,0,167768
96,192,168827,5,8
128,256,169003,1,0
176,312,169180,2,0,B|360:312,1,160,0|8
408,312,169709,1,0
408,240,169885,1,0
408,168,170062,1,0
408,96,170238,2,0,B|352:64|336:112|320:104,1,80,8|0
256,224,170768,2,0,B|256:56,1,160
256,64,171297,1,0
112,40,171650,6,0,B|112:128,1,80,8|0
112,192,172003,2,0,B|208:152|176:256|288:216,1,160,0|8
328,224,172533,1,0
400,224,172709,1,0
448,168,172885,2,0,B|440:128|368:120,1,80,0|8
312,120,173238,1,0
240,120,173415,1,0
168,120,173591,1,0
96,120,173768,2,0,B|96:216,1,80,8|0
160,272,174474,6,0,B|160:160,2,80,8|0|0
160,344,175003,1,0
160,344,175180,1,8
160,344,175356,1,0
256,192,175885,2,0,B|256:88,2,80,8|0|0
256,264,176415,1,0
256,264,176591,1,8
256,264,176768,1,0
56,344,177297,6,0,B|56:176,1,160,8|0
72,112,177827,1,0
128,160,178003,1,8
136,232,178180,1,0
192,280,178356,1,0
264,280,178533,2,0,B|352:280|352:280,2,80,0|8|0
264,208,179062,2,0,B|264:120,1,80
312,184,179415,2,0,B|352:112,1,80,8|0
120,200,180121,5,8
152,264,180297,1,0
224,280,180474,2,0,B|296:224|224:136,1,160,0|8
280,88,181003,2,0,L|360:40,1,80
416,64,181356,1,0
416,136,181533,2,0,B|376:168|424:184|384:224|384:216,1,80,8|0
272,136,182062,2,0,B|224:96|104:120,1,160
120,120,182591,1,0
48,248,182944,6,0,B|112:328,1,80,8|0
152,360,183297,1,0
224,360,183474,1,0
280,312,183650,2,0,B|352:248,1,80,8|0
392,208,184003,5,0
408,136,184180,1,0
352,88,184356,1,8
280,88,184533,2,0,B|160:48|56:168,1,240,0|8
80,328,185768,5,8
152,328,185944,2,0,B|248:328,1,80
232,256,186297,1,0
304,256,186474,2,0,B|400:256,1,80,8|0
384,184,186827,1,0
384,112,187003,2,0,B|272:112,1,80,0|8
232,112,187356,1,0
160,112,187533,2,0,B|160:216,1,80
160,264,187885,1,8
160,264,188062,1,0
448,240,188591,6,0,B|448:72,1,160,8|0
376,80,189121,1,0
304,80,189297,2,0,B|232:80|216:80,1,80,8|0
152,80,189650,1,0
112,144,189827,1,0
112,216,190003,1,8
144,280,190180,1,0
208,320,190356,1,0
256,176,190709,1,8
256,8,191062,5,0
392,96,191415,2,0,B|392:280|392:248,1,160
256,192,192297,12,0,196180
256,192,196709,5,0
184,192,196885,1,0
112,192,197062,1,0
112,336,197415,2,0,B|368:336,1,240
256,192,198121,12,0,203062
