osu file format v9

[General]
AudioFilename: Ayane - Private Place.mp3
AudioLeadIn: 0
PreviewTime: 76959
Countdown: 0
SampleSet: Normal
StackLeniency: 0.4
Mode: 0
LetterboxInBreaks: 1

[Editor]
Bookmarks: 30754,111400
DistanceSpacing: 1
BeatDivisor: 4
GridSize: 8

[Metadata]
Title:Private Place
Artist:Ayane
Creator:MForever
Version:Easy
Source:ryu-koku
Tags:game ayane op frost-b-spec taka1235

[Difficulty]
HPDrainRate:1
CircleSize:3
OverallDifficulty:1
ApproachRate:1
SliderMultiplier:0.999999999999999
SliderTickRate:0.5

[Events]
//Background and Video events
0,0,"ryukoku_w01a.jpg"
//Break Periods
//Storyboard Layer 0 (Background)
//Storyboard Layer 1 (Fail)
//Storyboard Layer 2 (Pass)
//Storyboard Layer 3 (Foreground)
//Storyboard Sound Samples
//Background Colour Transformations
3,100,0,0,255

[TimingPoints]
19533,352.941176470588,4,1,0,50,1,0
77372,-100,4,1,0,60,0,1
106137,-100,4,1,0,60,0,0
107019,-100,4,1,0,45,0,0
108078,-100,4,1,0,35,0,0
109489,-100,4,1,0,20,0,0
110195,-100,4,1,0,10,0,0
110901,-100,4,1,0,0,0,0

[Colours]
Combo1 : 255,66,213
Combo2 : 0,244,244
Combo3 : 0,165,244

[HitObjects]
280,56,30827,6,0,B|168:56,2,99.9999999999999,0|0|0
400,56,31885,2,0,B|400:160,1,99.9999999999999,0|0
400,256,32591,2,0,B|400:368,1,99.9999999999999,0|0
400,356,33297,1,0
304,352,33650,6,0,B|96:352,1,200,0|0
40,280,34709,2,0,B|40:160,3,99.9999999999999,0|0|0|0
40,80,36121,1,0
128,40,36474,6,0,B|224:40|456:40,1,300,0|0
432,136,37885,1,0
432,232,38238,1,0
432,328,38591,2,0,B|320:328,4,99.9999999999999,0|0|0|0|0
400,56,41768,6,0,B|400:160,1,99.9999999999999
400,256,42474,2,0,B|288:256,1,99.9999999999999
200,256,43180,1,0
200,352,43533,2,0,B|24:352,2,150
296,352,44944,2,0,B|296:248,1,99.9999999999999
224,184,45650,2,0,B|104:184,1,99.9999999999999
48,120,46356,2,0,B|48:16,1,99.9999999999999
152,16,47062,1,0
256,16,47415,1,0
352,16,47768,6,0,B|448:112|360:248,2,250
248,16,49885,5,0
152,16,50238,1,0
56,16,50591,2,0,B|56:128,2,99.9999999999999
256,256,52709,6,0,B|256:200,1,50
256,88,53238,2,0,B|296:8|416:128|488:0,1,250
480,120,54474,2,0,B|480:232,1,99.9999999999999
408,288,55180,6,0,B|408:360,4,50
360,200,56238,2,0,B|296:168|224:240|152:192,1,200
128,296,57297,2,0,B|240:296,1,99.9999999999999
392,176,58356,5,0
312,120,58709,1,0
216,96,59062,1,0
120,112,59415,1,0
64,192,59768,6,0,B|72:312|208:328,1,200
288,336,60827,2,0,B|392:336,1,99.9999999999999
440,248,61532,2,0,B|440:136,1,99.9999999999999
344,184,62238,2,0,B|344:64,1,99.9999999999999
264,24,62944,1,0
240,120,63297,2,0,B|136:120,1,99.9999999999999
40,120,64003,5,0
40,120,64180,1,0
40,224,64533,2,0,B|40:320|96:384|200:360,1,250
296,360,65768,1,0
392,328,66121,1,0
440,240,66474,6,0,B|440:128|440:128|432:136,2,99.9999999999999
328,232,67533,2,0,B|360:152|240:152|224:72,1,200
136,40,68591,2,0,B|80:40,2,50
112,192,69474,6,0,B|112:120,1,50
32,200,70003,2,0,B|32:272,1,50
104,64,70885,2,0,B|104:0,1,50
192,64,71415,2,0,B|192:120,1,50
304,280,72297,6,0,B|368:280,1,50
304,368,72827,2,0,B|240:368,1,50
104,360,73533,5,0
104,264,73885,2,0,B|40:264,3,50
256,192,74591,8,0,76003
456,256,77062,6,0,B|456:184,1,50,0|0
456,152,77415,2,0,B|368:56|232:160|72:40,1,400
88,280,79885,6,0,B|152:280,1,50
192,280,80238,2,0,B|304:320|312:216|456:304,1,250
433,291,81474,1,0
312,64,82709,6,0,B|312:128|312:128,1,50
312,168,83062,2,0,B|96:168,1,200
48,248,84121,6,0,B|48:304,1,50
48,352,84474,2,0,B|256:352,1,200
344,328,85533,6,0,B|344:224,1,99.9999999999999
344,128,86238,1,0
344,128,86415,1,0
240,128,86768,2,0,B|176:128,3,50
88,312,88356,6,0,B|144:312,1,50
192,312,88709,2,0,B|304:312|272:176|384:160,1,250
424,160,89768,2,0,B|424:96,1,50
80,64,91180,6,0,B|144:64,1,50
176,64,91533,1,0
280,64,91885,2,0,B|392:64,1,99.9999999999999
432,64,92415,1,0
432,160,92768,2,0,B|424:264|304:272|216:272,1,250
136,272,94003,6,0,B|136:168,1,99.9999999999999
136,72,94709,2,0,B|256:72,1,99.9999999999999
336,72,95415,2,0,B|336:176,1,99.9999999999999
336,272,96121,2,0,B|224:272,1,99.9999999999999
128,280,96827,6,0,B|128:160,1,99.9999999999999
128,80,97533,2,0,B|232:80,1,99.9999999999999
328,80,98238,5,0
328,80,98415,1,0
328,80,98591,1,0
160,192,99297,5,0
264,192,99650,1,0
368,192,100003,1,0
256,192,100533,8,0,104238
152,192,104944,5,0
256,192,105297,1,0
360,192,105650,1,0
256,192,106180,8,0,111297
