osu file format v9

[General]
AudioFilename: primidia.mp3
AudioLeadIn: 1985
PreviewTime: 74059
Countdown: 0
SampleSet: Normal
StackLeniency: 0.7
Mode: 0
LetterboxInBreaks: 1

[Editor]
DistanceSpacing: 1
BeatDivisor: 4
GridSize: 4

[Metadata]
Title:Primidia
Artist:Ayane
Creator:AisamaDX
Version:Normal
Source:Memories Off 6 ~T-Wave~
Tags:5pb swish

[Difficulty]
HPDrainRate:3
CircleSize:3
OverallDifficulty:3
ApproachRate:4
SliderMultiplier:1
SliderTickRate:1

[Events]
//Background and Video events
0,0,"r.jpg"
//Break Periods
//Storyboard Layer 0 (Background)
//Storyboard Layer 1 (Fail)
//Storyboard Layer 2 (Pass)
//Storyboard Layer 3 (Foreground)
//Storyboard Sound Samples
//Background Colour Transformations
3,100,163,162,255

[TimingPoints]
1045,441.176470588235,4,1,1,60,1,0
16044,-100,4,1,1,40,0,0
16706,-100,4,1,1,60,0,0
42846,-100,4,1,1,50,0,0
43067,-100,4,1,1,60,0,0
75162,-100,4,1,1,65,0,1
75272,-100,4,1,1,65,0,0
89280,-100,4,1,1,65,0,1
89390,-100,4,1,1,65,0,0
117074,-100,4,2,0,5,0,0

[Colours]
Combo1 : 128,128,255
Combo2 : 255,0,0
Combo3 : 0,255,255
Combo4 : 255,255,128

[HitObjects]
432,264,1045,2,0,B|400:168,1,99.9999999999999,2|8
320,112,1927,2,0,B|272:140|280:200,1,99.9999999999999,2|8
312,292,2809,2,0,B|352:324,2,50,2|0|8
220,332,3692,2,0,B|172:316|152:236|188:192,1,150,2|0
208,164,4574,6,0,B|256:136|308:160,1,99.9999999999999,2|8
372,232,5456,1,2
372,232,5897,2,0,B|324:259|276:237,2,99.9999999999999,8|2|8
452,168,7221,2,0,B|492:136,2,50,2|0|8
372,108,8103,6,0,B|336:148|356:208,1,99.9999999999999,2|8
432,264,8986,2,0,B|408:332|328:356|264:320,1,200,2|2
168,340,10309,2,0,B|132:331|116:293|131:259,1,99.9999999999999,8|2
200,192,11192,1,8
200,192,11633,6,0,B|244:280,1,99.9999999999999,2|8
304,200,12515,2,0,B|348:288,1,99.9999999999999,2|8
256,192,13177,12,0,16044
324,44,16927,5,2
372,132,17368,1,8
288,188,17809,2,0,B|308:244,1,50,2|0
176,160,18692,2,0,B|140:208|180:316|256:320,1,200,2|2
420,220,20456,5,2
328,184,20897,1,8
244,240,21339,2,0,B|192:220|148:244,1,99.9999999999999,2|8
56,204,22221,2,0,B|40:268,1,50,2|0
100,336,22883,1,0
200,316,23324,1,0
200,316,23544,2,0,B|236:356|296:344,1,99.9999999999999,8|2
380,296,24427,5,8
332,208,24868,2,0,B|296:168|236:180,1,99.9999999999999,2|8
156,228,25750,2,0,B|120:332,2,99.9999999999999,2|8|2
100,144,27074,1,8
100,144,27515,6,0,B|155:48|276:56,1,200,2|2
348,116,28839,2,0,B|392:80,2,50,0|0|2
268,176,29721,2,0,B|292:224|352:220,1,99.9999999999999,0|2
172,128,31044,5,2
88,184,31486,1,8
116,280,31927,2,0,B|92:340,1,50,2|0
212,228,32809,2,0,B|232:344,1,99.9999999999999,2|8
324,292,33692,1,2
452,136,34574,6,0,B|392:128|368:80,1,99.9999999999999,2|8
284,36,35456,1,2
284,36,35677,1,0
280,136,36118,2,0,B|261:187,2,50,0|2|0
360,196,37000,2,0,B|356:248|300:292|256:280,1,150,0|8
168,232,38103,1,2
244,100,38765,6,0,B|276:116|284:152,1,50,0|2
236,224,39427,1,8
236,224,39868,2,0,B|256:264|336:280|388:244,1,150,2|0
420,168,40971,1,0
276,128,41633,6,0,B|342:160|352:266|300:304,1,200,2|2
220,348,42956,1,4
220,348,43177,1,4
132,168,44059,6,0,B|120:115|156:75,1,99.9999999999999
200,48,44721,1,8
200,48,45162,2,0,B|247:90|327:85|391:53,1,200,4|2
452,132,46486,1,8
452,132,46927,2,0,B|476:240,1,99.9999999999999,2|8
392,284,47809,6,0,B|368:176,2,99.9999999999999,2|8|2
276,188,49353,1,0
276,188,49574,2,0,B|248:216|248:264|288:296,1,99.9999999999999,2|8
252,324,50236,2,0,B|216:360|136:352|104:308,1,150,0|8
16,328,51339,1,2
100,204,52000,6,0,B|152:204|196:272|180:328,1,150,4|8
268,364,53103,2,0,B|284:308,1,50,2|0
376,280,53765,2,0,B|334:133,1,150,4|8
364,40,54868,1,2
432,112,55309,1,8
335,136,55750,5,2
334,135,56192,2,0,B|284:152|220:136|200:96,1,150,8|0
100,88,57294,2,0,B|68:160|84:240,1,150
132,324,58397,2,0,B|105:345|76:336,2,50,2|0|0
200,252,59280,5,4
200,252,59721,2,0,B|265:241|340:267|385:317,1,200,8|8
480,296,61044,1,2
288,344,61927,6,0,B|264:288|296:232|340:204|392:212,1,200,2|2
460,140,63250,1,8
480,240,63692,2,0,B|424:248|384:208,1,99.9999999999999,2|8
348,240,64353,2,0,B|300:220|280:148|308:100,1,150,0|8
256,24,65456,1,2
100,152,66339,6,0,B|80:216,1,50,2|0
128,228,66780,2,0,B|148:292,3,50,8|0|2|0
292,260,68103,2,0,B|356:240,2,50,2|0|8
244,274,68765,2,0,B|200:248|188:180|224:140,1,150,0|8
296,76,69868,6,0,B|328:95|337:146|310:176,1,99.9999999999999,2|8
420,160,70750,2,0,B|429:197|399:239|359:241,1,99.9999999999999,2|8
256,192,71633,12,4,73177
120,136,74280,5,2
172,220,74721,1,0
248,156,75162,6,0,B|276:196|268:256,1,99.9999999999999,4|8
192,316,76044,1,2
192,316,76486,2,0,B|164:276|172:216,1,99.9999999999999,8|2
256,96,77589,2,0,B|232:76|240:40,2,50,0|2|0
304,112,78250,2,0,B|356:100|396:140,1,99.9999999999999,8|4
464,212,79133,5,8
372,256,79574,2,0,B|340:292|344:348,1,99.9999999999999,2|8
244,352,80456,2,0,B|144:324,2,99.9999999999999,2|8|2
392,340,82000,5,0
392,340,82221,2,0,B|432:304|420:250,2,99.9999999999999,2|8|2
332,204,83765,1,0
332,204,83986,2,0,B|292:176|280:104|308:64,1,150,4|0
404,44,85089,1,0
480,108,85530,5,0
480,108,85750,2,0,B|476:168|420:188,1,99.9999999999999,2|8
448,284,86633,2,0,B|396:252|295:276|269:334,1,200,2|2
180,368,87956,1,8
96,312,88397,2,0,B|80:248,2,50,2|0|8
180,368,89280,6,0,B|220:288|164:224,1,150,4|0
84,172,90383,1,0
140,88,90824,2,0,B|192:60|240:112|288:88,1,150,0|8
372,140,91927,2,0,B|396:96,2,50,2|0|8
404,236,92809,6,0,B|352:256|284:220|280:176,1,150,4|0
204,116,93912,1,0
204,116,94353,2,0,B|166:127|147:202|178:248,1,150,0|8
248,320,95456,5,2
340,276,95897,2,0,B|402:298,2,50,0|0|2
296,180,96780,2,0,B|318:117,2,50,0|0|2
204,228,97662,2,0,B|141:205,2,50,0|0|2
248,320,98544,2,0,B|225:382,2,50,0|0|2
268,272,99206,5,0
268,272,99427,2,0,B|268:168,1,99.9999999999999,0|4
116,176,100530,2,0,B|92:152|60:164,4,50,0|2|0|0|0
152,212,101633,6,0,B|181:228|224:220|241:190,1,99.9999999999999,4|8
280,100,102515,2,0,B|250:83|208:92|190:121,1,99.9999999999999,2|8
152,212,103397,2,0,B|184:324,2,99.9999999999999,2|8|2
68,160,104721,1,8
128,80,105162,6,0,B|184:80|208:128,1,99.9999999999999,2|8
152,212,106044,2,0,B|188:269|282:279|339:227,1,200,2|2
412,180,107368,1,8
412,180,107589,2,0,B|448:224|432:280,2,99.9999999999999
372,148,108692,6,0,B|316:148|288:200,1,99.9999999999999,2|8
212,136,109574,2,0,B|172:175|189:232,1,99.9999999999999,2|8
88,244,110456,2,0,B|87:300|139:328,2,99.9999999999999,2|8|2
188,240,111780,1,8
208,140,112221,6,0,B|260:144|308:200|304:268|268:304,1,200,2|2
188,240,113544,1,0
256,192,113765,12,0,117074
