osu file format v9

[General]
AudioFilename: Nageki no Mori .mp3
AudioLeadIn: 2000
PreviewTime: 79360
Countdown: 0
SampleSet: Soft
StackLeniency: 0.3
Mode: 0
LetterboxInBreaks: 0

[Editor]
Bookmarks: 14916,31188,47459,63730,71860,80001,96263,112535,122703
DistanceSpacing: 1
BeatDivisor: 4
GridSize: 4

[Metadata]
Title:Nageki no Mori
Artist:Ayane
Creator:Pookz
Version:Pook
Source:
Tags:

[Difficulty]
HPDrainRate:7
CircleSize:5
OverallDifficulty:7
ApproachRate:8
SliderMultiplier:2.4
SliderTickRate:0.5

[Events]
//Background and Video events
0,0,"Nageki no Mori .jpg"
//Break Periods
//Storyboard Layer 0 (Background)
//Storyboard Layer 1 (Fail)
//Storyboard Layer 2 (Pass)
//Storyboard Layer 3 (Foreground)
//Storyboard Sound Samples
//Background Colour Transformations
3,100,163,162,255

[TimingPoints]
-1364,508.474576271186,4,2,1,30,1,0
161,-200,4,2,1,30,0,0
10585,-200,4,2,1,5,0,0
10839,-200,4,2,1,30,0,0
13381,-200,4,1,1,40,0,0
14907,-133.333333333333,4,1,1,40,0,0
17703,-133.333333333333,4,2,1,50,0,0
18974,-133.333333333333,4,1,1,40,0,0
21771,-133.333333333333,4,2,1,50,0,0
23042,-133.333333333333,4,1,1,40,0,0
25076,-133.333333333333,4,1,1,30,0,0
25839,-133.333333333333,4,2,1,50,0,0
27110,-133.333333333333,4,1,1,40,0,0
27619,-133.333333333333,4,2,1,50,0,0
29144,-133.333333333333,4,1,1,50,0,0
31178,-133.333333333333,4,1,1,40,0,0
32195,-133.333333333333,4,1,1,40,0,0
32958,-133.333333333333,4,1,1,40,0,0
33212,-133.333333333333,4,2,1,5,0,0
33466,-133.333333333333,4,1,1,40,0,0
33720,-133.333333333333,4,2,1,5,0,0
33974,-133.333333333333,4,1,1,50,0,0
35500,-133.333333333333,4,2,1,5,0,0
35754,-133.333333333333,4,1,1,40,0,0
36390,-133.333333333333,4,2,1,5,0,0
36517,-133.333333333333,4,1,1,40,0,0
36771,-133.333333333333,4,2,1,5,0,0
37025,-133.333333333333,4,1,1,40,0,0
37280,-133.333333333333,4,2,1,5,0,0
37534,-133.333333333333,4,1,1,40,0,0
37788,-133.333333333333,4,2,1,5,0,0
38042,-133.333333333333,4,1,1,40,0,0
38297,-133.333333333333,4,1,1,50,0,0
39568,-133.333333333333,4,1,1,40,0,0
40839,-133.333333333333,4,2,1,5,0,0
41093,-133.333333333333,4,1,1,40,0,0
41347,-133.333333333333,4,2,1,5,0,0
41602,-133.333333333333,4,1,1,40,0,0
41856,-133.333333333333,4,2,1,5,0,0
42110,-133.333333333333,4,1,1,40,0,0
42364,-133.333333333333,4,1,1,50,0,0
43635,-133.333333333333,4,1,1,40,0,0
47449,-133.333333333333,4,2,1,65,0,0
48466,-133.333333333333,4,1,1,45,0,0
48720,-133.333333333333,4,2,1,5,0,0
48974,-133.333333333333,4,2,1,40,0,0
49356,-133.333333333333,4,1,1,40,0,0
51517,-133.333333333333,4,2,1,50,0,0
54568,-133.333333333333,4,1,1,40,0,0
55585,-133.333333333333,4,2,1,50,0,0
57110,-133.333333333333,4,2,1,60,0,0
57619,-133.333333333333,4,2,1,50,0,0
58381,-133.333333333333,4,2,1,60,0,0
58635,-133.333333333333,4,1,1,40,0,0
58890,-133.333333333333,4,2,1,60,0,0
59144,-133.333333333333,4,1,1,35,0,0
59398,-133.333333333333,4,2,1,60,0,0
59652,-133.333333333333,4,2,1,50,0,0
62703,-133.333333333333,4,1,1,40,0,0
63466,-133.333333333333,4,1,1,50,0,0
64737,-133.333333333333,4,2,1,60,0,0
64991,-133.333333333333,4,1,1,40,0,0
65246,-133.333333333333,4,2,1,30,0,0
65500,-133.333333333333,4,1,1,40,0,0
66771,-133.333333333333,4,2,1,60,0,0
67025,-133.333333333333,4,2,1,60,0,0
67280,-133.333333333333,4,2,1,60,0,0
67534,-133.333333333333,4,2,1,60,0,0
67788,-133.333333333333,4,1,1,50,0,0
68042,-133.333333333333,4,2,1,60,0,0
68297,-133.333333333333,4,1,1,40,0,0
68805,-133.333333333333,4,2,1,60,0,0
69059,-133.333333333333,4,1,1,40,0,0
70839,-133.333333333333,4,2,1,60,0,0
71602,-133.333333333333,4,1,1,50,0,0
72110,-133.333333333333,4,2,1,60,0,0
72364,-133.333333333333,4,1,1,50,0,0
72619,-133.333333333333,4,2,1,60,0,0
73000,-133.333333333333,4,1,1,50,0,0
73127,-133.333333333333,4,2,1,60,0,0
73254,-133.333333333333,4,1,1,40,0,0
77195,-133.333333333333,4,2,1,60,0,0
77322,-133.333333333333,4,1,1,50,0,0
77958,-100,4,1,1,65,0,0
79483,-100,4,1,1,50,0,0
81135,-100,4,1,1,35,0,0
81517,-100,4,1,1,60,0,0
83169,-100,4,1,1,35,0,0
83551,-100,4,1,1,50,0,0
88127,-100,4,2,1,60,0,0
88635,-100,4,1,1,50,0,0
99186,-100,4,2,1,5,0,0
99313,-100,4,2,1,60,0,0
99822,-100,4,1,1,50,0,0
104398,-100,4,2,1,60,0,0
104907,-100,4,1,1,50,0,0
107958,-100,4,2,1,60,0,0
108466,-100,4,1,1,50,0,0
112534,-100,4,2,1,60,0,0
112788,-100,4,1,1,50,0,0
114568,-100,4,2,1,60,0,0
114695,-100,4,2,1,60,0,0
114822,-100,4,1,1,50,0,0
114949,-100,4,2,1,60,0,0
115076,-100,4,1,1,50,0,0
115203,-100,4,2,1,60,0,0
115330,-100,4,2,1,60,0,0
115839,-100,4,1,1,50,0,0
116093,-100,4,2,1,60,0,0
116347,-100,4,1,1,50,0,0
116602,-133.333333333333,4,2,1,60,0,0
117237,-133.333333333333,4,2,1,5,0,0
117364,-100,4,1,1,50,0,0
120797,-100,4,2,1,5,0,0
120924,-100,4,1,1,50,0,0
121051,-100,4,2,1,5,0,0
121178,-100,4,1,1,50,0,0
121305,-100,4,2,1,5,0,0
121432,-100,4,1,1,50,0,0
121559,-100,4,2,1,5,0,0
121686,-100,4,1,1,50,0,0
121813,-100,4,2,1,5,0,0
121941,-100,4,1,1,50,0,0
122449,-100,4,2,1,5,0,0
122703,-100,4,2,1,50,0,0

[Colours]
Combo1 : 147,143,209
Combo2 : 131,5,62
Combo3 : 15,58,94

[HitObjects]
144,256,415,1,0
144,256,669,2,0,B|200:272|232:224|232:224|271:235|308:280,2,180
76,232,2449,1,0
84,308,2703,2,0,B|136:340|216:324,1,120
276,340,3466,2,0,B|352:360|380:260,1,120
352,212,4229,2,0,B|384:212|436:232,1,60
472,120,4737,6,0,B|416:100|340:88,1,120
276,92,5500,1,0
276,92,5627,1,0
276,92,5754,2,0,B|204:112,1,60
64,144,6517,2,0,B|116:192,1,60
256,240,7280,2,0,B|232:308,1,60
208,136,8297,5,0
244,120,8424,1,0
284,124,8551,1,0
316,148,8678,1,0
340,180,8805,2,0,B|388:216|468:232,1,120
376,248,9568,2,0,B|312:256|256:292,1,120
196,324,10330,2,0,B|112:300,1,60
24,192,10839,5,0
88,128,11093,1,0
172,132,11347,1,0
228,188,11602,1,0
260,252,11856,1,0
324,272,12110,1,0
376,240,12364,1,0
428,252,12619,1,0
456,292,12873,1,0
456,88,13890,6,0,B|468:60,2,20
376,120,14144,2,0,B|388:168,1,30
264,156,14398,2,0,B|272:212,1,30
144,160,14652,2,0,B|136:204,1,30
32,144,14907,6,0,B|80:48|204:84,1,179.999994635582,0|0
144,160,15669,1,0
128,200,15797,1,0
108,240,15924,2,0,B|72:328,1,89.9999973177911
188,252,16432,5,0
320,276,16686,1,0
444,224,16941,2,0,B|440:156|380:92,1,134.999995976687,0|0
196,44,17703,5,2
332,36,17958,1,2
388,156,18212,1,2
288,244,18466,1,2
172,176,18720,1,2
389,102,18974,6,0,B|440:160|448:240,2,134.999995976687
332,36,19991,1,0
300,120,20246,2,0,B|256:196|128:240,1,179.999994635582
72,252,21008,2,0,B|152:216|288:220,1,179.999994635582
336,232,21771,5,2
380,152,22025,1,2
312,92,22280,1,2
232,132,22534,2,0,B|188:152|136:152,1,89.9999973177911,2|0
400,64,23042,6,0,B|464:88|484:156|432:240,1,179.999994635582
404,292,23805,1,0
372,264,23932,1,0
336,232,24059,2,0,B|264:164,1,89.9999973177911
128,168,24568,2,0,B|200:236,1,89.9999973177911
200,116,25076,5,0
288,96,25330,1,0
268,8,25585,1,0
180,28,25839,5,2
116,88,26093,1,2
132,176,26347,1,2
220,204,26602,1,2
284,144,26856,1,2
200,116,27110,6,0,B|176:240|332:236,1,179.999994635582
228,292,27873,5,2
156,344,28127,1,2
72,316,28381,1,2
56,228,28635,1,2
420,216,29144,6,0,B|472:256,1,44.9999986588955
336,268,29525,2,0,B|352:336,1,44.9999986588955
248,204,29907,2,0,B|212:244,1,44.9999986588955
336,164,30161,5,0
336,164,30288,2,0,B|376:136|388:80,1,89.9999973177911
392,112,30669,2,0,B|396:228|500:292,1,179.999994635582
336,268,31432,5,0
260,220,31686,1,0
172,240,31941,1,0
136,324,32195,2,0,B|112:224|24:176,1,179.999994635582,0|0
124,164,32958,2,0,B|168:160|216:116,1,89.9999973177911,0|0
108,32,33466,2,0,B|64:36|16:80,1,89.9999973177911,0|0
176,92,33974,6,0,B|221:84|264:80,1,89.9999973177911,0|0
224,100,34356,2,0,B|267:116|306:133,1,89.9999973177911,0|0
348,152,34737,1,0
388,176,34864,1,0
452,236,34991,5,0
472,148,35246,2,0,B|483:106|472:32,2,89.9999973177911
464,192,35881,1,0
444,232,36008,1,0
408,260,36135,1,0
364,272,36263,2,0,B|388:320,1,44.9999986588955
320,264,36517,2,0,B|279:246|200:244,1,89.9999973177911,0|0
252,156,37025,6,0,B|211:138|132:136,1,89.9999973177911,0|0
184,48,37534,6,0,B|143:30|64:28,2,89.9999973177911,0|0|0
308,44,38297,6,0,B|356:24,1,44.9999986588955
376,148,38805,2,0,B|440:160,1,44.9999986588955
252,156,39059,6,0,B|211:138|132:136,1,89.9999973177911
72,236,39568,5,0
112,256,39695,1,0
136,292,39822,1,0
208,236,40076,5,0
220,324,40330,1,0
292,268,40585,6,0,B|319:241|376:216,1,89.9999973177911
300,164,41093,6,0,B|327:137|384:112,1,89.9999973177911
308,60,41602,6,0,B|335:33|392:8,1,89.9999973177911
232,108,42110,5,0
160,164,42364,21,0
132,200,42491,2,0,B|114:220|108:240,1,44.9999986588955
148,76,42873,21,0
104,68,43000,1,0
244,196,43127,22,0,B|288:224|360:196,1,89.9999973177911
460,240,43635,5,0
416,248,43763,1,0
380,272,43890,1,0
356,312,44017,1,0
352,356,44144,1,0
256,264,44398,5,0
120,256,44652,5,0
146,220,44780,1,0
154,177,44907,1,0
143,132,45034,1,0
114,98,45161,2,0,B|158:118|220:124,1,89.9999973177911
364,192,45669,6,0,B|280:237|164:260,1,179.999994635582
284,96,46432,6,0,B|328:75|390:70,1,89.9999973177911
324,72,46813,2,0,B|268:67|216:44,2,89.9999973177911
404,112,47449,6,0,B|310:130|207:188,1,179.999994635582,4|0
164,228,48212,1,0
152,140,48466,2,0,B|146:96|116:40,1,89.9999973177911,0|0
80,196,48974,2,0,B|96:280|144:336,1,134.999995976687
92,300,49483,2,0,B|45:279|4:272,2,89.9999973177911
172,340,50246,2,0,B|236:293|340:276,1,179.999994635582
260,232,51008,2,0,B|208:208|180:164,1,89.9999973177911
184,80,51517,5,4
100,148,51771,1,2
120,256,52025,1,2
220,300,52280,1,2
328,304,52534,5,4
412,236,52788,1,2
392,128,53042,1,2
292,84,53297,1,2
236,156,53551,5,4
292,224,53805,1,2
380,200,54059,1,2
376,112,54313,1,2
456,156,54568,6,0,B|465:201|496:240,1,89.9999973177911
448,236,54949,2,0,B|404:236|356:220,1,89.9999973177911
316,204,55330,1,0
272,208,55458,1,0
236,236,55585,6,0,B|201:257|136:260,1,89.9999973177911,4|2
76,148,56093,2,2,B|110:126|176:124,1,89.9999973177911
436,236,56602,6,0,B|401:257|336:260,1,89.9999973177911,4|2
276,148,57110,2,2,B|310:126|376:124,1,89.9999973177911
256,60,57619,6,0,B|228:120|272:224|256:328,1,269.999991953373,4|0
256,327,58635,6,0,B|264:280|256:204,1,89.9999973177911
256,60,59144,2,0,B|240:108|256:183,1,89.9999973177911
192,284,59652,5,4
120,228,59907,1,2
156,144,60161,1,2
244,148,60415,1,2
268,236,60669,5,4
356,240,60924,1,2
392,156,61178,1,2
320,100,61432,1,2
380,220,61686,5,4
280,312,61941,1,2
160,252,62195,1,2
188,120,62449,1,2
60,160,62703,6,0,B|28:240|56:344,1,179.999994635582
160,252,63466,1,0
188,220,63593,1,0
228,200,63720,2,0,B|180:220|120:184,1,89.9999973177911
188,120,64229,1,0
276,124,64483,1,0
380,220,64737,5,4
364,104,64991,22,0,B|404:92|448:40,2,89.9999973177911
276,124,65754,1,0
340,60,66008,1,0
424,88,66263,1,0
356,136,66517,5,0
324,164,66644,1,0
284,184,66771,2,0,B|332:164|392:200,1,89.9999973177911,4|0
228,200,67280,2,0,B|180:220|120:184,1,89.9999973177911,4|0
56,160,67788,6,0,B|72:216|64:260,1,89.9999973177911
60,340,68297,1,0
140,296,68551,1,0
228,200,68805,21,4
228,288,69059,5,0
316,304,69313,1,0
392,352,69568,1,0
396,264,69822,5,0
256,348,70076,1,0
168,212,70330,1,0
308,128,70585,2,0,B|368:120,1,44.9999986588955
436,160,70839,5,4
76,224,71347,1,4
276,304,71602,5,0
276,304,71729,1,0
276,304,71856,2,0,B|324:303|400:280,1,89.9999973177911
149,153,72364,2,0,B|124:195|107:272,1,89.9999973177911
344,120,72873,1,0
328,96,73000,1,0
312,76,73127,1,0
292,56,73254,1,0
256,28,73381,5,0
377,177,73635,1,0
272,339,73890,1,0
86,289,74144,1,0
76,97,74398,1,0
436,287,74907,5,0
248,24,75288,1,0
112,320,75669,1,0
24,216,75924,5,0
128,132,76178,1,0
216,232,76432,2,0,B|216:280|200:332,1,89.9999973177911
216,144,76941,5,0
260,156,77068,1,0
292,184,77195,1,0
324,216,77322,1,0
364,236,77449,5,0
96,208,77703,5,0
296,24,77958,5,4
452,152,78339,1,4
360,332,78720,1,4
156,320,79102,1,4
124,120,79483,6,0,B|176:80,1,60
184,188,79737,2,0,B|256:156,1,60
252,256,79991,5,0
336,208,80373,1,0
320,116,80754,1,0
228,104,81135,1,0
184,188,81517,5,0
200,216,81644,1,0
224,236,81771,1,0
240,260,81898,1,0
248,292,82025,5,0
140,212,82407,1,0
196,88,82788,1,0
332,100,83169,1,0
368,232,83551,5,0
332,100,83678,1,0
196,88,83805,1,0
140,212,83932,1,0
248,292,84059,5,0
404,212,84441,1,0
348,48,84822,1,0
348,48,84949,1,0
348,48,85076,1,0
172,36,85458,1,0
104,196,85839,1,0
256,296,86093,6,0,B|316:201|468:168,1,240
340,128,86856,2,0,B|256:100,1,60
232,180,87237,2,0,B|168:188,1,60
36,340,87619,5,0
80,300,87746,1,0
136,284,87873,1,0
196,284,88000,1,0
256,296,88127,5,4
364,352,88381,1,4
420,248,88635,1,0
312,192,88890,2,0,B|181:174|68:208,1,240
28,96,89652,1,0
140,52,89907,1,0
188,160,90161,2,0,B|216:216|212:300,2,120
260,64,90924,1,0
320,40,91051,5,0
320,40,91178,2,0,B|365:80|456:112,1,120
484,204,91686,1,0
368,240,91941,5,0
316,272,92068,1,0
280,320,92195,1,0
176,260,92449,1,0
56,272,92703,1,0
104,164,92958,5,0
104,164,93085,2,0,B|188:128|300:132,1,180
279,131,93720,2,0,B|228:108|168:64,1,120
392,172,94229,6,0,B|443:195|503:239,1,120
268,304,94610,2,0,B|313:271|381:241,1,120
140,180,94991,2,0,B|196:220,1,60
268,28,95246,6,0,B|256:108,1,60
96,356,95754,5,0
108,296,95881,1,0
192,256,96008,5,0
204,196,96135,1,0
216,136,96263,1,0
424,88,96644,5,0
424,88,96771,2,0,B|420:152|432:224,1,120
404,324,97280,2,0,B|364:272|308:248,1,120
12,232,97788,5,0
68,208,97915,1,0
100,160,98042,1,0
156,136,98169,1,0
216,136,98297,6,0,B|274:134|364:160,1,120
100,160,98678,2,0,B|127:108|194:43,1,120
12,232,99059,2,0,B|20:152,1,60
236,256,99313,5,4
120,280,99568,1,4
348,300,99822,5,0
400,328,99949,1,0
460,320,100076,1,0
492,268,100203,1,0
484,208,100330,6,0,B|472:144|416:96,1,120
368,208,100712,2,0,B|314:171|240:176,1,120
284,292,101093,1,0
344,300,101220,1,0
396,328,101347,6,0,B|472:316,1,60
232,228,101729,2,0,B|271:162,1,60
28,220,102110,2,0,B|2:147,1,60
68,60,102364,6,0,B|108:96|132:160,1,120
128,280,102873,1,0
28,216,103127,6,0,B|2:288,1,60
232,224,103508,2,0,B|271:289,1,60
236,104,103890,5,0
284,72,104017,1,0
320,24,104144,1,0
396,300,104398,5,4
396,300,104652,1,4
284,256,104907,5,0
168,280,105161,1,0
60,232,105415,1,0
56,112,105669,6,0,B|176:104|312:140,1,240
456,272,106432,2,0,B|336:280|200:244,1,240
244,28,107195,6,0,B|256:108,1,60
268,356,107576,2,0,B|256:276,1,60
484,180,107958,5,4
28,204,108212,5,4
140,160,108466,6,0,B|188:200|228:268,1,120
320,192,108974,2,0,B|372:152,1,60
367,155,109229,2,0,B|303:144|248:96,1,120
480,192,109737,2,0,B|488:256,1,60
496,312,109991,5,0
440,288,110119,1,0
380,276,110246,1,0
320,284,110373,1,0
268,316,110500,2,0,B|168:340|88:312,1,180
244,68,111263,6,0,B|312:56,1,60
408,116,111517,6,0,B|344:148,1,60
256,208,111771,2,0,B|188:212,1,60
120,304,112025,2,0,B|44:264,1,60
32,160,112280,5,0
128,32,112534,6,0,B|228:80|384:80,1,240,4|0
480,92,113297,5,0
408,188,113551,1,0
448,300,113805,5,0
408,188,114059,1,0
288,172,114313,5,0
204,260,114568,6,0,B|144:316,1,60,4|0
340,203,114822,2,0,B|419:226,1,60
223,112,115076,2,0,B|204:33,1,60
120,172,115330,6,0,B|174:184|280:196,1,120,4|0
444,144,115839,5,0
340,84,116093,2,0,B|285:71|180:60,1,120,4|0
28,332,116602,6,0,B|148:292|184:164,1,224.999993294478,4|0
188,120,117364,5,0
236,156,117491,1,0
296,172,117619,2,0,B|356:189|424:180,1,120
232,276,118127,2,0,B|173:298|105:295,1,120
280,108,118635,6,0,B|365:79|520:84,1,240
232,276,119398,1,0
172,292,119525,1,0
112,300,119652,2,0,B|56:304|-12:300,1,120
84,128,120161,5,0
168,160,120288,1,0
256,168,120415,1,0
344,144,120542,1,0
416,88,120669,6,0,B|472:132,1,60
344,144,120924,2,0,B|384:224,1,60
256,168,121178,2,0,B|260:244,1,60
168,160,121432,2,0,B|140:228,1,60
84,128,121686,2,0,B|32:164,1,60
258,72,121941,5,0
256,192,122195,6,0,B|248:144|264:114|256:28,1,120
256,312,122703,5,4
