osu file format v9

[General]
AudioFilename: melody of the sun and sea.mp3
AudioLeadIn: 0
PreviewTime: 68091
Countdown: 0
SampleSet: Soft
StackLeniency: 0.7
Mode: 0
LetterboxInBreaks: 1

[Editor]
Bookmarks: 8091,24028,31763
DistanceSpacing: 1
BeatDivisor: 2
GridSize: 8

[Metadata]
Title:Melody of the Sun and Sea
Artist:Ayane
Creator:Shinkuu
Version:Melody of deepsea
Source:Kono Aozora ni Yakusoku wo
Tags:deepsea alace galgame

[Difficulty]
HPDrainRate:0
CircleSize:3
OverallDifficulty:5
ApproachRate:5
SliderMultiplier:1.8
SliderTickRate:0.5

[Events]
//Background and Video events
0,0,"Aozora.jpg"
//Break Periods
2,24454,30554
//Storyboard Layer 0 (Background)
//Storyboard Layer 1 (Fail)
//Storyboard Layer 2 (Pass)
//Storyboard Layer 3 (Foreground)
//Storyboard Sound Samples
//Background Colour Transformations
3,100,163,162,255

[TimingPoints]
5504,468.75,4,2,1,65,1,0
7379,-133.333333333333,4,2,1,65,0,0
24254,-100,4,2,1,65,0,0
34332,-100,4,2,1,41,0,0
35269,-100,4,2,1,65,0,0
37261,-100,4,1,1,44,0,0
38433,-100,4,2,1,65,0,0
53433,-100,4,2,1,65,0,0
68082,-100,4,1,1,40,0,0
69254,-100,4,1,1,40,0,1
82847,-133.333333333333,4,2,1,51,0,1
86597,-100,4,1,1,41,0,1
90464,-100,4,1,1,39,0,1
97339,-200,4,2,1,65,0,1
99214,-133.333333333333,4,2,1,65,0,0
112099,-133.333333333333,4,1,1,65,0,0
112333,-200,4,1,1,65,0,0
119595,-100,4,2,1,0,0,0

[Colours]
Combo1 : 155,78,0
Combo2 : 255,175,96
Combo3 : 188,188,222
Combo4 : 98,98,255

[HitObjects]
112,192,8082,2,0,B|64:112|120:48,1,134.999995976687,2|0
192,64,8785,2,0,B|344:64,1,134.999995976687,0|2
400,320,9957,6,0,B|232:320,1,134.999995976687,2|0
184,320,10660,2,0,B|128:240|208:160,1,134.999995976687,0|2
408,56,11832,6,0,B|352:136|448:224,1,134.999995976687,2|0
432,264,12535,1,0
352,248,12769,1,2
300,185,13004,2,0,B|140:185,1,134.999995976687
83,183,13707,2,0,B|35:279|131:343,1,134.999995976687,2|0
173,313,14410,2,0,B|341:313,1,134.999995976687,0|4
121,126,15582,6,0,B|201:78|289:150,1,134.999995976687,2|0
330,126,16285,2,0,B|490:126,1,134.999995976687,0|2
472,301,17222,6,0,B|384:349|304:269,1,134.999995976687
262,296,17925,2,0,B|118:296,1,134.999995976687,0|0
102,121,18863,1,2
174,85,19097,1,0
250,111,19332,1,2
218,306,20504,5,0
141,154,20972,1,2
293,77,21441,1,0
370,229,21910,1,2
256,192,22379,12,4,24254
72,112,31754,5,0
72,112,32222,2,0,B|184:64|296:136,1,180,0|0
392,112,33160,1,2
392,256,33629,1,0
256,312,34097,1,0
120,256,34566,2,4,B|192:136|88:56,1,180
256,48,35504,5,0
352,152,35972,1,2
256,256,36441,1,2
160,152,36910,1,0
94,104,37144,1,0
30,155,37379,2,0,B|-34:259|54:371,2,180,0|0|0
376,272,39957,5,0
288,272,40191,2,0,B|192:328|96:264,1,180,0|2
112,96,41129,2,0,B|232:56|312:112,1,180
376,96,41832,1,0
376,272,42300,5,0
288,296,42535,1,2
200,272,42769,1,0
112,296,43004,2,0,B|56:192|120:104,1,180
104,32,43707,2,0,B|304:32,1,180
376,32,44410,2,0,B|320:136|400:232,1,180,2|0
176,272,46050,5,0
224,192,46285,1,2
184,112,46519,1,0
224,32,46754,2,0,B|336:-8|440:48,1,180
408,120,47457,2,0,B|368:208|416:312,1,180
328,328,48160,1,2
240,296,48394,1,0
152,328,48629,1,0
80,64,49332,6,0,B|192:32|304:80,1,180
208,136,50035,1,2
288,184,50269,1,0
328,104,50504,2,0,B|520:104,1,180
464,184,51207,2,0,B|400:272|488:360,1,180
384,344,51910,2,0,B|176:344,1,180,2|0
104,192,52847,5,0
256,96,53316,1,0
416,24,53785,1,2
416,192,54254,2,0,B|472:296|424:368,1,180
344,320,54957,6,0,B|144:320,1,180
88,272,55660,2,0,B|16:152|128:80,1,180,2|0
168,64,56363,2,0,B|368:64,2,180
168,152,57535,2,0,B|240:256|152:336,1,180,2|0
320,96,58707,6,0,B|392:184|320:264,1,180
232,256,59410,1,2
144,256,59644,1,0
56,256,59879,2,0,B|56:64,1,180
144,72,60582,2,0,B|248:152|360:24,1,180
400,72,61285,2,0,B|472:168|400:256,1,180,2|0
80,280,62457,6,0,B|40:176|88:88,1,180
152,56,63160,1,2
224,112,63394,2,0,B|263:183|223:287,2,180
296,56,64566,2,0,B|480:56,1,180,0|2
432,232,65504,5,0
256,232,65972,1,0
72,232,66441,1,0
256,232,66910,1,2
256,192,67379,12,0,69254
168,64,69957,6,0,B|272:24|368:80,1,180
336,160,70660,1,2
176,160,71129,1,0
416,288,71832,6,0,B|312:336|224:280,1,180
152,288,72535,1,2
144,112,73004,2,0,B|216:32|320:120,1,180
304,200,73707,2,0,B|408:272|480:200,1,180
488,120,74410,1,2
456,32,74644,1,0
96,24,75582,6,0,B|32:112|120:224,1,180
96,280,76285,1,2
256,192,76754,1,0
423,246,77222,1,0
480,71,77691,1,0
312,17,78160,1,2
256,88,78394,2,0,B|160:128|64:80,2,180
88,296,80035,5,2
168,336,80269,1,0
248,296,80504,2,0,B|368:344|464:280,1,180
432,120,81441,1,0
352,80,81675,1,0
272,120,81910,2,0,B|152:72|56:136,1,180,2|0
56,312,83082,6,0,B|200:352|408:312,1,337.499989941716
456,72,84957,6,0,B|312:32|104:72,1,337.499989941716
352,216,86832,6,0,B|408:136|328:16,1,180
256,48,87535,2,0,B|56:48,1,180,2|0
80,232,88472,1,0
256,280,88941,1,0
344,312,89175,1,0
432,280,89410,2,0,B|480:176|416:80,1,180,2|0
168,56,90582,6,0,B|264:16|352:64,1,180
383,139,91285,1,2
383,228,91519,1,0
351,312,91754,2,0,B|239:360|127:288,1,180
25,215,92691,2,0,B|-7:119|41:31,1,180,0|2
126,41,93394,2,0,B|318:41,1,180
278,127,94097,1,0
326,202,94332,1,0
56,304,95035,5,2
144,272,95269,1,0
240,256,95504,2,0,B|360:288|440:256,1,180
336,104,96441,1,0
304,24,96675,1,0
208,24,96910,1,2
176,104,97144,1,0
256,160,97379,2,0,B|256:360,1,180
48,112,99254,6,0,B|184:40|360:144,1,269.999991953373,0|2
464,272,101129,2,0,B|328:344|152:240,1,269.999991953373
144,176,102535,1,2
200,80,103004,5,0
384,192,103941,1,8
184,272,104879,1,0
8,152,105816,1,8
96,88,106285,1,2
184,152,106754,6,0,B|320:216|464:144,2,269.999991953373
56,328,109566,1,0
160,312,110035,1,2
264,336,110504,1,0
424,192,111441,1,0
360,104,111910,1,2
256,136,112379,6,0,B|192:112|128:112|96:160,2,135,0|0|0
256,248,114254,6,0,B|192:272|128:272|96:224,2,135,0|0|0
256,192,116129,12,0,119879
