osu file format v13

[General]
AudioFilename: Ayane - Go Love&Peace.mp3
AudioLeadIn: 1000
PreviewTime: 75057
Countdown: 0
SampleSet: Soft
StackLeniency: 0.7
Mode: 0
LetterboxInBreaks: 0
WidescreenStoryboard: 0

[Editor]
Bookmarks: 10604
DistanceSpacing: 1
BeatDivisor: 4
GridSize: 8
TimelineZoom: 1

[Metadata]
Title:GO Love&Peace
TitleUnicode:GO→Love&Peace
Artist:Ayane
ArtistUnicode:彩音
Creator:Gleipnir
Version:Normal
Source:超次元ゲイム ネプテューヌ mk2
Tags:Shadren Hyperdimension ed ending playstation geimu Choujigen Game Neptune
BeatmapID:479327
BeatmapSetID:202661

[Difficulty]
HPDrainRate:4
CircleSize:3
OverallDifficulty:4
ApproachRate:4
SliderMultiplier:1.2
SliderTickRate:1

[Events]
//Background and Video events
0,0,"nepgear_wall.jpg",0,0
Video,233,"Hyperdimension Neptunia Mk2.flv"
//Break Periods
//Storyboard Layer 0 (Background)
//Storyboard Layer 1 (Fail)
//Storyboard Layer 2 (Pass)
//Storyboard Layer 3 (Foreground)
//Storyboard Sound Samples

[TimingPoints]
1229,468.75,4,2,2,50,1,0
16229,-100,4,2,2,60,0,0
31229,-100,4,2,2,50,0,0
57947,-100,4,2,4,50,0,0
58416,-100,4,2,2,50,0,0
69197,-100,4,2,5,50,0,0
69666,-100,4,2,2,50,0,0
71072,-100,4,2,5,50,0,0
71541,-100,4,2,2,50,0,0
75291,-100,4,2,2,60,0,0
76229,-100,4,2,2,70,0,1
90760,-100,4,2,2,50,0,0
91229,-100,4,2,2,70,0,1
108104,-100,4,2,2,70,0,0

[Colours]
Combo1 : 40,75,215
Combo2 : 255,0,255
Combo3 : 25,175,255
Combo4 : 128,0,255

[HitObjects]
200,52,1229,6,0,P|256:44|320:60,1,120,4|0,0:0|0:0,0:0:0:0:
408,136,2166,2,0,P|416:192|400:256,1,120,0|0,0:0|0:0,0:0:0:0:
312,336,3104,2,0,P|256:344|192:328,1,120,0|0,0:0|0:0,0:0:0:0:
104,248,4041,2,0,P|96:192|112:128,1,120,0|0,0:0|0:0,0:0:0:0:
200,52,4979,6,0,P|240:80|328:72,1,120,4|0,0:0|0:0,0:0:0:0:
364,72,5682,1,0,0:0:0:0:
208,304,6854,6,0,P|140:306|80:264,1,120,4|0,0:0|0:0,0:0:0:0:
56,240,7557,1,0,0:0:0:0:
320,96,8729,6,0,B|372:48|452:72,1,120,0|8,0:0|0:0,0:0:0:0:
424,192,9666,2,0,B|372:240|292:216,1,120,0|8,0:0|0:0,0:0:0:0:
192,224,10604,2,0,B|132:242|80:194,1,120,0|8,0:0|0:0,0:0:0:0:
80,74,11541,2,0,B|140:56|192:104,1,120,0|8,0:0|0:0,0:0:0:0:
168,224,12479,6,0,P|256:248|352:216,1,180,4|0,0:0|0:0,0:0:0:0:
112,152,14119,1,2,0:0:0:0:
80,200,14354,2,0,P|96:280|184:320,1,180
240,328,15291,1,2,0:3:0:0:
360,336,15760,1,8,0:0:0:0:
472,288,16229,6,0,B|504:212|476:148,1,120,4|10,0:0|0:0,0:0:0:0:
424,64,17166,1,8,0:0:0:0:
312,104,17635,1,8,0:0:0:0:
200,64,18104,2,0,B|168:124|176:208,1,120,8|8,0:0|0:0,0:0:0:0:
176,296,19041,1,8,0:0:0:0:
280,240,19510,1,8,0:0:0:0:
384,296,19979,6,0,L|484:296,2,90,2|0|4,0:0|0:0|0:0,0:0:0:0:
164,96,21854,2,0,L|68:96,2,90,2|0|4,0:0|0:0|0:0,0:0:0:0:
440,40,23729,6,0,P|364:68|340:120,1,120,4|8,0:0|0:0,0:0:0:0:
408,200,24666,1,8,0:0:0:0:
368,312,25135,1,8,0:0:0:0:
256,264,25604,2,0,B|189:248|189:172,1,120,8|8,0:0|0:0,0:0:0:0:
224,64,26541,1,8,0:0:0:0:
112,32,27010,1,8,0:0:0:0:
64,144,27479,6,0,B|24:212|60:276,1,120,4|8,0:0|0:0,0:0:0:0:
144,336,28416,1,0,0:0:0:0:
264,336,28885,1,8,0:0:0:0:
304,224,29354,2,0,B|296:144|216:128,1,120,4|8,0:0|0:0,0:0:0:0:
192,240,30291,2,0,B|122:214|124:149,1,120,4|8,0:0|0:0,0:0:0:0:
136,32,31229,5,4,0:0:0:0:
40,104,31697,1,8,0:0:0:0:
48,224,32166,2,0,P|81:272|136:296,1,120,0|8,1:0|0:0,0:0:0:0:
256,296,33104,1,0,0:0:0:0:
375,296,33572,2,0,P|430:272|464:224,1,120,8|0,0:0|1:0,0:0:0:0:
388,128,34510,1,8,0:0:0:0:
472,40,34979,6,0,P|400:4|308:36,1,180,4|8,0:0|0:0,0:0:0:0:
264,72,35916,1,0,1:0:0:0:
168,144,36385,1,2,0:0:0:0:
112,248,36854,2,0,P|204:260|272:200,1,180,4|8,0:0|0:0,0:0:0:0:
296,152,37791,1,0,1:0:0:0:
256,40,38260,1,2,0:0:0:0:
136,56,38729,6,0,P|115:111|125:170,1,120,4|8,0:0|0:0,0:0:0:0:
192,272,39666,1,0,1:0:0:0:
312,248,40135,1,8,0:0:0:0:
360,136,40604,2,0,P|336:76|288:40,1,120,0|8,0:0|0:0,0:0:0:0:
240,156,41541,2,0,P|268:224|329:250,1,120,0|8,1:0|0:0,0:0:0:0:
416,304,42479,6,4,P|427:246|403:192,2,120,4|8|0,0:0|0:0|1:0,0:0:0:0:
306,247,43885,1,8,0:0:0:0:
208,184,44354,2,0,P|256:140|316:132,2,120,4|8|0,0:0|0:0|1:0,0:0:0:0:
136,272,45760,1,8,0:0:0:0:
256,280,46229,6,0,B|327:293|366:210,1,120,4|8,0:0|0:0,0:0:0:0:
256,160,47166,2,0,P|268:97|316:56,1,120,0|8,1:0|0:0,0:0:0:0:
424,64,48104,2,0,P|465:105|476:163,1,120,0|8,0:0|0:0,0:0:0:0:
360,200,49041,2,0,L|243:224,1,120,0|8,1:0|0:0,0:0:0:0:
144,288,49979,6,0,B|218:316|218:316|326:293,1,180,4|0,0:0|0:0,0:0:0:0:
368,272,50916,1,0,1:0:0:0:
472,208,51385,1,2,0:0:0:0:
368,152,51854,6,0,B|294:124|294:124|186:147,1,180,4|0,0:0|0:0,0:0:0:0:
144,168,52791,1,0,1:0:0:0:
32,216,53260,1,2,0:0:0:0:
112,304,53729,6,0,P|168:315|245:312,1,120,4|8,0:0|0:0,0:0:0:0:
352,304,54666,1,0,1:0:0:0:
288,200,55135,1,8,0:0:0:0:
208,112,55604,2,0,P|268:80|336:96,1,120,0|8,0:0|0:0,0:0:0:0:
380,188,56541,1,0,1:0:0:0:
440,84,57010,1,8,0:0:0:0:
318,87,57479,6,8,L|54:87,1,240,4|0,0:0|1:0,0:0:0:0:
2,180,58885,1,0,0:0:0:0:
80,272,59354,2,0,L|208:272,1,120,8|0,0:0|0:0,0:0:0:0:
296,332,60291,1,0,1:0:0:0:
408,292,60760,1,8,0:0:0:0:
456,256,60994,1,10,0:0:0:0:
480,200,61229,6,0,B|500:138|440:96,1,120,4|8,0:0|0:3,0:0:0:0:
316,92,62166,1,0,0:0:0:0:
196,92,62635,1,8,0:3:0:0:
76,104,63104,2,0,B|22:148|42:210,1,120,4|8,0:0|0:3,0:0:0:0:
136,288,64041,1,0,0:0:0:0:
256,288,64510,1,8,0:3:0:0:
376,288,64979,6,0,P|420:204|400:164,1,120,4|8,0:0|0:3,0:0:0:0:
316,116,65916,1,0,0:0:0:0:
196,116,66385,1,8,0:3:0:0:
100,184,66854,2,0,P|98:242|138:285,1,120,4|8,0:0|0:3,0:0:0:0:
256,328,67791,1,0,0:0:0:0:
368,284,68260,1,8,0:3:0:0:
420,176,68729,6,0,B|356:64|356:64|232:64,1,240,4|8,0:0|0:0,0:0:0:0:
120,96,70135,1,8,0:3:0:0:
99,214,70604,2,0,B|163:326|163:326|287:326,1,240,4|8,0:0|0:0,0:0:0:0:
392,276,72010,1,8,0:3:0:0:
256,192,72479,12,4,74354,0:0:0:0:
280,136,75291,5,2,0:3:0:0:
224,244,75760,1,8,0:0:0:0:
156,144,76229,5,4,0:0:0:0:
40,124,76697,2,0,P|40:180|84:240,1,120,8|0,0:0|0:0,0:0:0:0:
168,308,77635,1,8,0:0:0:0:
284,340,78104,2,0,P|344:320|404:276,1,120,4|8,0:0|0:0,0:0:0:0:
488,216,79041,1,0,0:0:0:0:
440,104,79510,1,8,0:0:0:0:
328,64,79979,6,0,L|315:183,1,120,4|8,0:0|0:0,0:0:0:0:
192,184,80916,2,0,L|179:64,1,120,0|8,0:0|0:0,0:0:0:0:
88,148,81854,1,0,0:0:0:0:
40,256,82322,1,8,0:0:0:0:
140,328,82791,2,0,P|192:308|260:328,1,120,0|8,0:0|0:0,0:0:0:0:
372,336,83729,6,0,B|444:296|448:220,1,120,4|8,0:0|0:0,0:0:0:0:
380,144,84666,1,0,0:0:0:0:
280,80,85135,1,8,0:0:0:0:
164,52,85604,2,0,B|92:92|88:168,1,120,4|8,0:0|0:0,0:0:0:0:
144,252,86541,1,0,0:0:0:0:
248,316,87010,1,8,0:0:0:0:
256,192,87479,12,4,89354,0:0:0:0:
232,156,90291,5,8,0:0:0:0:
304,60,90760,1,8,0:0:0:0:
180,52,91229,6,0,P|116:92|108:148,1,120,4|8,0:0|0:0,0:0:0:0:
104,252,92166,2,0,P|124:306|177:331,1,120,0|8,0:0|0:0,0:0:0:0:
280,264,93104,1,0,0:0:0:0:
356,356,93572,1,8,0:0:0:0:
424,256,94041,1,0,0:0:0:0:
504,164,94510,1,8,0:0:0:0:
392,120,94979,6,0,B|320:80|264:88,1,120,4|8,0:0|0:0,0:0:0:0:
160,96,95916,1,0,0:0:0:0:
48,136,96385,1,8,0:0:0:0:
36,252,96854,2,0,B|76:296|164:292,1,120,4|8,0:0|0:0,0:0:0:0:
264,280,97791,1,0,0:0:0:0:
380,252,98260,1,8,0:0:0:0:
496,220,98729,6,0,P|468:164|396:136,2,120,4|8|0,0:0|0:0|0:0,0:0:0:0:
380,252,100135,1,8,0:0:0:0:
264,280,100604,1,0,0:0:0:0:
296,168,101072,1,4,0:0:0:0:
120,52,102479,6,0,L|304:92,1,180,4|8,0:0|0:0,0:0:0:0:
352,104,103416,1,8,0:0:0:0:
448,176,103885,1,8,0:0:0:0:
356,256,104354,6,0,L|160:212,1,180,4|8,0:0|0:0,0:0:0:0:
124,200,105291,1,8,0:0:0:0:
52,104,105760,1,8,0:0:0:0:
256,192,106229,12,4,108104,0:0:0:0:
