osu file format v13

[General]
AudioFilename: Ayane - Go Love&Peace.mp3
AudioLeadIn: 1000
PreviewTime: 75057
Countdown: 0
SampleSet: Soft
StackLeniency: 0.7
Mode: 0
LetterboxInBreaks: 0
WidescreenStoryboard: 0

[Editor]
DistanceSpacing: 0.8
BeatDivisor: 4
GridSize: 4
TimelineZoom: 1

[Metadata]
Title:GO Love&Peace
TitleUnicode:GO→Love&Peace
Artist:Ayane
ArtistUnicode:彩音
Creator:Gleipnir
Version:Insane
Source:超次元ゲイム ネプテューヌ mk2
Tags:Shadren Hyperdimension ed ending playstation geimu Choujigen Game Neptune
BeatmapID:551348
BeatmapSetID:202661

[Difficulty]
HPDrainRate:6
CircleSize:4
OverallDifficulty:8
ApproachRate:8
SliderMultiplier:1.8
SliderTickRate:2

[Events]
//Background and Video events
0,0,"nepgear_wall.jpg",0,0
Video,233,"Hyperdimension Neptunia Mk2.flv"
//Break Periods
//Storyboard Layer 0 (Background)
//Storyboard Layer 1 (Fail)
//Storyboard Layer 2 (Pass)
//Storyboard Layer 3 (Foreground)
//Storyboard Sound Samples

[TimingPoints]
1229,468.75,4,2,2,50,1,0
1229,-133.333333333333,4,2,2,40,0,0
8729,-117.647058823529,4,2,2,50,0,0
16229,-80,4,2,2,60,0,0
21385,-100,4,2,2,60,0,0
22557,-80,4,2,2,60,0,0
28650,-80,4,2,2,60,0,0
31229,-100,4,2,2,50,0,0
57010,-100,4,2,4,50,0,0
57244,-100,4,2,2,50,0,0
58416,-100,4,2,3,50,0,0
58650,-100,4,2,2,50,0,0
61229,-100,4,2,2,60,0,0
76229,-74.0740740740741,4,2,2,70,0,1
90760,-74.0740740740741,4,2,2,50,0,0
91229,-74.0740740740741,4,2,2,70,0,1
108104,-74.0740740740741,4,2,2,70,0,0

[Colours]
Combo1 : 40,75,215
Combo2 : 255,0,255
Combo3 : 25,175,255
Combo4 : 128,0,255

[HitObjects]
200,196,1229,6,0,P|218:229|210:279,1,67.5000025749208,4|0,0:0|0:0,0:0:0:0:
113,166,1697,2,0,P|75:136|66:109,1,67.5000025749208,2|0,0:0|0:0,0:0:0:0:
180,112,2166,2,0,P|240:76|304:88,1,135,0|0,0:0|0:0,0:0:0:0:
301,86,2869,1,0,0:0:0:0:
464,144,3104,6,0,L|424:228,1,67.5000025749208
228,240,3572,2,0,L|268:164,1,67.5000025749208,2|0,0:0|0:0,0:0:0:0:
356,116,4041,2,0,P|308:72|236:72,1,135
240,70,4744,1,0,0:0:0:0:
112,124,4979,5,0,0:0:0:0:
48,252,5682,1,2,0:0:0:0:
400,260,6854,5,0,0:0:0:0:
464,132,7557,1,2,0:0:0:0:
348,164,8729,6,0,L|256:208,1,76.5000014591217,4|0,0:0|0:0,0:0:0:0:
112,256,9197,2,0,P|80:216|84:176,1,76.5000014591217,8|0,0:0|0:0,0:0:0:0:
156,72,9666,2,0,P|188:112|184:152,1,76.5000014591217,2|0,0:0|0:0,0:0:0:0:
220,300,10135,2,0,P|207:250|228:215,1,76.5000014591217,8|0,0:0|0:0,0:0:0:0:
284,92,10604,5,2,0:0:0:0:
408,220,10838,1,0,0:0:0:0:
296,276,11072,1,8,0:0:0:0:
384,108,11307,1,0,0:0:0:0:
252,192,11541,5,2,0:0:0:0:
128,108,11775,1,0,0:0:0:0:
232,76,12010,1,8,0:0:0:0:
136,216,12244,1,0,0:0:0:0:
240,288,12479,6,0,P|340:296|392:268,1,153.000002918243,4|8,0:0|0:0,0:0:0:0:
460,204,13182,2,0,P|460:124|340:32,1,229.500004377365,2|8,0:0|0:0,0:0:0:0:
260,76,14119,5,0,0:0:0:0:
260,76,14236,1,0,0:0:0:0:
260,76,14354,2,0,P|248:136|272:160,1,76.5000014591217,2|0,0:0|0:0,0:0:0:0:
320,192,14705,2,0,P|264:228|208:216,1,114.750002188683,2|0,0:0|0:0,0:0:0:0:
128,248,15291,1,4,0:3:0:0:
104,160,15525,6,8,L|136:116,1,38.2500007295609,2|2,0:3|0:3,0:0:0:0:
221,54,15760,2,0,L|261:82,1,38.2500007295609,0|0,0:0|0:0,0:0:0:0:
276,204,15994,2,0,L|328:168,1,38.2500007295609,2|2,0:3|0:3,0:0:0:0:
400,72,16229,6,0,B|428:112|428:112|428:212,1,112.5,14|0,0:0|0:0,0:0:0:0:
220,316,16697,2,0,B|192:276|192:276|192:176,1,112.5,8|0,0:0|0:0,0:0:0:0:
292,88,17166,5,8,0:0:0:0:
356,220,17400,1,0,0:0:0:0:
200,140,17635,1,8,0:0:0:0:
136,272,17869,1,0,0:0:0:0:
312,308,18104,6,0,P|376:284|400:240,1,112.5,8|0,0:0|0:0,0:0:0:0:
244,108,18572,2,8,P|268:172|312:196,1,112.5,8|0,0:0|0:0,0:0:0:0:
456,184,19041,5,8,0:0:0:0:
336,104,19275,1,0,0:0:0:0:
216,184,19510,1,8,0:0:0:0:
344,256,19744,1,0,0:0:0:0:
380,280,19861,1,0,0:0:0:0:
420,300,19979,6,0,L|440:168,1,112.5,8|0,0:0|0:0,0:0:0:0:
492,68,20447,2,0,P|432:48|360:92,1,112.5,8|0,0:0|0:0,0:0:0:0:
280,144,20916,1,8,0:0:0:0:
164,76,21150,1,0,0:0:0:0:
48,168,21385,2,0,P|44:240|144:304,1,180,8|8,0:0|0:0,0:0:0:0:
232,228,22088,5,0,0:0:0:0:
352,292,22322,1,8,0:0:0:0:
356,156,22557,2,0,P|344:100|368:44,1,112.5,0|8,0:0|0:0,0:0:0:0:
464,140,23025,1,0,0:0:0:0:
424,236,23260,2,0,P|368:252|252:136,1,225,8|12,0:0|0:0,0:0:0:0:
236,32,23963,5,0,0:0:0:0:
56,192,24197,1,8,0:0:0:0:
104,56,24432,1,0,0:0:0:0:
168,212,24666,2,0,L|208:332,1,112.5,8|0,0:0|0:0,0:0:0:0:
308,220,25135,2,0,L|352:116,1,112.5,8|0,0:0|0:0,0:0:0:0:
468,76,25604,5,8,0:0:0:0:
396,216,25838,1,0,0:0:0:0:
240,96,26072,1,8,0:0:0:0:
288,264,26307,1,0,0:0:0:0:
344,108,26541,5,8,0:0:0:0:
212,216,26775,1,0,0:0:0:0:
68,120,27010,1,8,0:0:0:0:
96,260,27244,1,0,0:0:0:0:
208,104,27479,6,0,P|260:96|328:136,1,112.5,8|0,0:0|0:0,0:0:0:0:
456,240,27947,2,0,P|421:279|343:292,1,112.5,8|0,0:0|0:0,0:0:0:0:
212,216,28416,1,8,0:0:0:0:
296,108,28650,1,0,0:0:0:0:
380,216,28885,1,8,0:0:0:0:
288,312,29119,5,0,0:0:0:0:
288,312,29236,1,0,0:0:0:0:
288,312,29354,2,0,P|200:312|120:288,2,168.75,8|0|8,0:0|0:0|0:0,0:0:0:0:
224,72,30291,2,0,P|312:72|392:96,2,168.75,8|0|8,0:0|0:0|0:0,0:0:0:0:
68,88,31229,1,4,0:0:0:0:
68,88,31697,6,0,P|80:140|72:208,1,90,8|0,0:0|0:0,0:0:0:0:
48,280,32166,1,0,1:0:0:0:
148,244,32400,1,0,0:0:0:0:
248,288,32635,1,8,0:0:0:0:
372,308,32869,6,0,P|432:232|392:132,1,180
372,56,33572,2,0,P|330:80|314:122,1,90,8|0,0:0|0:0,0:0:0:0:
312,248,34041,1,0,1:0:0:0:
456,192,34275,1,0,0:0:0:0:
280,76,34510,1,8,0:0:0:0:
304,212,34744,1,0,0:0:0:0:
312,248,34861,1,0,0:0:0:0:
320,284,34979,6,0,P|230:316|140:312,1,180,4|8,0:0|0:0,0:0:0:0:
40,172,35682,1,0,0:0:0:0:
256,112,35916,1,0,1:0:0:0:
120,240,36150,1,0,0:0:0:0:
136,72,36385,1,8,0:0:0:0:
256,200,36619,1,0,0:0:0:0:
256,200,36736,1,0,0:0:0:0:
256,200,36854,5,4,0:0:0:0:
468,144,37088,1,0,0:0:0:0:
352,88,37322,1,8,0:0:0:0:
424,240,37557,1,0,0:0:0:0:
296,320,37791,6,0,P|256:340|184:332,1,90,0|0,1:0|0:0,0:0:0:0:
128,144,38260,2,0,P|171:159|216:215,1,90,8|8,0:0|0:0,0:0:0:0:
100,288,38729,1,4,0:0:0:0:
100,288,39197,6,0,P|88:216|80:176,1,90,8|0,0:0|0:0,0:0:0:0:
64,92,39666,1,0,1:0:0:0:
164,132,39900,1,0,0:0:0:0:
264,92,40135,1,8,0:0:0:0:
360,136,40369,6,0,P|348:212|264:276,1,180
168,232,41072,1,8,0:0:0:0:
188,124,41307,2,0,P|252:116|292:140,1,90,0|0,0:0|1:0,0:0:0:0:
372,172,41775,1,0,0:0:0:0:
396,276,42010,1,8,0:0:0:0:
272,320,42244,1,0,0:0:0:0:
236,324,42361,1,0,0:0:0:0:
200,328,42479,6,0,L|172:228,1,90,4|0,0:0|0:0,0:0:0:0:
240,100,42947,2,0,L|272:208,1,90,8|0,0:0|0:0,0:0:0:0:
308,316,43416,1,0,1:0:0:0:
456,212,43650,1,0,0:0:0:0:
304,160,43885,1,8,0:0:0:0:
304,160,44354,5,4,0:0:0:0:
392,304,44588,1,0,0:0:0:0:
404,104,44822,1,8,0:0:0:0:
212,168,45057,1,0,0:0:0:0:
364,204,45291,1,0,1:0:0:0:
264,80,45525,1,0,0:0:0:0:
152,196,45760,1,8,0:0:0:0:
280,320,45994,1,8,0:0:0:0:
412,120,46229,6,0,L|404:236,1,90,4|0,0:0|0:0,0:0:0:0:
280,320,46697,2,8,L|256:196,1,90,8|0,0:0|0:0,0:0:0:0:
228,60,47166,1,0,1:0:0:0:
84,68,47400,1,0,0:0:0:0:
168,184,47635,1,8,0:0:0:0:
312,184,47869,1,0,0:0:0:0:
452,244,48104,6,0,B|380:292|380:292|328:268|268:304,1,180,0|8,0:0|0:0,0:0:0:0:
56,252,48807,2,0,P|116:240|168:256,1,90,0|0,0:0|1:0,0:0:0:0:
360,176,49275,2,0,P|284:168|232:184,1,90,0|8,0:0|0:0,0:0:0:0:
168,136,49744,1,0,0:0:0:0:
244,72,49979,6,0,P|316:92|436:100,1,180,4|8,0:0|0:0,0:0:0:0:
256,176,50682,2,0,P|237:232|258:285,1,90,0|0,0:0|1:0,0:0:0:0:
356,316,51150,1,0,0:0:0:0:
472,264,51385,2,0,P|477:219|459:179,1,90,8|0,0:0|0:0,0:0:0:0:
380,96,51854,5,4,0:0:0:0:
268,64,52088,1,0,0:0:0:0:
156,88,52322,2,0,P|160:152|176:180,1,90,8|0,0:0|0:0,0:0:0:0:
248,280,52791,5,0,1:0:0:0:
104,268,53025,1,0,0:0:0:0:
136,128,53260,1,8,0:0:0:0:
272,128,53494,1,8,0:0:0:0:
308,132,53611,1,0,0:0:0:0:
344,144,53729,6,0,P|372:160|388:216,1,90,4|0,0:0|0:0,0:0:0:0:
312,312,54197,1,8,0:0:0:0:
204,232,54432,1,0,0:0:0:0:
100,316,54666,2,0,P|72:300|56:244,1,90,0|0,1:0|0:0,0:0:0:0:
88,116,55135,1,8,0:0:0:0:
200,192,55370,1,0,0:0:0:0:
336,192,55604,5,0,0:0:0:0:
452,124,55838,1,0,0:0:0:0:
456,247,56072,2,0,P|447:290|412:316,1,90,8|0,0:0|0:0,0:0:0:0:
204,328,56541,2,0,L|48:328,2,135,0|0|0,1:0|0:0|0:0,0:0:0:0:
340,324,57479,6,0,P|412:280|416:240,1,90,4|0,0:0|0:0,0:0:0:0:
360,80,57947,1,8,0:0:0:0:
293,159,58182,2,0,P|377:182|447:132,1,180
232,68,58885,2,0,P|192:104|184:156,1,90,8|0,0:0|0:0,0:0:0:0:
164,244,59354,5,4,0:0:0:0:
360,308,59588,1,2,0:0:0:0:
232,324,59822,1,10,0:0:0:0:
312,176,60056,1,0,0:0:0:0:
424,240,60291,5,2,1:0:0:0:
220,208,60525,1,2,0:0:0:0:
408,112,60760,1,8,0:0:0:0:
296,268,60994,1,10,0:0:0:0:
256,64,61229,1,4,0:0:0:0:
256,64,61697,5,8,0:3:0:0:
176,136,61932,1,0,0:0:0:0:
88,64,62166,1,8,0:0:0:0:
0,127,62400,1,0,0:0:0:0:
29,231,62635,1,8,0:3:0:0:
138,235,62869,1,0,0:0:0:0:
232,180,63104,6,0,P|300:176|348:200,1,90
392,272,63572,2,0,P|435:281|479:274,1,90,8|0,0:3|0:0,0:0:0:0:
436,176,64041,1,8,0:0:0:0:
356,104,64275,2,0,B|232:92,1,90,0|8,0:0|0:3,0:0:0:0:
232,92,64627,1,0,0:0:0:0:
196,88,64744,1,0,0:0:0:0:
356,104,64979,1,4,0:0:0:0:
356,104,65447,5,8,0:3:0:0:
292,191,65682,1,0,0:0:0:0:
356,278,65916,1,8,0:0:0:0:
458,245,66150,1,0,0:0:0:0:
458,137,66385,1,8,0:3:0:0:
356,104,66619,1,0,0:0:0:0:
248,64,66854,6,0,P|200:68|164:104,1,90
68,64,67322,2,0,P|47:107|60:156,1,90,8|0,0:3|0:0,0:0:0:0:
4,244,67791,2,0,P|31:283|80:296,1,90,8|0,0:0|0:0,0:0:0:0:
176,296,68260,1,8,0:3:0:0:
212,296,68377,1,0,0:0:0:0:
248,296,68494,1,0,0:0:0:0:
284,296,68611,1,0,0:0:0:0:
320,296,68729,1,4,0:0:0:0:
364,296,69197,5,8,0:3:0:0:
440,160,69432,2,0,P|390:132|319:112,1,90,0|8,0:0|0:0,0:0:0:0:
256,192,69900,1,0,0:0:0:0:
72,224,70135,2,0,P|122:252|193:272,1,90,8|0,0:3|0:0,0:0:0:0:
361,190,70604,6,0,L|344:292,1,90,4|0,0:0|0:0,0:0:0:0:
154,190,71072,2,8,L|177:90,1,90,8|0,0:3|0:0,0:0:0:0:
288,44,71541,1,8,0:0:0:0:
361,190,71775,2,0,L|344:292,2,90,2|8|2,0:0|0:3|0:0,0:0:0:0:
384,84,72479,5,4,0:0:0:0:
384,84,72713,1,0,0:0:0:0:
196,68,72947,1,0,0:3:0:0:
196,68,73182,1,0,0:3:0:0:
164,288,73416,1,0,0:0:0:0:
376,216,73650,1,0,0:0:0:0:
106,125,73885,1,0,0:0:0:0:
288,336,74119,1,0,0:0:0:0:
232,112,74354,5,4,0:0:0:0:
428,248,74588,2,8,P|400:292|360:316,1,90,2|2,0:3|0:3,0:0:0:0:
272,80,75057,1,4,0:0:0:0:
312,260,75291,2,8,P|268:276|216:268,1,90,2|2,0:3|0:3,0:0:0:0:
320,72,75760,1,4,0:0:0:0:
364,80,75877,1,0,0:0:0:0:
400,104,75994,1,0,0:0:0:0:
412,148,76111,1,0,0:0:0:0:
400,192,76229,6,0,L|288:256,1,121.500000463486,4|0,0:0|0:0,0:0:0:0:
156,300,76697,2,0,P|88:284|80:220,1,121.500000463486,8|8,0:0|0:0,0:0:0:0:
72,100,77166,1,0,0:0:0:0:
192,184,77400,1,0,0:0:0:0:
316,104,77635,1,8,0:0:0:0:
424,200,77869,1,8,0:0:0:0:
320,304,78104,6,0,P|268:272|264:212,1,121.500000463486,4|0,0:0|0:0,0:0:0:0:
316,104,78572,2,8,P|284:52|224:48,1,121.500000463486,8|8,0:0|0:0,0:0:0:0:
84,80,79041,1,0,0:0:0:0:
204,164,79275,1,0,0:0:0:0:
84,244,79510,1,8,0:0:0:0:
220,300,79744,1,8,0:0:0:0:
264,320,79861,1,0,0:0:0:0:
312,328,79979,6,4,P|364:288|380:224,1,121.500000463486,4|0,0:0|0:0,0:0:0:0:
384,88,80447,1,8,0:0:0:0:
236,128,80682,2,0,P|260:188|328:212,1,121.500000463486,8|0,0:0|0:0,0:0:0:0:
496,192,81150,2,0,P|472:132|404:108,1,121.500000463486,0|8,0:0|0:0,0:0:0:0:
280,104,81619,1,8,0:0:0:0:
144,48,81854,5,0,0:0:0:0:
228,204,82088,1,0,0:0:0:0:
80,260,82322,1,8,0:0:0:0:
176,136,82557,2,0,P|220:120|268:280,1,243.000000926971,8|0,0:0|0:0,0:0:0:0:
208,328,83260,1,8,0:0:0:0:
104,272,83494,1,8,0:0:0:0:
80,152,83729,6,0,P|92:104|164:80,1,121.500000463486,4|0,0:0|0:0,0:0:0:0:
292,120,84197,1,8,0:0:0:0:
340,260,84432,1,8,0:0:0:0:
340,260,84549,1,0,0:0:0:0:
340,260,84666,2,0,P|328:308|256:332,1,121.500000463486
136,268,85135,1,8,0:0:0:0:
100,128,85369,1,8,0:0:0:0:
100,128,85486,1,0,0:0:0:0:
100,128,85604,5,4,0:0:0:0:
304,184,85838,1,0,0:0:0:0:
160,212,86072,1,8,0:0:0:0:
268,104,86307,2,0,P|376:128|364:248,1,243.000000926971,8|0,0:0|0:0,0:0:0:0:
293,341,87010,2,8,P|225:345|173:313,1,121.500000463486,8|8,0:0|0:0,0:0:0:0:
68,132,87479,6,0,L|60:272,1,121.500000463486,4|0,0:0|0:0,0:0:0:0:
180,320,87947,1,8,0:0:0:0:
320,268,88182,1,8,0:0:0:0:
468,324,88416,2,0,L|460:184,1,121.500000463486,4|0,0:0|0:0,0:0:0:0:
348,112,88885,1,8,0:0:0:0:
228,192,89119,1,8,0:0:0:0:
116,104,89354,6,0,L|36:72,3,60.7500002317429,4|0|0|0,0:0|0:0|0:0|0:0,0:0:0:0:
144,256,89822,2,0,L|224:288,3,60.7500002317429,8|0|8|0,0:0|0:0|0:0|0:0,0:0:0:0:
44,220,90291,5,0,0:0:0:0:
204,120,90525,1,0,0:0:0:0:
280,312,90760,1,8,0:0:0:0:
420,208,90994,1,8,0:0:0:0:
456,180,91111,1,0,0:0:0:0:
464,136,91229,6,0,P|440:108|360:80,1,121.500000463486,4|0,0:0|0:0,0:0:0:0:
236,148,91697,1,8,0:0:0:0:
104,84,91932,1,8,0:0:0:0:
56,224,92166,2,0,P|72:280|156:324,1,121.500000463486
156,224,92635,2,8,P|206:252|297:224,1,121.500000463486,8|8,0:0|0:0,0:0:0:0:
408,164,93104,5,4,0:0:0:0:
272,96,93338,1,0,0:0:0:0:
404,310,93572,1,8,0:0:0:0:
268,242,93806,1,8,0:0:0:0:
140,312,94041,2,0,L|124:188,1,121.500000463486
92,64,94510,1,8,0:0:0:0:
236,92,94744,1,8,0:0:0:0:
282,105,94861,1,0,0:0:0:0:
328,88,94979,6,0,L|343:208,1,121.500000463486,4|0,0:0|0:0,0:0:0:0:
436,336,95447,1,8,0:0:0:0:
500,232,95682,1,8,0:0:0:0:
348,236,95916,2,0,P|292:236|228:196,1,121.500000463486,0|0,0:0|0:0,0:0:0:0:
224,60,96385,2,0,P|164:72|120:144,1,121.500000463486,8|8,0:0|0:0,0:0:0:0:
86,258,96854,5,0,0:0:0:0:
226,298,97088,1,0,0:0:0:0:
266,158,97322,1,8,0:0:0:0:
126,117,97557,1,8,0:0:0:0:
20,216,97791,2,0,L|76:340,1,121.500000463486,0|0,0:0|0:0,0:0:0:0:
200,256,98260,1,8,0:0:0:0:
336,308,98494,1,8,0:0:0:0:
456,224,98729,6,0,P|424:108|284:64,1,243.000000926971,8|8,0:3|0:0,0:0:0:0:
256,192,99432,1,8,0:0:0:0:
192,59,99666,2,0,P|86:110|56:224,1,243.000000926971,0|8,0:0|0:0,0:0:0:0:
256,192,100369,1,8,0:0:0:0:
456,224,100604,1,8,0:3:0:0:
320,276,100838,1,0,0:0:0:0:
388,148,101072,1,4,0:0:0:0:
408,312,102479,6,0,P|368:264|364:164,1,121.500000463486,4|0,0:0|0:0,0:0:0:0:
352,112,102947,1,8,0:0:0:0:
448,108,103182,1,0,0:0:0:0:
264,196,103416,1,0,0:0:0:0:
168,196,103650,1,0,0:0:0:0:
216,108,103885,1,8,0:0:0:0:
336,280,104119,1,0,0:0:0:0:
400,168,104354,6,0,L|320:44,1,121.500000463486,4|0,0:0|0:0,0:0:0:0:
184,68,104822,1,8,0:0:0:0:
112,136,105057,1,0,0:0:0:0:
288,196,105291,1,0,0:0:0:0:
336,280,105525,1,0,0:0:0:0:
404,136,105760,1,8,0:0:0:0:
184,68,105994,1,8,0:0:0:0:
56,108,106229,6,0,P|40:204|160:300,1,243.000000926971,4|8,0:0|0:0,0:0:0:0:
360,300,106932,1,0,0:0:0:0:
408,172,107166,1,8,0:0:0:0:
192,248,107400,1,0,0:0:0:0:
76,140,107635,1,8,0:0:0:0:
256,84,107869,1,2,0:3:0:0:
256,84,107986,1,0,0:0:0:0:
256,84,108104,1,12,0:0:0:0:
256,192,108221,12,0,109510,0:0:0:0:
