osu file format v13

[General]
AudioFilename: Ayane - Go Love&Peace.mp3
AudioLeadIn: 1000
PreviewTime: 75057
Countdown: 0
SampleSet: Soft
StackLeniency: 0.7
Mode: 0
LetterboxInBreaks: 0
WidescreenStoryboard: 0

[Editor]
Bookmarks: 47166
DistanceSpacing: 1.2
BeatDivisor: 4
GridSize: 4
TimelineZoom: 1

[Metadata]
Title:GO Love&Peace
TitleUnicode:GO→Love&Peace
Artist:Ayane
ArtistUnicode:彩音
Creator:Gleipnir
Version:Hard
Source:超次元ゲイム ネプテューヌ mk2
Tags:Shadren Hyperdimension ed ending playstation geimu Choujigen Game Neptune
BeatmapID:479326
BeatmapSetID:202661

[Difficulty]
HPDrainRate:5
CircleSize:4
OverallDifficulty:6.5
ApproachRate:7.5
SliderMultiplier:1.6
SliderTickRate:2

[Events]
//Background and Video events
0,0,"nepgear_wall.jpg",0,0
Video,233,"Hyperdimension Neptunia Mk2.flv"
//Break Periods
//Storyboard Layer 0 (Background)
//Storyboard Layer 1 (Fail)
//Storyboard Layer 2 (Pass)
//Storyboard Layer 3 (Foreground)
//Storyboard Sound Samples

[TimingPoints]
1229,468.75,4,2,2,50,1,0
8729,-100,4,2,2,55,0,0
16229,-100,4,2,2,60,0,0
31229,-100,4,2,2,50,0,0
57010,-100,4,2,4,40,0,0
57244,-100,4,2,2,50,0,0
61229,-100,4,2,2,60,0,0
76229,-100,4,2,2,70,0,1
90760,-100,4,2,2,50,0,0
91229,-100,4,2,2,70,0,1
108104,-100,4,2,2,70,0,0

[Colours]
Combo1 : 40,75,215
Combo2 : 255,0,255
Combo3 : 25,175,255
Combo4 : 128,0,255

[HitObjects]
268,56,1229,5,4,0:0:0:0:
228,144,1463,1,0,0:0:0:0:
324,132,1697,1,0,0:0:0:0:
408,228,2166,5,0,0:0:0:0:
476,296,2400,1,0,0:0:0:0:
380,316,2635,1,0,0:0:0:0:
228,344,3104,6,0,L|152:264,1,80,0|0,0:0|0:0,0:0:0:0:
76,280,3572,2,0,L|92:176,1,80,0|0,0:0|0:0,0:0:0:0:
104,104,4041,1,0,0:0:0:0:
188,152,4275,2,0,P|224:176|272:176,2,80,0|0|0,0:0|0:0|0:0,0:0:0:0:
255,75,4979,6,0,P|335:103|363:171,1,160,2|0,0:0|0:0,0:0:0:0:
256,192,5682,1,4,0:0:0:0:
257,309,6854,6,0,P|177:281|149:213,1,160,2|0,0:0|0:0,0:0:0:0:
256,192,7557,1,4,0:0:0:0:
464,248,8729,6,0,P|432:316|348:344,1,160,4|8,0:0|0:0,0:0:0:0:
256,348,9432,1,0,0:0:0:0:
155,344,9666,2,0,P|82:318|48:248,1,160,2|8,0:0|0:0,0:0:0:0:
48,152,10369,1,0,0:0:0:0:
128,108,10604,6,0,P|191:87|235:107,1,80,0|0,0:0|0:0,0:0:0:0:
272,24,11072,2,0,P|331:55|348:100,1,80,8|0,0:0|0:0,0:0:0:0:
432,68,11541,2,0,P|435:135|404:172,1,80,2|0,0:0|0:0,0:0:0:0:
496,216,12010,2,0,P|450:265|402:269,1,80,8|8,0:0|0:0,0:0:0:0:
364,208,12479,6,0,P|308:184|188:212,1,160,4|8,0:0|0:0,0:0:0:0:
116,232,13182,1,0,0:0:0:0:
60,48,13650,1,0,0:0:0:0:
132,108,13885,1,8,0:0:0:0:
224,80,14119,5,0,0:0:0:0:
260,48,14236,1,0,0:0:0:0:
312,40,14354,2,0,P|412:80|452:200,1,240,8|8,0:0|0:0,0:0:0:0:
360,196,15291,5,4,0:3:0:0:
404,280,15525,1,0,0:0:0:0:
320,336,15760,1,4,0:0:0:0:
224,336,15994,5,8,0:0:0:0:
180,316,16111,1,8,0:0:0:0:
140,288,16229,2,0,B|60:212|132:120,1,160,12|8,0:0|0:0,0:0:0:0:
200,96,16932,1,0,0:0:0:0:
296,96,17166,2,8,P|340:108|380:156,1,80,8|0,0:0|0:0,0:0:0:0:
412,216,17635,1,8,0:0:0:0:
372,304,17869,5,0,0:0:0:0:
280,336,18104,2,0,P|176:336|112:312,1,160,12|8,0:0|0:0,0:0:0:0:
60,244,18807,2,8,L|108:172,1,80,0|8,0:0|0:0,0:0:0:0:
196,128,19275,2,0,L|236:224,1,80,0|8,0:0|0:0,0:0:0:0:
312,248,19744,2,0,L|376:152,1,80,0|12,0:0|0:0,0:0:0:0:
384,88,20213,5,0,0:0:0:0:
364,44,20330,1,0,0:0:0:0:
320,28,20447,1,8,0:0:0:0:
228,56,20682,2,0,P|184:76|140:64,1,80,0|8,0:0|0:0,0:0:0:0:
64,40,21150,2,0,P|40:72|48:128,1,80,0|8,0:0|0:0,0:0:0:0:
48,208,21619,1,0,0:0:0:0:
40,304,21854,6,0,B|220:292,1,160,12|8,0:0|0:0,0:0:0:0:
276,232,22557,1,0,0:0:0:0:
336,308,22791,2,0,P|376:304|420:252,1,80,8|0,0:0|0:0,0:0:0:0:
440,180,23260,2,0,L|456:96,1,80,8|0,0:0|0:0,0:0:0:0:
376,48,23729,6,0,B|331:48|312:80|312:80|272:72|224:80,1,160,12|8,0:0|0:0,0:0:0:0:
148,112,24432,1,0,0:0:0:0:
168,212,24666,2,0,P|240:220|256:252,1,80,8|0,0:0|0:0,0:0:0:0:
312,288,25135,2,0,P|276:316|216:308,1,80,8|0,0:0|0:0,0:0:0:0:
144,312,25604,6,0,P|80:284|32:192,1,160,12|8,0:0|0:0,0:0:0:0:
96,136,26307,1,0,0:0:0:0:
176,192,26541,2,0,P|232:196|268:164,1,80,8|0,0:0|0:0,0:0:0:0:
324,120,27010,1,8,0:0:0:0:
384,44,27244,2,0,P|416:84|412:144,1,80,0|12,0:0|0:0,0:0:0:0:
432,208,27713,6,0,L|496:244,2,40,0|0|8,0:0|0:0|0:0,0:0:0:0:
352,156,28182,1,0,0:0:0:0:
284,220,28416,2,0,L|220:200,2,40,8|0|0,0:0|0:0|0:0,0:0:0:0:
356,284,28885,1,8,0:0:0:0:
356,284,29119,1,0,0:0:0:0:
356,284,29354,6,0,P|276:308|164:300,1,160,12|8,0:0|0:0,0:0:0:0:
88,244,30057,2,0,L|192:224,1,80,0|8,0:0|0:0,0:0:0:0:
268,168,30525,2,0,L|160:144,1,80,0|8,0:0|0:0,0:0:0:0:
96,124,30994,1,8,0:0:0:0:
96,124,31229,1,4,0:0:0:0:
276,60,31697,5,8,0:0:0:0:
372,40,31932,1,0,0:0:0:0:
444,104,32166,2,0,B|500:184|396:184|476:280,1,160,0|8,1:0|0:0,0:0:0:0:
404,332,32869,2,0,P|340:348|236:324,1,160,0|0,0:0|0:0,0:0:0:0:
156,304,33572,5,8,0:0:0:0:
204,220,33807,1,0,0:0:0:0:
292,200,34041,2,0,P|316:168|308:124,1,80,0|0,1:0|0:0,0:0:0:0:
268,48,34510,2,0,P|208:40|168:72,1,80,8|0,0:0|0:0,0:0:0:0:
148,64,34861,1,0,0:0:0:0:
112,92,34979,6,0,P|80:180|120:240,1,160,4|8,0:0|0:0,0:0:0:0:
192,288,35682,1,0,0:0:0:0:
232,296,35799,1,0,0:0:0:0:
272,296,35916,1,0,1:0:0:0:
360,260,36150,1,0,0:0:0:0:
296,188,36385,1,8,0:0:0:0:
372,132,36619,1,0,0:0:0:0:
304,64,36854,6,0,P|236:59|144:95,1,160,4|8,0:0|0:0,0:0:0:0:
64,132,37557,1,0,0:0:0:0:
88,224,37791,1,0,1:0:0:0:
44,308,38025,1,0,0:0:0:0:
140,304,38260,1,8,0:0:0:0:
88,224,38494,1,0,0:0:0:0:
64,132,38729,6,0,L|144:124,1,80,4|0,0:0|0:0,0:0:0:0:
252,120,39197,1,8,0:0:0:0:
280,220,39432,1,0,0:0:0:0:
180,192,39666,2,0,P|192:276|252:318,1,160,0|8,1:0|0:0,0:0:0:0:
344,332,40369,1,0,0:0:0:0:
432,292,40604,5,0,0:0:0:0:
416,196,40838,2,0,L|320:220,1,80,0|8,0:0|0:0,0:0:0:0:
248,228,41307,1,0,0:0:0:0:
224,136,41541,2,0,P|180:156|160:212,1,80,0|0,1:0|0:0,0:0:0:0:
100,256,42010,1,8,0:0:0:0:
40,184,42244,1,0,0:0:0:0:
40,184,42361,1,0,0:0:0:0:
40,184,42479,6,0,P|96:100|148:76,1,160,4|8,0:0|0:0,0:0:0:0:
252,72,43182,2,0,P|304:80|328:132,1,80,0|0,0:0|1:0,0:0:0:0:
252,164,43650,1,0,0:0:0:0:
344,196,43885,2,0,P|328:236|264:248,2,80,8|0|4,0:0|0:0|0:0,0:0:0:0:
296,112,44588,5,0,0:0:0:0:
372,52,44822,1,8,0:0:0:0:
420,136,45057,1,0,0:0:0:0:
416,232,45291,2,0,L|416:312,1,80,0|0,1:0|0:0,0:0:0:0:
332,260,45760,2,0,L|332:172,1,80,8|0,0:0|0:0,0:0:0:0:
204,72,46229,6,0,P|240:56|288:60,1,80,4|0,0:0|0:0,0:0:0:0:
360,112,46697,1,8,0:0:0:0:
372,208,46932,1,0,0:0:0:0:
328,292,47166,2,0,P|292:308|244:304,1,80,0|0,1:0|0:0,0:0:0:0:
168,264,47635,1,8,0:0:0:0:
160,360,47869,1,0,0:0:0:0:
80,308,48104,6,0,P|44:248|44:132,1,160,0|8,0:0|0:0,0:0:0:0:
84,76,48807,1,0,0:0:0:0:
180,80,49041,1,0,1:0:0:0:
244,152,49275,1,0,0:0:0:0:
340,136,49510,1,8,0:0:0:0:
420,192,49744,1,0,0:0:0:0:
460,280,49979,6,0,P|360:344|300:344,1,160,4|8,0:0|0:0,0:0:0:0:
232,308,50682,2,0,P|236:264|268:240,1,80,0|0,0:0|1:0,0:0:0:0:
356,244,51150,1,0,0:0:0:0:
316,164,51385,2,0,P|280:128|240:128,1,80,8|0,0:0|0:0,0:0:0:0:
240,216,51854,6,0,P|168:164|180:72,1,160,4|8,0:0|0:0,0:0:0:0:
240,36,52557,1,0,0:0:0:0:
324,84,52791,2,0,P|372:104|408:100,1,80,0|0,1:0|0:0,0:0:0:0:
496,92,53260,1,8,0:0:0:0:
468,176,53494,1,0,0:0:0:0:
468,176,53611,1,0,0:0:0:0:
468,176,53729,6,0,P|476:236|456:268,1,80,4|0,0:0|0:0,0:0:0:0:
424,332,54197,2,8,P|380:332|340:304,1,80,8|0,0:0|0:0,0:0:0:0:
320,224,54666,1,0,1:0:0:0:
228,204,54900,1,0,0:0:0:0:
296,136,55135,1,8,0:0:0:0:
208,116,55369,1,0,0:0:0:0:
144,48,55604,6,0,P|112:88|116:128,1,80
152,208,56072,2,0,P|160:260|120:308,1,80,8|0,0:0|0:0,0:0:0:0:
240,333,56541,2,0,B|308:333|308:333|324:313|376:317,2,120,0|0|0,1:0|0:0|0:0,0:0:0:0:
296,252,57479,6,0,P|360:228|440:292,1,160,4|8,0:0|0:0,0:0:0:0:
356,316,58182,2,0,B|327:315|316:332|316:332|263:331,1,80,0|0,0:0|1:0,0:0:0:0:
212,268,58650,2,0,L|164:192,1,80,0|8,0:0|0:0,0:0:0:0:
156,104,59119,1,0,0:0:0:0:
252,68,59354,5,0,0:0:0:0:
252,68,59588,1,0,0:0:0:0:
296,164,59822,1,8,0:0:0:0:
296,164,60057,1,0,0:0:0:0:
412,192,60291,1,0,1:0:0:0:
344,260,60525,1,0,0:0:0:0:
436,288,60760,1,8,0:0:0:0:
412,192,60994,1,8,0:0:0:0:
360,104,61229,6,0,L|276:120,1,80,4|0,0:0|0:0,0:0:0:0:
188,144,61697,1,8,0:3:0:0:
112,204,61932,2,0,P|116:244|148:276,1,80,0|0,0:0|0:0,0:0:0:0:
236,304,62400,2,0,L|264:224,1,80,0|8,0:0|0:3,0:0:0:0:
368,220,62869,5,0,0:0:0:0:
368,220,62986,1,0,0:0:0:0:
368,220,63104,1,4,0:0:0:0:
368,324,63338,1,0,0:0:0:0:
276,304,63572,2,8,L|228:228,1,80,8|0,0:3|0:0,0:0:0:0:
168,292,64041,2,0,L|129:221,1,80,0|0,0:0|0:0,0:0:0:0:
128,120,64510,1,8,0:3:0:0:
128,120,64744,1,0,0:0:0:0:
216,64,64979,6,0,L|304:92,2,80,4|0|8,0:0|0:0|0:3,0:0:0:0:
128,120,65682,1,0,0:0:0:0:
92,212,65916,2,0,L|176:240,1,80
244,176,66385,1,8,0:3:0:0:
324,228,66619,1,0,0:0:0:0:
416,200,66854,5,4,0:0:0:0:
428,104,67088,1,0,0:0:0:0:
328,68,67322,2,8,P|304:120|316:164,1,80,8|0,0:3|0:0,0:0:0:0:
324,228,67791,1,0,0:0:0:0:
232,200,68025,1,0,0:0:0:0:
168,264,68260,1,8,0:3:0:0:
220,332,68494,1,0,0:0:0:0:
220,332,68611,1,0,0:0:0:0:
220,332,68729,6,0,L|304:328,1,80,4|0,0:0|0:0,0:0:0:0:
392,268,69197,1,8,0:3:0:0:
300,244,69432,1,0,0:0:0:0:
236,172,69666,1,0,0:0:0:0:
148,208,69900,1,0,0:0:0:0:
72,256,70135,2,8,P|94:282|140:296,1,80,8|0,0:3|0:0,0:0:0:0:
218,250,70604,6,0,L|238:162,1,80,4|0,0:0|0:0,0:0:0:0:
336,168,71072,2,8,L|300:84,1,80,8|0,0:3|0:0,0:0:0:0:
208,84,71541,2,0,L|148:140,1,80
80,204,72010,1,8,0:3:0:0:
80,204,72244,1,0,0:0:0:0:
256,192,72479,12,4,74354,0:0:0:0:
164,72,75057,6,0,P|112:80|48:184,1,160,8|8,0:0|0:0,0:0:0:0:
24,248,75760,1,4,0:0:0:0:
56,332,75994,1,8,0:0:0:0:
56,332,76111,1,0,0:0:0:0:
56,332,76229,6,4,P|148:344|216:276,1,160,4|8,0:0|0:0,0:0:0:0:
272,244,76932,2,0,P|316:200|364:192,1,80,0|0,0:0|0:0,0:0:0:0:
428,180,77400,2,0,P|472:156|488:128,1,80,0|8,0:0|0:0,0:0:0:0:
404,80,77869,1,0,0:0:0:0:
308,92,78104,6,0,P|236:116|140:188,1,160,4|8,0:0|0:0,0:0:0:0:
68,240,78807,1,0,0:0:0:0:
32,152,79041,2,0,L|92:96,1,80,0|0,0:0|0:0,0:0:0:0:
180,128,79510,1,8,0:0:0:0:
160,220,79744,1,0,0:0:0:0:
264,196,79979,6,0,P|283:230|276:268,1,80,4|0,0:0|0:0,0:0:0:0:
200,328,80447,1,8,0:0:0:0:
292,360,80682,1,0,0:0:0:0:
372,308,80916,6,0,P|353:274|360:236,1,80,0|0,0:0|0:0,0:0:0:0:
424,156,81385,1,8,0:0:0:0:
376,72,81619,1,0,0:0:0:0:
276,80,81854,6,0,L|188:96,1,80,0|0,0:0|0:0,0:0:0:0:
124,156,82322,2,0,P|128:208|156:236,1,80,8|0,0:0|0:0,0:0:0:0:
244,240,82791,2,0,L|288:216,2,40,0|0|0,0:0|0:0|0:0,0:0:0:0:
176,324,83260,2,8,L|280:352,1,80,8|0,0:0|0:0,0:0:0:0:
368,352,83729,6,0,P|468:320|488:252,1,160,4|8,0:0|0:0,0:0:0:0:
496,185,84432,1,0,0:0:0:0:
496,185,84549,1,0,0:0:0:0:
496,185,84666,1,0,0:0:0:0:
432,116,84900,1,0,0:0:0:0:
344,156,85135,1,8,0:0:0:0:
268,96,85369,1,0,0:0:0:0:
172,84,85604,6,0,L|188:188,1,80,4|0,0:0|0:0,0:0:0:0:
104,216,86072,1,8,0:0:0:0:
188,264,86307,2,8,B|244:268|272:344|272:344|312:344,1,160,0|0,0:0|0:0,0:0:0:0:
404,336,87010,2,8,P|388:292|340:264,1,80,8|0,0:0|0:0,0:0:0:0:
256,192,87479,12,4,89354,0:0:0:0:
344,116,90057,5,8,0:0:0:0:
260,68,90291,1,0,0:0:0:0:
168,92,90525,1,0,0:0:0:0:
144,184,90760,1,8,0:0:0:0:
188,272,90994,1,8,0:0:0:0:
188,272,91111,1,0,0:0:0:0:
188,272,91229,6,0,P|264:308|352:268,1,160,4|8,0:0|0:0,0:0:0:0:
268,200,91932,1,0,0:0:0:0:
364,196,92166,2,0,P|352:150|300:132,1,80,0|0,0:0|0:0,0:0:0:0:
268,200,92635,2,0,P|220:204|181:175,1,80,8|0,0:0|0:0,0:0:0:0:
120,120,93104,6,0,P|56:112|40:120,1,80,4|0,0:0|0:0,0:0:0:0:
60,212,93572,1,8,0:0:0:0:
116,292,93807,1,0,0:0:0:0:
216,268,94041,2,0,P|264:268|304:244,1,80,0|0,0:0|0:0,0:0:0:0:
240,176,94510,2,8,P|284:160|344:176,1,80,8|0,0:0|0:0,0:0:0:0:
412,184,94979,6,0,P|412:230|378:266,1,80,4|0,0:0|0:0,0:0:0:0:
296,248,95447,1,8,0:0:0:0:
236,320,95682,1,0,0:0:0:0:
196,240,95916,2,0,L|180:156,1,80,0|0,0:0|0:0,0:0:0:0:
92,124,96385,1,8,0:0:0:0:
176,80,96619,1,0,0:0:0:0:
252,136,96854,6,0,L|259:175,2,40,0|0|0,0:0|0:0|0:0,0:0:0:0:
347,124,97322,2,0,L|353:84,2,40,8|0|0,0:0|0:0|0:0,0:0:0:0:
279,55,97791,1,0,0:0:0:0:
199,108,98025,1,0,0:0:0:0:
136,34,98260,1,8,0:0:0:0:
59,91,98494,1,8,0:0:0:0:
59,187,98729,6,0,P|127:307|215:291,1,240,2|8,0:0|0:0,0:0:0:0:
301,294,99666,2,0,P|414:292|453:187,1,240,8|8,0:0|0:0,0:0:0:0:
382,131,100604,5,4,0:3:0:0:
290,163,100838,1,0,0:0:0:0:
362,223,101072,1,4,0:0:0:0:
60,96,102479,5,4,0:0:0:0:
116,172,102713,1,0,0:0:0:0:
208,192,102947,1,8,0:0:0:0:
300,160,103182,1,8,0:0:0:0:
376,92,103416,2,0,P|409:112|423:149,1,80,2|0,0:0|0:0,0:0:0:0:
423,234,103885,2,0,P|409:271|376:292,1,80,8|8,0:0|0:0,0:0:0:0:
336,204,104354,5,4,0:0:0:0:
280,128,104588,1,0,0:0:0:0:
188,108,104822,1,8,0:0:0:0:
96,140,105057,1,8,0:0:0:0:
80,236,105291,2,0,P|108:268|180:272,1,80,2|0,0:0|0:0,0:0:0:0:
228,236,105760,2,0,P|196:200|164:192,1,80,8|8,0:0|0:0,0:0:0:0:
256,192,106229,12,4,108104,0:0:0:0:
