osu file format v13

[General]
AudioFilename: 1. Endless Tears.mp3
AudioLeadIn: 0
PreviewTime: 248496
Countdown: 0
SampleSet: Soft
StackLeniency: 0.7
Mode: 3
LetterboxInBreaks: 0
SpecialStyle: 0
WidescreenStoryboard: 0

[Editor]
Bookmarks: 100468,217968
DistanceSpacing: 0.8
BeatDivisor: 4
GridSize: 32
TimelineZoom: 3.6

[Metadata]
Title:Endless Tears...
TitleUnicode:Endless Tears...
Artist:Ayane
ArtistUnicode:彩音
Creator:richardfeder
Version:CrossOver
Source:11eyes CrossOver
Tags:5pb.Games Lass ljqandylee collab Marathon
BeatmapID:477041
BeatmapSetID:201476

[Difficulty]
HPDrainRate:8
CircleSize:7
OverallDifficulty:7.5
ApproachRate:5
SliderMultiplier:1.4
SliderTickRate:1

[Events]
//Background and Video events
0,0,"553-11eyes.jpg",0,0
//Break Periods
//Storyboard Layer 0 (Background)
//Storyboard Layer 1 (Fail)
//Storyboard Layer 2 (Pass)
//Storyboard Layer 3 (Foreground)
//Storyboard Sound Samples

[TimingPoints]
5468,312.5,4,2,1,25,1,0
215468,-100,4,2,1,10,0,0
217968,394.736842105263,4,2,1,20,1,0
217968,-83.3333333333333,4,2,1,20,0,0
218362,-85.4700854700855,4,2,1,15,0,0
218683,-87.719298245614,4,2,1,15,0,0
219028,-90.0900900900901,4,2,1,15,0,0
219349,-92.5925925925926,4,2,1,15,0,0
219645,-95.2380952380952,4,2,1,15,0,0
219991,-98.0392156862745,4,2,1,15,0,0
220766,394.736842105263,4,2,1,20,1,0
246127,-79.3650793650794,4,2,1,25,0,0
248981,312.5,4,2,1,25,1,0

[HitObjects]
36,192,5468,5,0,0:0:0:0:
182,192,5468,1,4,0:0:0:0:
475,192,5468,1,0,0:0:0:0:
329,192,6718,1,4,0:0:0:0:
475,192,6718,1,0,0:0:0:0:
36,192,6718,1,0,0:0:0:0:
182,192,7968,1,4,0:0:0:0:
36,192,7968,1,0,0:0:0:0:
475,192,7968,1,0,0:0:0:0:
475,192,8124,1,0,0:0:0:0:
329,192,8124,1,4,0:0:0:0:
36,192,8124,1,0,0:0:0:0:
256,192,9218,1,4,0:0:0:0:
36,192,9218,1,0,0:0:0:0:
475,192,9218,1,0,0:0:0:0:
182,192,9686,128,0,10155:0:0:0:0:
36,192,9999,128,0,10468:0:0:0:0:
329,192,9999,1,0,0:0:0:0:
402,192,10077,1,0,0:0:0:0:
475,192,10155,1,0,0:0:0:0:
402,192,10233,1,0,0:0:0:0:
329,192,10311,1,0,0:0:0:0:
402,192,10389,1,0,0:0:0:0:
475,192,10468,1,0,0:0:0:0:
109,192,10468,1,0,0:0:0:0:
256,192,10468,1,4,0:0:0:0:
182,192,10624,1,0,0:0:0:0:
256,192,10780,1,0,0:0:0:0:
36,192,10780,1,8,0:0:0:0:
402,192,10780,1,0,0:0:0:0:
329,192,10936,1,0,0:0:0:0:
109,192,10936,1,0,0:0:0:0:
182,192,11093,1,0,0:0:0:0:
402,192,11249,1,0,0:0:0:0:
256,192,11249,1,0,0:0:0:0:
36,192,11405,1,8,0:0:0:0:
475,192,11405,1,0,0:0:0:0:
182,192,11405,1,0,0:0:0:0:
256,192,11561,1,0,0:0:0:0:
36,192,11718,1,0,0:0:0:0:
329,192,11718,1,0,0:0:0:0:
256,192,11874,1,0,0:0:0:0:
109,192,12030,1,0,0:0:0:0:
182,192,12030,1,0,0:0:0:0:
475,192,12030,1,8,0:0:0:0:
329,192,12186,1,0,0:0:0:0:
36,192,12186,1,0,0:0:0:0:
402,192,12343,1,0,0:0:0:0:
256,192,12499,1,0,0:0:0:0:
109,192,12499,1,0,0:0:0:0:
475,192,12655,1,0,0:0:0:0:
36,192,12655,1,0,0:0:0:0:
182,192,12655,1,8,0:0:0:0:
329,192,12811,1,0,0:0:0:0:
256,192,12811,1,0,0:0:0:0:
109,192,12968,1,0,0:0:0:0:
402,192,12968,1,0,0:0:0:0:
182,192,13124,1,0,0:0:0:0:
475,192,13280,1,8,0:0:0:0:
36,192,13280,1,0,0:0:0:0:
329,192,13280,1,0,0:0:0:0:
256,192,13436,1,0,0:0:0:0:
109,192,13436,1,0,0:0:0:0:
402,192,13593,1,0,0:0:0:0:
36,192,13749,1,0,0:0:0:0:
182,192,13749,1,0,0:0:0:0:
475,192,13905,1,8,0:0:0:0:
109,192,13905,1,0,0:0:0:0:
402,192,13905,1,0,0:0:0:0:
182,192,14061,1,0,0:0:0:0:
256,192,14061,1,0,0:0:0:0:
329,192,14218,1,0,0:0:0:0:
36,192,14218,1,0,0:0:0:0:
256,192,14374,1,0,0:0:0:0:
402,192,14374,1,0,0:0:0:0:
475,192,14530,1,8,0:0:0:0:
36,192,14530,1,0,0:0:0:0:
182,192,14530,1,0,0:0:0:0:
329,192,14686,1,0,0:0:0:0:
475,192,14843,1,0,0:0:0:0:
182,192,14843,1,0,0:0:0:0:
402,192,14921,1,0,0:0:0:0:
109,192,14921,1,0,0:0:0:0:
329,192,14999,1,0,0:0:0:0:
36,192,14999,1,0,0:0:0:0:
182,192,15155,1,0,0:0:0:0:
475,192,15155,1,8,0:0:0:0:
36,192,15155,1,0,0:0:0:0:
109,192,15311,1,0,0:0:0:0:
402,192,15311,1,8,0:0:0:0:
256,192,15311,1,0,0:0:0:0:
36,192,15468,128,0,15780:0:0:0:0:
182,192,15468,1,0,0:0:0:0:
329,192,15468,1,0,0:0:0:0:
475,192,15468,1,4,0:0:0:0:
256,192,15624,1,0,0:0:0:0:
475,192,15780,1,8,0:0:0:0:
402,192,15780,1,0,0:0:0:0:
109,192,15780,1,0,0:0:0:0:
329,192,15936,128,0,16249:0:0:0:0:
182,192,15936,1,0,0:0:0:0:
36,192,15936,1,0,0:0:0:0:
256,192,16093,1,0,0:0:0:0:
109,192,16249,128,0,16718:0:0:0:0:
182,192,16249,1,0,0:0:0:0:
402,192,16249,1,0,0:0:0:0:
329,192,16405,1,0,0:0:0:0:
36,192,16405,1,0,0:0:0:0:
475,192,16405,1,8,0:0:0:0:
256,192,16561,128,0,16718:0:0:0:0:
402,192,16561,1,0,0:0:0:0:
182,192,16718,128,0,17577:0:0:0:0:
329,192,16718,1,0,0:0:0:0:
475,192,16718,1,0,0:0:0:0:
36,192,16874,1,0,0:0:0:0:
475,192,17030,1,8,0:0:0:0:
109,192,17030,1,0,0:0:0:0:
402,192,17030,1,0,0:0:0:0:
36,192,17186,1,0,0:0:0:0:
329,192,17186,1,0,0:0:0:0:
109,192,17343,1,0,0:0:0:0:
329,192,17499,1,0,0:0:0:0:
256,192,17499,1,0,0:0:0:0:
182,192,17655,1,0,0:0:0:0:
36,192,17655,1,0,0:0:0:0:
475,192,17655,1,8,0:0:0:0:
402,192,17655,1,0,0:0:0:0:
256,192,17811,1,0,0:0:0:0:
36,192,17968,128,0,18280:0:0:0:0:
475,192,17968,1,0,0:0:0:0:
329,192,17968,1,0,0:0:0:0:
109,192,18124,1,0,0:0:0:0:
256,192,18124,1,0,0:0:0:0:
475,192,18280,1,8,0:0:0:0:
402,192,18280,1,0,0:0:0:0:
182,192,18280,1,0,0:0:0:0:
109,192,18436,128,0,18749:0:0:0:0:
329,192,18436,1,0,0:0:0:0:
256,192,18436,1,0,0:0:0:0:
402,192,18593,1,0,0:0:0:0:
256,192,18749,1,0,0:0:0:0:
329,192,18905,1,8,0:0:0:0:
182,192,18905,1,0,0:0:0:0:
36,192,18983,1,0,0:0:0:0:
475,192,18983,1,8,0:0:0:0:
182,192,19061,1,0,0:0:0:0:
329,192,19061,1,8,0:0:0:0:
36,192,19139,1,0,0:0:0:0:
475,192,19139,1,8,0:0:0:0:
182,192,19218,128,0,19843:0:0:0:0:
329,192,19218,128,0,19843:0:0:0:0:
256,192,19218,1,8,0:0:0:0:
256,192,19374,1,0,0:0:0:0:
36,192,19530,1,0,0:0:0:0:
475,192,19530,1,8,0:0:0:0:
475,192,19843,128,0,20468:0:0:0:0:
36,192,19843,128,0,20468:0:0:0:0:
256,192,19843,1,0,0:0:0:0:
182,192,19999,1,0,0:0:0:0:
109,192,19999,1,0,0:0:0:0:
329,192,20077,1,0,0:0:0:0:
402,192,20077,1,0,0:0:0:0:
182,192,20155,1,8,0:0:0:0:
109,192,20155,1,0,0:0:0:0:
329,192,20233,1,0,0:0:0:0:
402,192,20233,1,0,0:0:0:0:
182,192,20311,1,0,0:0:0:0:
109,192,20311,1,0,0:0:0:0:
402,192,20468,128,0,22499:0:0:0:0:
109,192,20468,128,0,22499:0:0:0:0:
256,192,20468,1,4,0:0:0:0:
256,192,20624,1,0,0:0:0:0:
182,192,20780,1,0,0:0:0:0:
475,192,20780,1,8,0:0:0:0:
36,192,20780,1,0,0:0:0:0:
329,192,21093,1,0,0:0:0:0:
182,192,21249,1,0,0:0:0:0:
329,192,21405,1,0,0:0:0:0:
475,192,21405,1,8,0:0:0:0:
182,192,21561,1,0,0:0:0:0:
36,192,21561,1,0,0:0:0:0:
256,192,21561,1,4,0:0:0:0:
256,192,21874,1,0,0:0:0:0:
329,192,21874,1,0,0:0:0:0:
475,192,21874,1,4,0:0:0:0:
182,192,22030,1,8,0:0:0:0:
36,192,22030,1,0,0:0:0:0:
329,192,22186,1,0,0:0:0:0:
182,192,22343,1,0,0:0:0:0:
329,192,22499,1,0,0:0:0:0:
475,192,22499,1,8,0:0:0:0:
182,192,22655,128,0,22811:0:0:0:0:
256,192,22733,128,0,22889:0:0:0:0:
329,192,22811,128,0,22968:0:0:0:0:
402,192,22889,128,0,23046:0:0:0:0:
475,192,22968,128,0,25155:0:0:0:0:
36,192,22968,128,0,25155:0:0:0:0:
109,192,22968,1,0,0:0:0:0:
182,192,23124,1,0,0:0:0:0:
402,192,23280,1,8,0:0:0:0:
109,192,23280,1,4,0:0:0:0:
256,192,23280,1,0,0:0:0:0:
182,192,23593,1,0,0:0:0:0:
329,192,23749,1,0,0:0:0:0:
109,192,23905,1,0,0:0:0:0:
182,192,23905,1,8,0:0:0:0:
402,192,24061,1,0,0:0:0:0:
329,192,24061,1,0,0:0:0:0:
256,192,24061,1,4,0:0:0:0:
109,192,24374,1,0,0:0:0:0:
329,192,24374,1,0,0:0:0:0:
402,192,24530,1,0,0:0:0:0:
182,192,24530,1,8,0:0:0:0:
256,192,24843,128,0,25468:0:0:0:0:
182,192,24843,1,0,0:0:0:0:
109,192,24843,1,0,0:0:0:0:
329,192,24999,1,0,0:0:0:0:
402,192,24999,1,0,0:0:0:0:
109,192,25155,1,8,0:0:0:0:
402,192,25233,1,0,0:0:0:0:
182,192,25311,1,0,0:0:0:0:
329,192,25389,1,0,0:0:0:0:
475,192,25468,1,4,0:0:0:0:
109,192,25468,1,0,0:0:0:0:
402,192,25468,1,0,0:0:0:0:
36,192,25468,1,0,0:0:0:0:
36,192,25780,1,0,0:0:0:0:
329,192,25780,1,0,0:0:0:0:
475,192,25780,1,8,0:0:0:0:
329,192,25936,1,0,0:0:0:0:
182,192,26093,1,0,0:0:0:0:
256,192,26093,1,0,0:0:0:0:
329,192,26249,128,0,26405:0:0:0:0:
182,192,26405,1,0,0:0:0:0:
36,192,26405,1,0,0:0:0:0:
475,192,26405,1,8,0:0:0:0:
182,192,26561,1,0,0:0:0:0:
256,192,26561,1,0,0:0:0:0:
329,192,26718,128,0,26874:0:0:0:0:
182,192,26874,1,0,0:0:0:0:
256,192,26874,1,0,0:0:0:0:
182,192,27030,1,0,0:0:0:0:
36,192,27030,1,0,0:0:0:0:
475,192,27030,1,8,0:0:0:0:
329,192,27186,128,0,27343:0:0:0:0:
256,192,27343,1,0,0:0:0:0:
182,192,27343,1,0,0:0:0:0:
182,192,27499,1,0,0:0:0:0:
329,192,27655,128,0,27811:0:0:0:0:
475,192,27655,1,8,0:0:0:0:
36,192,27655,1,0,0:0:0:0:
256,192,27811,1,0,0:0:0:0:
182,192,27968,128,0,28358:0:0:0:0:
256,192,28124,1,0,0:0:0:0:
475,192,28280,1,8,0:0:0:0:
36,192,28280,1,0,0:0:0:0:
182,192,28436,1,0,0:0:0:0:
182,192,28593,1,0,0:0:0:0:
256,192,28593,1,0,0:0:0:0:
329,192,28749,128,0,28905:0:0:0:0:
475,192,28905,1,8,0:0:0:0:
36,192,28905,1,0,0:0:0:0:
182,192,29061,128,0,29296:0:0:0:0:
109,192,29061,1,0,0:0:0:0:
402,192,29061,1,4,0:0:0:0:
256,192,29061,1,0,0:0:0:0:
182,192,29374,1,0,0:0:0:0:
256,192,29374,1,0,0:0:0:0:
329,192,29530,128,0,29686:0:0:0:0:
36,192,29530,1,0,0:0:0:0:
475,192,29530,1,8,0:0:0:0:
182,192,29686,1,0,0:0:0:0:
182,192,29843,1,0,0:0:0:0:
256,192,29843,1,0,0:0:0:0:
329,192,29999,128,0,30155:0:0:0:0:
475,192,30155,1,8,0:0:0:0:
36,192,30155,1,0,0:0:0:0:
182,192,30155,1,0,0:0:0:0:
182,192,30311,1,0,0:0:0:0:
256,192,30468,1,0,0:0:0:0:
329,192,30468,128,0,30858:0:0:0:0:
475,192,30780,1,8,0:0:0:0:
36,192,30780,1,0,0:0:0:0:
329,192,30936,1,0,0:0:0:0:
256,192,30936,1,0,0:0:0:0:
329,192,31093,1,0,0:0:0:0:
182,192,31249,128,0,31405:0:0:0:0:
256,192,31249,1,0,0:0:0:0:
329,192,31405,1,0,0:0:0:0:
475,192,31405,1,8,0:0:0:0:
36,192,31405,1,0,0:0:0:0:
329,192,31561,1,0,0:0:0:0:
182,192,31718,128,0,31874:0:0:0:0:
256,192,31718,1,0,0:0:0:0:
329,192,31874,1,0,0:0:0:0:
329,192,32030,1,0,0:0:0:0:
475,192,32030,1,8,0:0:0:0:
36,192,32030,1,0,0:0:0:0:
182,192,32186,128,0,32343:0:0:0:0:
256,192,32186,1,0,0:0:0:0:
329,192,32343,1,0,0:0:0:0:
329,192,32499,1,0,0:0:0:0:
256,192,32499,1,0,0:0:0:0:
475,192,32655,1,0,0:0:0:0:
36,192,32655,1,0,0:0:0:0:
182,192,32655,1,8,0:0:0:0:
329,192,32811,1,0,0:0:0:0:
475,192,32811,1,0,0:0:0:0:
182,192,32889,1,0,0:0:0:0:
36,192,32889,1,0,0:0:0:0:
475,192,32968,128,0,33593:0:0:0:0:
329,192,32968,1,0,0:0:0:0:
329,192,33124,1,0,0:0:0:0:
109,192,33280,1,0,0:0:0:0:
36,192,33280,1,0,0:0:0:0:
182,192,33280,1,4,0:0:0:0:
256,192,33436,1,0,0:0:0:0:
182,192,33593,128,0,34218:0:0:0:0:
36,192,33593,1,0,0:0:0:0:
36,192,33749,1,0,0:0:0:0:
329,192,33905,1,4,0:0:0:0:
402,192,33905,1,0,0:0:0:0:
475,192,33905,1,0,0:0:0:0:
329,192,34218,128,0,34843:0:0:0:0:
475,192,34218,1,0,0:0:0:0:
475,192,34374,1,0,0:0:0:0:
182,192,34530,1,4,0:0:0:0:
109,192,34530,1,0,0:0:0:0:
36,192,34530,1,0,0:0:0:0:
256,192,34686,1,0,0:0:0:0:
36,192,34843,128,0,35468:0:0:0:0:
182,192,34843,1,0,0:0:0:0:
182,192,34999,1,0,0:0:0:0:
402,192,35155,1,0,0:0:0:0:
475,192,35155,1,0,0:0:0:0:
329,192,35155,1,4,0:0:0:0:
182,192,35233,1,0,0:0:0:0:
329,192,35311,1,0,0:0:0:0:
256,192,35389,1,0,0:0:0:0:
475,192,35468,128,0,35858:0:0:0:0:
402,192,35468,1,4,0:0:0:0:
109,192,35468,1,0,0:0:0:0:
182,192,35468,1,0,0:0:0:0:
36,192,35624,128,0,35780:0:0:0:0:
109,192,35780,128,0,35936:0:0:0:0:
182,192,35936,128,0,36093:0:0:0:0:
475,192,35936,1,0,0:0:0:0:
36,192,36093,128,0,36249:0:0:0:0:
329,192,36093,1,0,0:0:0:0:
182,192,36249,128,0,36405:0:0:0:0:
475,192,36249,128,0,36405:0:0:0:0:
329,192,36405,1,0,0:0:0:0:
109,192,36561,128,0,36718:0:0:0:0:
329,192,36561,1,0,0:0:0:0:
475,192,36718,128,0,36874:0:0:0:0:
329,192,36874,1,0,0:0:0:0:
36,192,36874,128,0,37030:0:0:0:0:
329,192,37030,1,0,0:0:0:0:
182,192,37030,128,0,37186:0:0:0:0:
475,192,37186,128,0,37343:0:0:0:0:
109,192,37186,128,0,37343:0:0:0:0:
36,192,37343,128,0,37499:0:0:0:0:
329,192,37343,1,0,0:0:0:0:
182,192,37499,128,0,37655:0:0:0:0:
329,192,37499,1,0,0:0:0:0:
475,192,37655,128,0,37811:0:0:0:0:
329,192,37811,1,0,0:0:0:0:
109,192,37968,128,0,38436:0:0:0:0:
329,192,37968,128,0,38358:0:0:0:0:
36,192,38436,128,0,38593:0:0:0:0:
329,192,38436,1,0,0:0:0:0:
329,192,38593,1,0,0:0:0:0:
475,192,38749,128,0,38905:0:0:0:0:
329,192,38905,1,0,0:0:0:0:
256,192,39061,128,0,39374:0:0:0:0:
402,192,39061,1,0,0:0:0:0:
109,192,39061,1,0,0:0:0:0:
36,192,39061,1,4,0:0:0:0:
475,192,39061,1,0,0:0:0:0:
182,192,39374,1,0,0:0:0:0:
329,192,39530,128,0,39686:0:0:0:0:
109,192,39686,128,0,39843:0:0:0:0:
402,192,39843,128,0,39999:0:0:0:0:
36,192,39843,1,0,0:0:0:0:
256,192,39843,1,4,0:0:0:0:
475,192,39843,1,0,0:0:0:0:
182,192,39999,128,0,40155:0:0:0:0:
329,192,40155,128,0,40311:0:0:0:0:
109,192,40311,128,0,40468:0:0:0:0:
36,192,40468,128,0,40858:0:0:0:0:
475,192,40624,128,0,40780:0:0:0:0:
402,192,40780,128,0,40936:0:0:0:0:
36,192,40936,1,0,0:0:0:0:
329,192,40936,1,0,0:0:0:0:
475,192,41093,128,0,41249:0:0:0:0:
182,192,41093,1,0,0:0:0:0:
329,192,41249,128,0,41405:0:0:0:0:
36,192,41249,128,0,41405:0:0:0:0:
182,192,41405,1,0,0:0:0:0:
475,192,41561,128,0,41718:0:0:0:0:
182,192,41561,1,0,0:0:0:0:
402,192,41718,128,0,41874:0:0:0:0:
36,192,41718,128,0,41874:0:0:0:0:
182,192,41874,1,0,0:0:0:0:
329,192,41874,128,0,42030:0:0:0:0:
475,192,42030,128,0,42186:0:0:0:0:
182,192,42030,1,0,0:0:0:0:
329,192,42186,128,0,42343:0:0:0:0:
36,192,42186,128,0,42343:0:0:0:0:
402,192,42343,128,0,42499:0:0:0:0:
182,192,42343,1,0,0:0:0:0:
475,192,42499,128,0,42655:0:0:0:0:
182,192,42499,1,0,0:0:0:0:
36,192,42655,1,0,0:0:0:0:
109,192,42655,1,8,0:0:0:0:
256,192,42733,1,0,0:0:0:0:
329,192,42733,1,0,0:0:0:0:
109,192,42811,1,0,0:0:0:0:
36,192,42811,1,0,0:0:0:0:
256,192,42889,1,0,0:0:0:0:
329,192,42889,1,0,0:0:0:0:
475,192,42968,128,0,43593:0:0:0:0:
182,192,42968,1,0,0:0:0:0:
182,192,43124,1,0,0:0:0:0:
36,192,43280,1,0,0:0:0:0:
256,192,43280,1,0,0:0:0:0:
402,192,43280,1,4,0:0:0:0:
182,192,43593,128,0,44218:0:0:0:0:
329,192,43593,1,0,0:0:0:0:
402,192,43905,1,0,0:0:0:0:
109,192,43905,1,4,0:0:0:0:
36,192,43905,1,0,0:0:0:0:
256,192,44061,1,0,0:0:0:0:
329,192,44218,128,0,44843:0:0:0:0:
475,192,44218,1,0,0:0:0:0:
36,192,44218,1,4,0:0:0:0:
402,192,44218,1,0,0:0:0:0:
182,192,44374,1,0,0:0:0:0:
109,192,44374,1,0,0:0:0:0:
402,192,44452,1,0,0:0:0:0:
256,192,44530,128,0,45468:0:0:0:0:
36,192,44530,1,0,0:0:0:0:
475,192,44608,1,0,0:0:0:0:
109,192,44686,1,0,0:0:0:0:
402,192,44764,1,0,0:0:0:0:
36,192,44843,1,0,0:0:0:0:
475,192,44921,1,0,0:0:0:0:
182,192,44999,1,0,0:0:0:0:
329,192,45077,1,0,0:0:0:0:
36,192,45155,1,0,0:0:0:0:
475,192,45233,1,0,0:0:0:0:
109,192,45311,1,0,0:0:0:0:
402,192,45389,1,0,0:0:0:0:
36,192,45468,128,0,46718:0:0:0:0:
182,192,45468,1,8,0:0:0:0:
329,192,45468,128,0,45780:0:0:0:0:
109,192,45780,1,0,0:0:0:0:
182,192,45780,1,8,0:0:0:0:
475,192,45780,1,0,0:0:0:0:
402,192,45936,128,0,46405:0:0:0:0:
256,192,45936,1,0,0:0:0:0:
256,192,46093,1,0,0:0:0:0:
182,192,46405,1,8,0:0:0:0:
109,192,46405,1,0,0:0:0:0:
475,192,46405,128,0,46718:0:0:0:0:
329,192,46718,1,0,0:0:0:0:
182,192,46718,128,0,47968:0:0:0:0:
256,192,46718,1,0,0:0:0:0:
329,192,46874,128,0,47186:0:0:0:0:
109,192,47030,1,8,0:0:0:0:
36,192,47030,1,0,0:0:0:0:
475,192,47186,128,0,47655:0:0:0:0:
256,192,47186,1,0,0:0:0:0:
256,192,47343,1,0,0:0:0:0:
329,192,47655,128,0,47968:0:0:0:0:
109,192,47655,1,8,0:0:0:0:
36,192,47655,1,0,0:0:0:0:
256,192,47968,1,4,0:0:0:0:
36,192,47968,1,0,0:0:0:0:
475,192,47968,1,0,0:0:0:0:
109,192,47968,128,0,49061:0:0:0:0:
402,192,47968,128,0,48280:0:0:0:0:
182,192,48280,1,0,0:0:0:0:
256,192,48280,1,0,0:0:0:0:
475,192,48280,1,8,0:0:0:0:
329,192,48436,128,0,48749:0:0:0:0:
36,192,48436,1,0,0:0:0:0:
475,192,48749,128,0,48905:0:0:0:0:
36,192,48749,1,0,0:0:0:0:
182,192,48905,1,0,0:0:0:0:
256,192,48905,1,8,0:0:0:0:
36,192,49061,128,0,49452:0:0:0:0:
329,192,49061,128,0,49374:0:0:0:0:
475,192,49061,1,4,0:0:0:0:
402,192,49061,1,0,0:0:0:0:
475,192,49374,1,0,0:0:0:0:
182,192,49374,128,0,49608:0:0:0:0:
36,192,49530,128,0,49686:0:0:0:0:
475,192,49530,128,0,50155:0:0:0:0:
182,192,49686,128,0,49999:0:0:0:0:
109,192,49843,128,0,50155:0:0:0:0:
402,192,49843,1,0,0:0:0:0:
329,192,49843,1,8,0:0:0:0:
36,192,49999,128,0,50311:0:0:0:0:
329,192,49999,1,8,0:0:0:0:
402,192,49999,1,0,0:0:0:0:
182,192,50155,1,0,0:0:0:0:
402,192,50155,1,0,0:0:0:0:
329,192,50155,1,8,0:0:0:0:
109,192,50311,1,0,0:0:0:0:
329,192,50311,1,8,0:0:0:0:
402,192,50311,1,0,0:0:0:0:
36,192,50468,1,0,0:0:0:0:
256,192,50468,128,0,52811:0:0:0:0:
475,192,50468,1,4,0:0:0:0:
109,192,50780,1,8,0:0:0:0:
36,192,50780,1,0,0:0:0:0:
475,192,50780,128,0,50936:0:0:0:0:
329,192,50936,128,0,51093:0:0:0:0:
36,192,51093,128,0,51249:0:0:0:0:
475,192,51093,1,0,0:0:0:0:
182,192,51249,128,0,51561:0:0:0:0:
402,192,51405,1,0,0:0:0:0:
475,192,51405,1,8,0:0:0:0:
329,192,51561,128,0,51874:0:0:0:0:
36,192,51561,1,0,0:0:0:0:
36,192,51874,1,0,0:0:0:0:
182,192,52030,128,0,52343:0:0:0:0:
402,192,52030,1,0,0:0:0:0:
475,192,52030,1,8,0:0:0:0:
36,192,52343,1,0,0:0:0:0:
475,192,52499,1,0,0:0:0:0:
182,192,52655,1,8,0:0:0:0:
109,192,52655,1,0,0:0:0:0:
36,192,52811,128,0,53827:0:0:0:0:
329,192,52811,1,0,0:0:0:0:
402,192,52811,1,4,0:0:0:0:
475,192,52811,128,0,54218:0:0:0:0:
256,192,53124,1,0,0:0:0:0:
329,192,53280,1,8,0:0:0:0:
182,192,53280,1,0,0:0:0:0:
256,192,53593,1,0,0:0:0:0:
36,192,53905,1,0,0:0:0:0:
182,192,53905,1,0,0:0:0:0:
329,192,53905,1,8,0:0:0:0:
36,192,54218,128,0,54452:0:0:0:0:
256,192,54218,1,0,0:0:0:0:
36,192,54530,1,0,0:0:0:0:
182,192,54530,1,0,0:0:0:0:
329,192,54530,1,8,0:0:0:0:
36,192,54686,128,0,57343:0:0:0:0:
256,192,54686,1,0,0:0:0:0:
256,192,54843,1,0,0:0:0:0:
402,192,54999,1,0,0:0:0:0:
329,192,54999,1,0,0:0:0:0:
109,192,55077,1,0,0:0:0:0:
182,192,55077,1,0,0:0:0:0:
329,192,55155,1,0,0:0:0:0:
402,192,55155,1,0,0:0:0:0:
109,192,55233,1,0,0:0:0:0:
182,192,55233,1,0,0:0:0:0:
329,192,55311,1,0,0:0:0:0:
402,192,55311,1,0,0:0:0:0:
475,192,55311,128,0,57343:0:0:0:0:
329,192,55468,128,0,55624:0:0:0:0:
402,192,55468,128,0,55624:0:0:0:0:
182,192,55468,128,0,55624:0:0:0:0:
109,192,55468,128,0,55624:0:0:0:0:
256,192,55780,1,0,0:0:0:0:
182,192,55936,128,0,56093:0:0:0:0:
109,192,55936,128,0,56093:0:0:0:0:
329,192,55936,128,0,56093:0:0:0:0:
402,192,55936,128,0,56093:0:0:0:0:
256,192,56249,1,0,0:0:0:0:
182,192,56405,128,0,56561:0:0:0:0:
109,192,56405,128,0,56561:0:0:0:0:
329,192,56405,128,0,56561:0:0:0:0:
402,192,56405,128,0,56561:0:0:0:0:
256,192,56718,1,0,0:0:0:0:
109,192,56874,1,0,0:0:0:0:
182,192,56874,1,0,0:0:0:0:
402,192,56874,1,0,0:0:0:0:
329,192,56874,1,0,0:0:0:0:
256,192,57030,1,0,0:0:0:0:
182,192,57108,1,0,0:0:0:0:
329,192,57186,1,0,0:0:0:0:
256,192,57264,1,0,0:0:0:0:
329,192,57343,1,0,0:0:0:0:
109,192,57343,1,0,0:0:0:0:
402,192,57343,1,0,0:0:0:0:
182,192,57343,1,0,0:0:0:0:
36,192,57968,1,0,0:0:0:0:
475,192,57968,128,0,58593:0:0:0:0:
402,192,57968,1,0,0:0:0:0:
109,192,57968,1,0,0:0:0:0:
256,192,57968,1,4,0:0:0:0:
182,192,58124,1,0,0:0:0:0:
329,192,58280,1,8,0:0:0:0:
36,192,58280,1,0,0:0:0:0:
256,192,58280,1,0,0:0:0:0:
182,192,58436,1,0,0:0:0:0:
109,192,58593,128,0,59061:0:0:0:0:
402,192,58593,1,0,0:0:0:0:
36,192,58593,1,0,0:0:0:0:
256,192,58749,1,0,0:0:0:0:
475,192,58905,1,8,0:0:0:0:
402,192,58905,1,0,0:0:0:0:
182,192,58905,1,0,0:0:0:0:
329,192,59061,128,0,59530:0:0:0:0:
256,192,59061,1,4,0:0:0:0:
36,192,59061,1,0,0:0:0:0:
475,192,59061,1,0,0:0:0:0:
182,192,59218,1,0,0:0:0:0:
36,192,59374,1,0,0:0:0:0:
256,192,59374,1,0,0:0:0:0:
402,192,59530,1,0,0:0:0:0:
475,192,59530,1,8,0:0:0:0:
182,192,59530,1,0,0:0:0:0:
256,192,59686,1,0,0:0:0:0:
475,192,59843,128,0,60155:0:0:0:0:
182,192,59843,1,0,0:0:0:0:
36,192,59843,1,0,0:0:0:0:
256,192,59999,1,0,0:0:0:0:
36,192,60155,128,0,60468:0:0:0:0:
402,192,60155,1,8,0:0:0:0:
329,192,60155,1,0,0:0:0:0:
109,192,60155,1,0,0:0:0:0:
256,192,60311,1,0,0:0:0:0:
475,192,60468,1,0,0:0:0:0:
182,192,60468,1,0,0:0:0:0:
402,192,60468,128,0,61093:0:0:0:0:
109,192,60468,1,0,0:0:0:0:
256,192,60624,1,0,0:0:0:0:
182,192,60780,1,0,0:0:0:0:
36,192,60780,1,0,0:0:0:0:
475,192,60780,1,8,0:0:0:0:
329,192,60936,1,0,0:0:0:0:
109,192,61093,128,0,61405:0:0:0:0:
256,192,61093,1,0,0:0:0:0:
36,192,61093,1,0,0:0:0:0:
329,192,61249,1,0,0:0:0:0:
182,192,61405,1,0,0:0:0:0:
475,192,61405,1,8,0:0:0:0:
402,192,61405,1,0,0:0:0:0:
329,192,61561,128,0,62030:0:0:0:0:
475,192,61561,1,0,0:0:0:0:
256,192,61561,1,0,0:0:0:0:
36,192,61561,1,0,0:0:0:0:
109,192,61718,1,0,0:0:0:0:
182,192,61874,1,0,0:0:0:0:
256,192,61874,1,0,0:0:0:0:
475,192,62030,1,0,0:0:0:0:
36,192,62030,1,0,0:0:0:0:
109,192,62030,1,8,0:0:0:0:
256,192,62108,1,0,0:0:0:0:
402,192,62186,1,0,0:0:0:0:
182,192,62343,1,0,0:0:0:0:
36,192,62343,1,0,0:0:0:0:
475,192,62499,1,8,0:0:0:0:
329,192,62499,1,0,0:0:0:0:
109,192,62499,1,0,0:0:0:0:
475,192,62655,1,8,0:0:0:0:
329,192,62655,1,0,0:0:0:0:
109,192,62655,1,0,0:0:0:0:
256,192,62811,128,0,63593:0:0:0:0:
402,192,62811,1,8,0:0:0:0:
182,192,62811,1,4,0:0:0:0:
36,192,62811,1,0,0:0:0:0:
329,192,62968,1,0,0:0:0:0:
36,192,63124,1,0,0:0:0:0:
182,192,63124,1,0,0:0:0:0:
402,192,63280,1,0,0:0:0:0:
475,192,63280,1,8,0:0:0:0:
109,192,63280,1,0,0:0:0:0:
182,192,63436,1,0,0:0:0:0:
329,192,63593,1,0,0:0:0:0:
475,192,63593,1,0,0:0:0:0:
36,192,63593,128,0,63749:0:0:0:0:
402,192,63749,1,0,0:0:0:0:
182,192,63749,128,0,64061:0:0:0:0:
36,192,63905,1,0,0:0:0:0:
256,192,63905,1,8,0:0:0:0:
475,192,63905,1,0,0:0:0:0:
402,192,64061,1,0,0:0:0:0:
109,192,64061,1,0,0:0:0:0:
329,192,64061,1,4,0:0:0:0:
475,192,64061,128,0,64530:0:0:0:0:
182,192,64218,1,0,0:0:0:0:
256,192,64374,1,0,0:0:0:0:
36,192,64374,1,0,0:0:0:0:
182,192,64530,1,8,0:0:0:0:
109,192,64530,1,0,0:0:0:0:
329,192,64530,1,0,0:0:0:0:
402,192,64530,128,0,64843:0:0:0:0:
256,192,64686,1,0,0:0:0:0:
109,192,64843,128,0,65155:0:0:0:0:
36,192,64843,1,0,0:0:0:0:
329,192,64843,1,0,0:0:0:0:
256,192,64999,1,0,0:0:0:0:
475,192,65155,1,8,0:0:0:0:
182,192,65155,1,0,0:0:0:0:
329,192,65155,128,0,65468:0:0:0:0:
36,192,65155,1,0,0:0:0:0:
256,192,65311,1,0,0:0:0:0:
182,192,65468,128,0,66093:0:0:0:0:
475,192,65468,1,0,0:0:0:0:
109,192,65468,1,0,0:0:0:0:
402,192,65468,1,0,0:0:0:0:
329,192,65624,1,0,0:0:0:0:
36,192,65780,1,0,0:0:0:0:
475,192,65780,1,8,0:0:0:0:
256,192,65780,1,0,0:0:0:0:
329,192,65936,1,0,0:0:0:0:
36,192,66093,128,0,66405:0:0:0:0:
475,192,66093,1,0,0:0:0:0:
402,192,66093,1,0,0:0:0:0:
256,192,66249,1,0,0:0:0:0:
182,192,66405,1,0,0:0:0:0:
475,192,66405,1,0,0:0:0:0:
329,192,66405,1,8,0:0:0:0:
36,192,66561,1,0,0:0:0:0:
256,192,66561,128,0,67108:0:0:0:0:
475,192,66561,1,0,0:0:0:0:
402,192,66561,1,4,0:0:0:0:
109,192,66561,1,0,0:0:0:0:
402,192,66874,1,0,0:0:0:0:
109,192,66952,1,0,0:0:0:0:
402,192,67030,1,0,0:0:0:0:
256,192,67186,1,0,0:0:0:0:
36,192,67186,1,0,0:0:0:0:
475,192,67186,1,8,0:0:0:0:
329,192,67264,1,8,0:0:0:0:
182,192,67264,1,0,0:0:0:0:
475,192,67343,1,0,0:0:0:0:
256,192,67343,128,0,67655:0:0:0:0:
36,192,67343,1,0,0:0:0:0:
182,192,67499,1,0,0:0:0:0:
109,192,67499,1,0,0:0:0:0:
402,192,67499,1,8,0:0:0:0:
36,192,67655,1,0,0:0:0:0:
475,192,67655,1,0,0:0:0:0:
329,192,67655,1,8,0:0:0:0:
402,192,67811,128,0,68593:0:0:0:0:
182,192,67811,1,0,0:0:0:0:
475,192,67811,1,0,0:0:0:0:
36,192,67811,1,4,0:0:0:0:
256,192,67811,1,8,0:0:0:0:
329,192,67968,1,0,0:0:0:0:
36,192,68124,1,0,0:0:0:0:
109,192,68124,1,0,0:0:0:0:
475,192,68280,1,0,0:0:0:0:
329,192,68280,1,0,0:0:0:0:
182,192,68280,1,8,0:0:0:0:
256,192,68436,1,0,0:0:0:0:
109,192,68593,128,0,69061:0:0:0:0:
475,192,68593,1,0,0:0:0:0:
36,192,68593,1,0,0:0:0:0:
329,192,68749,1,0,0:0:0:0:
256,192,68905,1,0,0:0:0:0:
402,192,68905,1,0,0:0:0:0:
475,192,68905,1,8,0:0:0:0:
36,192,69061,1,0,0:0:0:0:
475,192,69061,1,0,0:0:0:0:
182,192,69061,1,4,0:0:0:0:
329,192,69061,128,0,69530:0:0:0:0:
256,192,69218,1,0,0:0:0:0:
182,192,69374,1,0,0:0:0:0:
36,192,69374,1,0,0:0:0:0:
475,192,69530,128,0,69843:0:0:0:0:
109,192,69530,1,8,0:0:0:0:
402,192,69530,1,0,0:0:0:0:
36,192,69530,1,0,0:0:0:0:
329,192,69686,1,0,0:0:0:0:
256,192,69843,128,0,70155:0:0:0:0:
182,192,69843,1,0,0:0:0:0:
36,192,69843,1,0,0:0:0:0:
329,192,69999,1,0,0:0:0:0:
36,192,70155,128,0,70468:0:0:0:0:
475,192,70155,1,8,0:0:0:0:
402,192,70155,1,0,0:0:0:0:
109,192,70155,1,0,0:0:0:0:
182,192,70311,1,0,0:0:0:0:
329,192,70468,128,0,71093:0:0:0:0:
475,192,70468,1,0,0:0:0:0:
402,192,70468,1,0,0:0:0:0:
256,192,70468,1,4,0:0:0:0:
109,192,70624,1,0,0:0:0:0:
182,192,70780,1,8,0:0:0:0:
475,192,70780,1,0,0:0:0:0:
36,192,70780,1,0,0:0:0:0:
256,192,70936,1,0,0:0:0:0:
109,192,71093,128,0,71718:0:0:0:0:
36,192,71093,1,0,0:0:0:0:
475,192,71093,1,0,0:0:0:0:
402,192,71093,1,0,0:0:0:0:
329,192,71249,1,0,0:0:0:0:
256,192,71405,1,0,0:0:0:0:
475,192,71405,1,8,0:0:0:0:
402,192,71405,1,0,0:0:0:0:
182,192,71405,128,0,71718:0:0:0:0:
329,192,71561,1,0,0:0:0:0:
475,192,71718,128,0,71952:0:0:0:0:
36,192,71718,1,0,0:0:0:0:
402,192,71718,1,4,0:0:0:0:
256,192,71718,1,0,0:0:0:0:
256,192,71874,1,0,0:0:0:0:
36,192,72030,1,0,0:0:0:0:
329,192,72030,1,0,0:0:0:0:
475,192,72030,1,0,0:0:0:0:
182,192,72030,1,0,0:0:0:0:
256,192,72186,128,0,72968:0:0:0:0:
475,192,72186,1,0,0:0:0:0:
329,192,72186,1,0,0:0:0:0:
109,192,72186,1,0,0:0:0:0:
36,192,72343,1,0,0:0:0:0:
475,192,72343,1,0,0:0:0:0:
402,192,72421,1,0,0:0:0:0:
182,192,72421,1,0,0:0:0:0:
329,192,72499,1,0,0:0:0:0:
109,192,72499,1,0,0:0:0:0:
475,192,72577,1,0,0:0:0:0:
36,192,72577,1,0,0:0:0:0:
182,192,72655,1,0,0:0:0:0:
402,192,72655,1,0,0:0:0:0:
329,192,72733,1,0,0:0:0:0:
109,192,72733,1,0,0:0:0:0:
475,192,72811,1,0,0:0:0:0:
36,192,72811,1,0,0:0:0:0:
402,192,72889,1,0,0:0:0:0:
182,192,72889,1,0,0:0:0:0:
36,192,72968,128,0,73358:0:0:0:0:
109,192,72968,1,4,0:0:0:0:
475,192,72968,1,0,0:0:0:0:
182,192,73124,1,0,0:0:0:0:
475,192,73280,1,0,0:0:0:0:
402,192,73280,1,0,0:0:0:0:
256,192,73280,1,8,0:0:0:0:
329,192,73280,128,0,73436:0:0:0:0:
182,192,73436,1,0,0:0:0:0:
36,192,73436,1,0,0:0:0:0:
475,192,73436,128,0,73749:0:0:0:0:
182,192,73593,1,0,0:0:0:0:
402,192,73593,1,0,0:0:0:0:
329,192,73749,128,0,73905:0:0:0:0:
36,192,73749,1,0,0:0:0:0:
182,192,73905,1,0,0:0:0:0:
402,192,73905,1,8,0:0:0:0:
109,192,73905,1,0,0:0:0:0:
182,192,74061,5,0,0:0:0:0:
475,192,74061,1,0,0:0:0:0:
329,192,74218,128,0,74374:0:0:0:0:
36,192,74218,1,0,0:0:0:0:
182,192,74374,1,0,0:0:0:0:
475,192,74374,1,0,0:0:0:0:
182,192,74530,1,8,0:0:0:0:
256,192,74530,1,0,0:0:0:0:
402,192,74530,1,0,0:0:0:0:
36,192,74530,128,0,74843:0:0:0:0:
329,192,74686,128,0,74843:0:0:0:0:
475,192,74686,1,0,0:0:0:0:
182,192,74843,1,0,0:0:0:0:
475,192,74843,128,0,75155:0:0:0:0:
182,192,74999,1,0,0:0:0:0:
402,192,74999,1,0,0:0:0:0:
36,192,75155,1,8,0:0:0:0:
329,192,75155,128,0,75311:0:0:0:0:
109,192,75155,128,0,75468:0:0:0:0:
256,192,75155,1,0,0:0:0:0:
475,192,75233,1,0,0:0:0:0:
182,192,75311,1,0,0:0:0:0:
256,192,75468,128,0,76718:0:0:0:0:
329,192,75468,1,0,0:0:0:0:
36,192,75468,1,0,0:0:0:0:
475,192,75468,1,4,0:0:0:0:
109,192,75624,1,0,0:0:0:0:
475,192,75780,1,0,0:0:0:0:
182,192,75936,1,0,0:0:0:0:
329,192,76093,1,0,0:0:0:0:
36,192,76249,1,0,0:0:0:0:
402,192,76405,1,0,0:0:0:0:
109,192,76561,1,0,0:0:0:0:
36,192,76718,1,0,0:0:0:0:
329,192,76718,1,0,0:0:0:0:
475,192,76718,1,4,0:0:0:0:
182,192,76874,1,0,0:0:0:0:
256,192,76952,1,0,0:0:0:0:
402,192,76952,1,0,0:0:0:0:
182,192,77030,1,0,0:0:0:0:
36,192,77030,1,0,0:0:0:0:
475,192,77186,1,0,0:0:0:0:
329,192,77186,1,0,0:0:0:0:
256,192,77264,1,0,0:0:0:0:
182,192,77343,1,0,0:0:0:0:
36,192,77343,1,0,0:0:0:0:
329,192,77499,1,0,0:0:0:0:
182,192,77577,1,0,0:0:0:0:
329,192,77655,1,0,0:0:0:0:
475,192,77655,1,8,0:0:0:0:
182,192,77733,1,0,0:0:0:0:
36,192,77733,1,0,0:0:0:0:
329,192,77811,1,0,0:0:0:0:
475,192,77811,1,8,0:0:0:0:
256,192,77968,128,0,78905:0:0:0:0:
475,192,77968,1,4,0:0:0:0:
36,192,77968,1,8,0:0:0:0:
109,192,77968,1,0,0:0:0:0:
402,192,77968,1,0,0:0:0:0:
36,192,78436,1,0,0:0:0:0:
475,192,78593,128,0,79218:0:0:0:0:
329,192,78593,1,8,0:0:0:0:
36,192,78593,1,0,0:0:0:0:
36,192,78905,128,0,79218:0:0:0:0:
182,192,78905,1,0,0:0:0:0:
402,192,79061,1,0,0:0:0:0:
329,192,79139,1,0,0:0:0:0:
182,192,79218,128,0,79686:0:0:0:0:
256,192,79218,1,8,0:0:0:0:
109,192,79218,1,0,0:0:0:0:
36,192,79530,1,0,0:0:0:0:
475,192,79608,1,0,0:0:0:0:
256,192,79686,1,0,0:0:0:0:
475,192,79843,1,0,0:0:0:0:
36,192,79843,1,0,0:0:0:0:
182,192,79843,1,0,0:0:0:0:
329,192,79843,1,8,0:0:0:0:
36,192,79999,1,0,0:0:0:0:
475,192,79999,1,0,0:0:0:0:
182,192,79999,1,0,0:0:0:0:
329,192,79999,1,8,0:0:0:0:
182,192,80468,128,0,80936:0:0:0:0:
475,192,80468,128,0,80936:0:0:0:0:
402,192,80468,1,0,0:0:0:0:
109,192,80468,1,0,0:0:0:0:
36,192,80468,1,4,0:0:0:0:soft-hitclap.wav
329,192,80468,1,0,0:0:0:0:
329,192,80780,128,0,80936:0:0:0:0:
36,192,80780,128,0,80936:0:0:0:0:
402,192,80780,1,8,0:0:0:0:
109,192,80780,1,0,0:0:0:0:
109,192,81093,128,0,81327:0:0:0:0:
256,192,81093,1,8,0:0:0:0:
402,192,81093,128,0,81327:0:0:0:0:
329,192,81249,128,0,81405:0:0:0:0:
36,192,81249,128,0,81405:0:0:0:0:
182,192,81405,1,8,0:0:0:0:
475,192,81405,1,0,0:0:0:0:
109,192,81405,1,0,0:0:0:0:
402,192,81405,1,0,0:0:0:0:
182,192,81561,128,0,82186:0:0:0:0:
475,192,81561,128,0,82186:0:0:0:0:
256,192,81718,1,0,0:0:0:0:
109,192,82030,128,0,82186:0:0:0:0:
402,192,82030,128,0,82186:0:0:0:0:
329,192,82030,1,8,0:0:0:0:
36,192,82030,1,0,0:0:0:0:
36,192,82343,128,0,82577:0:0:0:0:
329,192,82343,128,0,82577:0:0:0:0:
256,192,82343,1,0,0:0:0:0:
182,192,82499,128,0,82655:0:0:0:0:
475,192,82499,128,0,82655:0:0:0:0:
402,192,82655,1,0,0:0:0:0:
36,192,82655,1,0,0:0:0:0:
109,192,82655,1,0,0:0:0:0:
329,192,82655,1,8,0:0:0:0:
109,192,82811,128,0,84764:0:0:0:0:
256,192,82811,1,4,0:0:0:0:
402,192,82811,128,0,84764:0:0:0:0:
36,192,82811,128,0,84764:0:0:0:0:
475,192,82811,128,0,84764:0:0:0:0:
256,192,83124,1,0,0:0:0:0:
182,192,83280,1,0,0:0:0:0:
329,192,83280,1,8,0:0:0:0:
256,192,83593,1,0,0:0:0:0:
182,192,83905,1,0,0:0:0:0:
329,192,83905,1,8,0:0:0:0:
256,192,84218,1,0,0:0:0:0:
182,192,84530,1,0,0:0:0:0:
329,192,84530,1,8,0:0:0:0:
109,192,84843,1,0,0:0:0:0:
402,192,84843,1,0,0:0:0:0:
475,192,84843,1,0,0:0:0:0:
36,192,84843,1,0,0:0:0:0:
36,192,84999,128,0,85155:0:0:0:0:
109,192,84999,128,0,85155:0:0:0:0:
402,192,84999,128,0,85155:0:0:0:0:
475,192,84999,128,0,85155:0:0:0:0:
256,192,85311,128,0,86405:0:0:0:0:
36,192,85311,1,0,0:0:0:0:
182,192,85311,1,0,0:0:0:0:
475,192,85311,1,0,0:0:0:0:
329,192,85311,1,4,0:0:0:0:
475,192,85624,1,0,0:0:0:0:
329,192,85780,128,0,85936:0:0:0:0:
36,192,85780,128,0,85936:0:0:0:0:
109,192,85780,1,8,0:0:0:0:
402,192,85780,1,0,0:0:0:0:
182,192,86093,128,0,86405:0:0:0:0:
475,192,86093,128,0,86405:0:0:0:0:
36,192,86093,1,0,0:0:0:0:
109,192,86249,128,0,86405:0:0:0:0:
402,192,86249,128,0,86405:0:0:0:0:
36,192,86405,1,0,0:0:0:0:
329,192,86405,1,8,0:0:0:0:
36,192,86561,128,0,87108:0:0:0:0:
329,192,86561,128,0,87108:0:0:0:0:
475,192,86561,1,0,0:0:0:0:
256,192,86874,1,0,0:0:0:0:
402,192,87030,128,0,87343:0:0:0:0:
182,192,87030,1,8,0:0:0:0:
475,192,87030,1,0,0:0:0:0:
109,192,87030,128,0,87343:0:0:0:0:
36,192,87186,128,0,87343:0:0:0:0:
329,192,87186,128,0,87343:0:0:0:0:
182,192,87343,128,0,87577:0:0:0:0:
475,192,87343,128,0,87577:0:0:0:0:
256,192,87343,1,0,0:0:0:0:
36,192,87499,128,0,87733:0:0:0:0:
329,192,87499,128,0,87733:0:0:0:0:
109,192,87655,1,0,0:0:0:0:
402,192,87655,1,8,0:0:0:0:
182,192,87655,128,0,87811:0:0:0:0:
475,192,87655,128,0,87811:0:0:0:0:
109,192,87811,1,0,0:0:0:0:
402,192,87811,1,0,0:0:0:0:
329,192,87811,1,4,0:0:0:0:
36,192,87811,1,0,0:0:0:0:
256,192,88124,1,0,0:0:0:0:
36,192,88124,1,0,0:0:0:0:
109,192,88124,1,0,0:0:0:0:
402,192,88124,1,0,0:0:0:0:
475,192,88124,1,0,0:0:0:0:
402,192,88280,128,0,89764:0:0:0:0:
109,192,88280,128,0,89764:0:0:0:0:
475,192,88280,128,0,89764:0:0:0:0:
36,192,88280,128,0,89764:0:0:0:0:
182,192,88280,1,0,0:0:0:0:
329,192,88280,1,8,0:0:0:0:
256,192,88593,1,0,0:0:0:0:
182,192,88905,1,0,0:0:0:0:
329,192,88905,1,8,0:0:0:0:
256,192,89218,1,0,0:0:0:0:
182,192,89530,1,0,0:0:0:0:
329,192,89530,1,8,0:0:0:0:
256,192,89686,1,0,0:0:0:0:
182,192,89843,1,0,0:0:0:0:
109,192,89843,1,0,0:0:0:0:
36,192,89843,1,0,0:0:0:0:
329,192,89843,1,0,0:0:0:0:
402,192,89843,1,0,0:0:0:0:
475,192,89843,1,0,0:0:0:0:
36,192,89999,128,0,90155:0:0:0:0:
109,192,89999,128,0,90155:0:0:0:0:
182,192,89999,128,0,90155:0:0:0:0:
329,192,89999,128,0,90155:0:0:0:0:
402,192,89999,128,0,90155:0:0:0:0:
475,192,89999,128,0,90155:0:0:0:0:
256,192,90311,128,0,91405:0:0:0:0:
475,192,90311,1,4,0:0:0:0:
109,192,90311,1,0,0:0:0:0:
36,192,90311,1,0,0:0:0:0:
402,192,90311,1,0,0:0:0:0:
36,192,90780,128,0,90936:0:0:0:0:
329,192,90780,128,0,90936:0:0:0:0:
109,192,90780,1,0,0:0:0:0:
402,192,90780,1,8,0:0:0:0:
182,192,91093,128,0,91405:0:0:0:0:
475,192,91093,128,0,91405:0:0:0:0:
36,192,91093,1,0,0:0:0:0:
402,192,91249,128,0,91405:0:0:0:0:
109,192,91249,128,0,91405:0:0:0:0:
329,192,91405,1,8,0:0:0:0:
36,192,91405,1,0,0:0:0:0:
36,192,91561,128,0,92343:0:0:0:0:
329,192,91561,128,0,92343:0:0:0:0:
182,192,91561,128,0,91952:0:0:0:0:
475,192,91561,128,0,91952:0:0:0:0:
256,192,91561,1,0,0:0:0:0:
256,192,91874,1,0,0:0:0:0:
402,192,92030,128,0,92186:0:0:0:0:
109,192,92030,128,0,92186:0:0:0:0:
475,192,92030,1,0,0:0:0:0:
182,192,92030,1,8,0:0:0:0:
182,192,92343,128,0,92577:0:0:0:0:
475,192,92343,128,0,92577:0:0:0:0:
256,192,92343,1,0,0:0:0:0:
36,192,92499,128,0,92655:0:0:0:0:
329,192,92499,128,0,92655:0:0:0:0:
475,192,92655,1,0,0:0:0:0:
182,192,92655,1,8,0:0:0:0:
402,192,92655,1,0,0:0:0:0:
109,192,92655,1,0,0:0:0:0:
475,192,92811,128,0,94843:0:0:0:0:
36,192,92811,128,0,94843:0:0:0:0:
256,192,92811,1,4,0:0:0:0:
109,192,92811,128,0,94843:0:0:0:0:
402,192,92811,128,0,94843:0:0:0:0:
256,192,93124,1,0,0:0:0:0:
182,192,93280,1,0,0:0:0:0:
329,192,93280,1,8,0:0:0:0:
256,192,93593,1,0,0:0:0:0:
182,192,93905,1,0,0:0:0:0:
329,192,93905,1,8,0:0:0:0:
256,192,94061,1,0,0:0:0:0:
256,192,94374,1,0,0:0:0:0:
182,192,94530,1,0,0:0:0:0:
329,192,94530,1,8,0:0:0:0:
256,192,94843,1,0,0:0:0:0:
36,192,95155,1,0,0:0:0:0:
475,192,95155,1,8,0:0:0:0:
182,192,95155,128,0,95311:0:0:0:0:
256,192,95233,128,0,95389:0:0:0:0:
329,192,95311,128,0,95468:0:0:0:0:
402,192,95468,128,0,96718:0:0:0:0:
36,192,95468,1,4,0:0:0:0:
109,192,95468,1,0,0:0:0:0:
475,192,95468,1,0,0:0:0:0:
182,192,95624,1,0,0:0:0:0:
256,192,95780,1,0,0:0:0:0:
36,192,95780,1,0,0:0:0:0:
475,192,95780,1,8,0:0:0:0:
109,192,95936,128,0,96718:0:0:0:0:
329,192,95936,1,0,0:0:0:0:
182,192,95936,1,0,0:0:0:0:
256,192,96093,1,0,0:0:0:0:
36,192,96249,1,0,0:0:0:0:
329,192,96249,1,0,0:0:0:0:
182,192,96405,1,0,0:0:0:0:
475,192,96405,1,8,0:0:0:0:
256,192,96405,1,0,0:0:0:0:
329,192,96561,1,0,0:0:0:0:
256,192,96718,128,0,97343:0:0:0:0:
36,192,96718,1,0,0:0:0:0:
475,192,96718,1,0,0:0:0:0:
36,192,97030,1,0,0:0:0:0:
475,192,97030,1,8,0:0:0:0:
402,192,97030,1,0,0:0:0:0:
329,192,97343,1,0,0:0:0:0:
182,192,97343,128,0,97655:0:0:0:0:
36,192,97343,1,0,0:0:0:0:
402,192,97421,1,0,0:0:0:0:
475,192,97499,1,0,0:0:0:0:
402,192,97577,1,0,0:0:0:0:
329,192,97655,1,0,0:0:0:0:
36,192,97655,1,0,0:0:0:0:
109,192,97655,1,8,0:0:0:0:
402,192,97733,1,0,0:0:0:0:
475,192,97811,128,0,98593:0:0:0:0:
256,192,97811,1,4,0:0:0:0:
36,192,97811,1,0,0:0:0:0:
182,192,97811,1,0,0:0:0:0:
329,192,97968,1,0,0:0:0:0:
36,192,98124,1,0,0:0:0:0:
256,192,98124,1,0,0:0:0:0:
402,192,98280,1,8,0:0:0:0:
109,192,98280,1,0,0:0:0:0:
329,192,98280,1,0,0:0:0:0:
182,192,98436,1,0,0:0:0:0:
36,192,98593,1,0,0:0:0:0:
329,192,98593,1,0,0:0:0:0:
256,192,98749,1,0,0:0:0:0:
182,192,98905,1,0,0:0:0:0:
109,192,98905,1,8,0:0:0:0:
402,192,98905,1,0,0:0:0:0:
329,192,99061,1,0,0:0:0:0:
475,192,99061,1,0,0:0:0:0:
256,192,99218,128,0,100155:0:0:0:0:
36,192,99218,1,0,0:0:0:0:
182,192,99374,1,0,0:0:0:0:
475,192,99374,1,0,0:0:0:0:
36,192,99530,1,0,0:0:0:0:
329,192,99530,1,0,0:0:0:0:
109,192,99608,1,0,0:0:0:0:
402,192,99608,1,0,0:0:0:0:
182,192,99686,1,0,0:0:0:0:
475,192,99686,1,0,0:0:0:0:
109,192,99764,1,0,0:0:0:0:
402,192,99764,1,0,0:0:0:0:
329,192,99843,1,0,0:0:0:0:
36,192,99843,1,0,0:0:0:0:
182,192,99999,1,0,0:0:0:0:
475,192,99999,1,0,0:0:0:0:
109,192,100155,1,0,0:0:0:0:
475,192,100155,1,0,0:0:0:0:
182,192,100233,1,0,0:0:0:0:
402,192,100233,1,0,0:0:0:0:
329,192,100311,1,0,0:0:0:0:
36,192,100311,1,0,0:0:0:0:
256,192,100389,1,0,0:0:0:0:
109,192,100389,1,0,0:0:0:0:
36,192,100468,128,0,100780:0:0:0:0:
182,192,100468,1,0,0:0:0:0:
329,192,100468,1,4,0:0:0:0:
475,192,100468,1,0,0:0:0:0:
256,192,100624,1,0,0:0:0:0:
402,192,100624,1,0,0:0:0:0:
109,192,100780,1,0,0:0:0:0:
329,192,100780,1,8,0:0:0:0:
475,192,100780,1,0,0:0:0:0:
182,192,100936,1,0,0:0:0:0:
402,191,100936,1,0,0:0:0:0:
256,192,100936,128,0,101249:0:0:0:0:
475,192,101093,1,0,0:0:0:0:
109,192,101249,128,0,101718:0:0:0:0:
182,192,101249,1,0,0:0:0:0:
402,192,101249,1,0,0:0:0:0:
329,192,101405,1,8,0:0:0:0:
475,192,101405,1,0,0:0:0:0:
182,192,101405,1,0,0:0:0:0:
256,192,101561,1,0,0:0:0:0:
402,192,101561,1,0,0:0:0:0:
36,192,101718,128,0,102499:0:0:0:0:
329,192,101718,1,0,0:0:0:0:
182,192,101718,1,0,0:0:0:0:
475,192,101718,128,0,102811:0:0:0:0:
402,192,101874,128,0,102655:0:0:0:0:
256,192,101874,1,0,0:0:0:0:
329,192,102030,128,0,102499:0:0:0:0:
182,192,102030,1,8,0:0:0:0:
256,192,102186,128,0,102343:0:0:0:0:
109,192,102186,1,0,0:0:0:0:
182,192,102343,128,0,102968:0:0:0:0:
256,192,102499,128,0,102968:0:0:0:0:
109,192,102499,1,0,0:0:0:0:
329,192,102655,128,0,102968:0:0:0:0:
36,192,102655,1,8,0:0:0:0:
402,192,102811,128,0,102968:0:0:0:0:
109,192,102811,1,0,0:0:0:0:
475,192,102968,1,0,0:0:0:0:
36,192,102968,1,0,0:0:0:0:
109,192,103124,1,0,0:0:0:0:
256,192,103124,1,0,0:0:0:0:
182,192,103280,1,0,0:0:0:0:
329,192,103280,1,0,0:0:0:0:
475,192,103280,1,8,0:0:0:0:
109,192,103436,1,0,0:0:0:0:
402,192,103436,1,0,0:0:0:0:
36,192,103593,1,0,0:0:0:0:
182,192,103593,1,0,0:0:0:0:
256,192,103593,1,0,0:0:0:0:
109,192,103749,1,0,0:0:0:0:
329,192,103749,1,0,0:0:0:0:
36,192,103905,1,0,0:0:0:0:
182,192,103905,1,0,0:0:0:0:
402,192,103905,1,8,0:0:0:0:
329,192,104061,1,0,0:0:0:0:
475,192,104061,1,0,0:0:0:0:
36,192,104218,128,0,104843:0:0:0:0:
109,192,104218,1,0,0:0:0:0:
402,192,104218,1,0,0:0:0:0:
256,192,104218,1,0,0:0:0:0:
182,192,104218,1,0,0:0:0:0:
329,192,104374,1,0,0:0:0:0:
475,192,104374,1,0,0:0:0:0:
256,192,104530,1,8,0:0:0:0:
109,192,104530,1,0,0:0:0:0:
402,192,104530,1,0,0:0:0:0:
182,192,104686,1,0,0:0:0:0:
475,192,104843,128,0,105155:0:0:0:0:
256,192,104843,1,0,0:0:0:0:
329,192,104843,1,0,0:0:0:0:
182,192,104921,1,0,0:0:0:0:
109,192,104999,1,0,0:0:0:0:
402,192,104999,1,0,0:0:0:0:
329,192,105077,1,0,0:0:0:0:
256,192,105155,1,0,0:0:0:0:
182,192,105155,1,8,0:0:0:0:
36,192,105155,1,0,0:0:0:0:
402,192,105233,1,0,0:0:0:0:
109,192,105311,1,8,0:0:0:0:
329,192,105311,1,0,0:0:0:0:
475,192,105389,1,0,0:0:0:0:
256,192,105468,1,0,0:0:0:0:
36,192,105468,1,0,0:0:0:0:
182,192,105468,1,4,0:0:0:0:
402,192,105468,1,0,0:0:0:0:
36,192,105624,1,0,0:0:0:0:
329,192,105624,1,0,0:0:0:0:
182,192,105780,1,0,0:0:0:0:
402,192,105780,1,0,0:0:0:0:
475,192,105780,1,8,0:0:0:0:
109,192,105936,1,0,0:0:0:0:
256,192,105936,1,0,0:0:0:0:
182,192,106093,1,0,0:0:0:0:
402,192,106093,1,0,0:0:0:0:
36,192,106093,1,0,0:0:0:0:
475,192,106249,1,0,0:0:0:0:
182,192,106249,1,0,0:0:0:0:
109,192,106405,1,0,0:0:0:0:
36,192,106405,1,0,0:0:0:0:
256,192,106405,1,8,0:0:0:0:
329,192,106561,1,0,0:0:0:0:
475,192,106561,1,0,0:0:0:0:
182,192,106718,1,0,0:0:0:0:
36,192,106718,1,0,0:0:0:0:
256,192,106718,1,0,0:0:0:0:
402,192,106718,1,0,0:0:0:0:
256,192,106874,1,0,0:0:0:0:
109,192,107030,1,0,0:0:0:0:
329,192,107030,1,0,0:0:0:0:
475,192,107030,1,8,0:0:0:0:
256,192,107186,1,0,0:0:0:0:
36,192,107186,1,0,0:0:0:0:
182,192,107343,1,0,0:0:0:0:
402,192,107343,1,0,0:0:0:0:
475,192,107343,1,0,0:0:0:0:
402,192,107499,1,0,0:0:0:0:
256,192,107655,1,0,0:0:0:0:
36,192,107655,1,0,0:0:0:0:
329,192,107655,1,8,0:0:0:0:
182,192,107811,1,0,0:0:0:0:
475,192,107811,1,0,0:0:0:0:
109,192,107968,128,0,108436:0:0:0:0:
36,192,107968,1,0,0:0:0:0:
256,192,107968,1,0,0:0:0:0:
402,192,107968,1,0,0:0:0:0:
256,192,108124,1,0,0:0:0:0:
329,192,108280,1,0,0:0:0:0:
475,192,108280,1,8,0:0:0:0:
182,192,108436,128,0,108905:0:0:0:0:
36,192,108436,1,0,0:0:0:0:
402,192,108436,1,0,0:0:0:0:
475,192,108593,1,0,0:0:0:0:
329,192,108593,1,0,0:0:0:0:
329,192,108749,1,0,0:0:0:0:
109,192,108905,1,0,0:0:0:0:
402,192,108905,1,0,0:0:0:0:
475,192,108905,1,0,0:0:0:0:
256,192,108983,1,0,0:0:0:0:
36,192,109061,1,0,0:0:0:0:
329,192,109061,1,0,0:0:0:0:
402,192,109139,1,0,0:0:0:0:
475,192,109218,128,0,109843:0:0:0:0:
182,192,109218,128,0,109374:0:0:0:0:
256,192,109218,128,0,109530:0:0:0:0:
402,192,109374,128,0,109530:0:0:0:0:
36,192,109374,128,0,109530:0:0:0:0:
329,192,109530,128,0,109686:0:0:0:0:
109,192,109530,128,0,109686:0:0:0:0:
182,192,109686,128,0,109843:0:0:0:0:
402,192,109686,128,0,109843:0:0:0:0:
256,192,109843,128,0,110468:0:0:0:0:
182,192,109999,128,0,110468:0:0:0:0:
329,192,109999,1,0,0:0:0:0:
402,192,110077,1,0,0:0:0:0:
109,192,110155,128,0,110468:0:0:0:0:
475,192,110155,1,0,0:0:0:0:
402,192,110233,1,0,0:0:0:0:
36,192,110311,128,0,110468:0:0:0:0:
329,192,110311,1,0,0:0:0:0:
402,192,110389,1,0,0:0:0:0:
475,192,110468,1,0,0:0:0:0:
329,192,110468,1,4,0:0:0:0:
329,192,110624,1,0,0:0:0:0:
475,192,110624,1,0,0:0:0:0:
402,192,110780,1,8,0:0:0:0:
182,192,110780,1,0,0:0:0:0:
109,192,110780,1,0,0:0:0:0:
256,192,111093,1,0,0:0:0:0:
475,192,111093,1,0,0:0:0:0:
329,192,111249,1,0,0:0:0:0:
256,192,111405,1,8,0:0:0:0:
109,192,111405,1,0,0:0:0:0:
36,192,111561,128,0,111874:0:0:0:0:
182,192,111561,1,0,0:0:0:0:
329,192,111561,1,0,0:0:0:0:
475,192,111561,1,4,0:0:0:0:
109,192,111874,128,0,112186:0:0:0:0:
256,192,111874,1,0,0:0:0:0:
402,192,111874,1,0,0:0:0:0:
475,192,111874,1,4,0:0:0:0:
182,192,112186,128,0,112499:0:0:0:0:
36,192,112186,1,0,0:0:0:0:
329,192,112186,1,0,0:0:0:0:
475,192,112186,1,0,0:0:0:0:
256,192,112499,128,0,112811:0:0:0:0:
475,192,112499,1,8,0:0:0:0:
329,192,112499,1,0,0:0:0:0:
109,192,112499,1,0,0:0:0:0:
402,192,112655,1,0,0:0:0:0:
329,192,112811,1,0,0:0:0:0:
475,192,112968,128,0,114374:0:0:0:0:
329,192,112968,128,0,113124:0:0:0:0:
182,192,112968,1,0,0:0:0:0:
256,192,113124,128,0,113280:0:0:0:0:
109,192,113124,1,0,0:0:0:0:
182,192,113280,128,0,113436:0:0:0:0:
36,192,113280,1,4,0:0:0:0:
402,192,113280,1,8,0:0:0:0:
329,192,113436,128,0,113593:0:0:0:0:
109,192,113436,1,0,0:0:0:0:
256,192,113593,128,0,113749:0:0:0:0:
36,192,113593,128,0,114061:0:0:0:0:
182,192,113593,1,0,0:0:0:0:
109,192,113749,128,0,113905:0:0:0:0:
402,192,113749,1,0,0:0:0:0:
329,192,113905,1,8,0:0:0:0:
182,192,113905,128,0,114218:0:0:0:0:
256,192,114061,128,0,114374:0:0:0:0:
402,192,114061,1,4,0:0:0:0:
109,192,114218,1,0,0:0:0:0:
182,192,114374,1,0,0:0:0:0:
402,192,114374,1,0,0:0:0:0:
109,192,114452,1,0,0:0:0:0:
36,192,114530,1,0,0:0:0:0:
329,192,114530,1,0,0:0:0:0:
256,192,114608,1,0,0:0:0:0:
182,192,114686,1,0,0:0:0:0:
329,192,114764,1,0,0:0:0:0:
109,192,114843,1,0,0:0:0:0:
402,192,114843,1,0,0:0:0:0:
256,192,114921,1,0,0:0:0:0:
329,192,114999,1,0,0:0:0:0:
36,192,114999,1,0,0:0:0:0:
182,192,115077,1,0,0:0:0:0:
329,192,115155,1,0,0:0:0:0:
109,192,115155,1,0,0:0:0:0:
182,192,115194,1,0,0:0:0:0:
402,192,115194,1,0,0:0:0:0:
256,192,115233,1,0,0:0:0:0:
475,192,115233,1,0,0:0:0:0:
329,192,115311,1,0,0:0:0:0:
36,192,115311,1,0,0:0:0:0:
182,192,115389,1,0,0:0:0:0:
256,192,115389,1,0,0:0:0:0:
402,192,115468,1,0,0:0:0:0:
36,192,115468,1,4,0:0:0:0:
109,192,115468,1,0,0:0:0:0:
475,192,115468,128,0,115624:0:0:0:0:
182,192,115624,128,0,115780:0:0:0:0:
402,192,115780,128,0,115936:0:0:0:0:
256,192,115780,1,0,0:0:0:0:
36,192,115936,128,0,116093:0:0:0:0:
109,192,116093,128,0,116249:0:0:0:0:
329,192,116093,1,0,0:0:0:0:
256,192,116249,128,0,116405:0:0:0:0:
475,192,116249,1,0,0:0:0:0:
402,192,116405,128,0,116561:0:0:0:0:
182,192,116561,128,0,116718:0:0:0:0:
36,192,116561,1,0,0:0:0:0:
475,192,116718,128,0,116874:0:0:0:0:
256,192,116874,128,0,117030:0:0:0:0:
109,192,116874,1,0,0:0:0:0:
36,192,117030,128,0,117186:0:0:0:0:
182,192,117030,1,0,0:0:0:0:
329,192,117186,128,0,117343:0:0:0:0:
109,192,117343,1,0,0:0:0:0:
182,192,117343,128,0,117499:0:0:0:0:
475,192,117499,1,0,0:0:0:0:
36,192,117499,128,0,117655:0:0:0:0:
402,192,117655,128,0,117811:0:0:0:0:
182,192,117811,1,0,0:0:0:0:
256,192,117811,128,0,117968:0:0:0:0:
36,192,117968,128,0,119061:0:0:0:0:
329,192,118124,1,0,0:0:0:0:
182,192,118124,1,0,0:0:0:0:
475,192,118280,1,0,0:0:0:0:
402,192,118280,1,0,0:0:0:0:
182,192,118593,1,0,0:0:0:0:
109,192,118593,1,0,0:0:0:0:
329,192,118749,1,0,0:0:0:0:
402,192,118749,1,0,0:0:0:0:
256,192,119061,128,0,119374:0:0:0:0:
475,192,119061,128,0,119374:0:0:0:0:
109,192,119061,1,4,0:0:0:0:
182,192,119061,1,0,0:0:0:0:
182,192,119374,128,0,119686:0:0:0:0:
402,192,119374,128,0,119686:0:0:0:0:
36,192,119374,1,0,0:0:0:0:
256,192,119530,1,8,0:0:0:0:
109,192,119686,128,0,119999:0:0:0:0:
329,192,119686,128,0,119999:0:0:0:0:
475,192,119686,1,0,0:0:0:0:
402,192,119843,1,0,0:0:0:0:
36,192,119999,128,0,120468:0:0:0:0:
256,192,119999,128,0,120468:0:0:0:0:
182,192,119999,1,0,0:0:0:0:
402,192,120155,1,8,0:0:0:0:
329,192,120311,1,0,0:0:0:0:
475,192,120468,128,0,121093:0:0:0:0:
182,192,120468,128,0,120780:0:0:0:0:
402,192,120468,1,0,0:0:0:0:
109,192,120468,1,0,0:0:0:0:
329,192,120624,1,0,0:0:0:0:
402,192,120780,1,0,0:0:0:0:
256,192,120780,1,0,0:0:0:0:
109,192,120780,1,8,0:0:0:0:
329,192,120936,1,0,0:0:0:0:
36,192,120936,1,0,0:0:0:0:
402,192,121093,128,0,121718:0:0:0:0:
109,192,121093,1,0,0:0:0:0:
256,192,121093,1,0,0:0:0:0:
182,192,121249,1,0,0:0:0:0:
329,192,121249,1,0,0:0:0:0:
256,192,121405,1,0,0:0:0:0:
36,192,121405,128,0,122343:0:0:0:0:
109,192,121405,1,8,0:0:0:0:
475,192,121405,1,0,0:0:0:0:
182,192,121561,1,0,0:0:0:0:
475,192,121718,128,0,122655:0:0:0:0:
109,192,121718,1,0,0:0:0:0:
329,192,121718,1,0,0:0:0:0:
256,192,121874,1,0,0:0:0:0:
182,192,122030,1,8,0:0:0:0:
329,192,122030,1,0,0:0:0:0:
109,192,122030,1,0,0:0:0:0:
402,192,122186,1,0,0:0:0:0:
109,192,122343,1,0,0:0:0:0:
329,192,122343,1,0,0:0:0:0:
109,192,122499,1,0,0:0:0:0:
329,192,122499,1,0,0:0:0:0:
256,192,122655,1,0,0:0:0:0:
36,192,122655,1,8,0:0:0:0:
402,192,122655,1,0,0:0:0:0:
109,192,122733,1,0,0:0:0:0:
182,192,122811,1,0,0:0:0:0:
402,192,122811,1,0,0:0:0:0:
329,192,122889,1,0,0:0:0:0:
109,192,122889,1,0,0:0:0:0:
256,192,122968,1,0,0:0:0:0:
36,192,122968,1,0,0:0:0:0:
402,192,122968,1,0,0:0:0:0:
36,192,123124,1,0,0:0:0:0:
256,192,123124,1,0,0:0:0:0:
109,192,123280,1,0,0:0:0:0:
182,192,123280,1,4,0:0:0:0:
402,192,123280,1,8,0:0:0:0:
475,192,123280,1,0,0:0:0:0:
256,192,123436,1,0,0:0:0:0:
109,192,123593,1,0,0:0:0:0:
329,192,123593,1,0,0:0:0:0:
109,192,123749,1,0,0:0:0:0:
329,192,123749,1,0,0:0:0:0:
36,192,123905,1,0,0:0:0:0:
182,192,123905,1,8,0:0:0:0:
402,192,123905,1,4,0:0:0:0:
475,192,123905,1,0,0:0:0:0:
182,192,124218,1,0,0:0:0:0:
329,192,124218,1,0,0:0:0:0:
182,192,124374,1,0,0:0:0:0:
329,192,124374,1,0,0:0:0:0:
256,192,124530,1,0,0:0:0:0:
109,192,124530,1,8,0:0:0:0:
36,192,124530,1,0,0:0:0:0:
402,192,124530,1,4,0:0:0:0:
329,192,124686,1,0,0:0:0:0:
475,192,124686,1,0,0:0:0:0:
182,192,124843,1,0,0:0:0:0:
402,192,124843,1,0,0:0:0:0:
182,192,124999,1,0,0:0:0:0:
402,192,124999,1,0,0:0:0:0:
109,192,125155,1,4,0:0:0:0:
36,192,125155,1,0,0:0:0:0:
256,192,125155,1,0,0:0:0:0:
329,192,125155,1,8,0:0:0:0:
182,192,125311,1,0,0:0:0:0:
475,192,125311,1,0,0:0:0:0:
256,192,125389,1,0,0:0:0:0:
329,192,125468,1,0,0:0:0:0:
109,192,125468,1,4,0:0:0:0:
36,192,125468,1,0,0:0:0:0:
402,192,125468,128,0,125624:0:0:0:0:
182,192,125624,128,0,125780:0:0:0:0:
329,192,125780,128,0,125936:0:0:0:0:
475,192,125936,128,0,126093:0:0:0:0:
402,192,126093,128,0,126249:0:0:0:0:
109,192,126249,128,0,126405:0:0:0:0:
182,192,126405,128,0,126561:0:0:0:0:
36,192,126561,128,0,126874:0:0:0:0:
256,192,126561,128,0,126718:0:0:0:0:
475,192,126718,1,0,0:0:0:0:
402,192,126874,1,0,0:0:0:0:
329,192,126874,128,0,127030:0:0:0:0:
256,192,127030,1,0,0:0:0:0:
475,192,127030,128,0,127343:0:0:0:0:
109,192,127186,1,0,0:0:0:0:
182,192,127343,128,0,127499:0:0:0:0:
329,192,127343,1,0,0:0:0:0:
402,192,127499,128,0,127811:0:0:0:0:
256,192,127499,1,0,0:0:0:0:
109,192,127655,1,0,0:0:0:0:
36,192,127811,128,0,128124:0:0:0:0:
182,192,127811,1,0,0:0:0:0:
256,192,127968,1,0,0:0:0:0:
475,192,128124,1,0,0:0:0:0:
109,192,128280,1,0,0:0:0:0:
402,192,128280,1,0,0:0:0:0:
182,192,128280,1,0,0:0:0:0:
329,192,128593,1,0,0:0:0:0:
475,192,128749,1,0,0:0:0:0:
109,192,128749,1,0,0:0:0:0:
256,192,128749,1,0,0:0:0:0:
36,192,129061,128,0,130311:0:0:0:0:
182,192,129061,1,0,0:0:0:0:
329,192,129061,1,4,0:0:0:0:
475,192,129061,1,0,0:0:0:0:
402,192,129061,1,0,0:0:0:0:
109,192,129218,1,0,0:0:0:0:
329,192,129374,1,0,0:0:0:0:
475,192,129374,1,0,0:0:0:0:
256,192,129530,1,0,0:0:0:0:
182,192,129530,1,8,0:0:0:0:
402,192,129530,1,0,0:0:0:0:
329,192,129686,1,0,0:0:0:0:
475,192,129843,1,4,0:0:0:0:
256,192,129843,1,0,0:0:0:0:
109,192,129843,1,0,0:0:0:0:
329,192,129999,1,0,0:0:0:0:
475,192,130155,1,8,0:0:0:0:
256,192,130155,1,0,0:0:0:0:
182,192,130155,1,0,0:0:0:0:
402,192,130311,1,0,0:0:0:0:
109,192,130311,1,0,0:0:0:0:
182,192,130468,128,0,130780:0:0:0:0:
329,192,130468,1,0,0:0:0:0:
256,192,130468,1,0,0:0:0:0:
109,192,130468,128,0,131093:0:0:0:0:
402,192,130624,1,0,0:0:0:0:
329,192,130780,1,8,0:0:0:0:
475,192,130780,1,0,0:0:0:0:
36,192,130780,1,0,0:0:0:0:
256,192,130936,1,0,0:0:0:0:
402,192,130936,1,0,0:0:0:0:
475,192,131093,128,0,131718:0:0:0:0:
329,192,131093,128,0,131405:0:0:0:0:
182,192,131093,1,0,0:0:0:0:
36,192,131093,1,0,0:0:0:0:
109,192,131249,1,0,0:0:0:0:
256,192,131405,1,8,0:0:0:0:
36,192,131405,1,0,0:0:0:0:
329,192,131561,1,0,0:0:0:0:
109,192,131561,1,0,0:0:0:0:
256,192,131718,128,0,132343:0:0:0:0:
36,192,131718,128,0,132968:0:0:0:0:
182,192,131718,1,0,0:0:0:0:
402,192,131718,1,0,0:0:0:0:
329,192,131874,1,0,0:0:0:0:
182,192,132030,1,0,0:0:0:0:
475,192,132030,1,8,0:0:0:0:
109,192,132186,1,0,0:0:0:0:
402,192,132186,1,0,0:0:0:0:
182,192,132343,128,0,132655:0:0:0:0:
475,192,132343,1,0,0:0:0:0:
329,192,132343,1,0,0:0:0:0:
256,192,132499,1,0,0:0:0:0:
109,192,132655,1,0,0:0:0:0:
475,192,132655,1,0,0:0:0:0:
402,192,132655,1,0,0:0:0:0:
329,192,132733,1,0,0:0:0:0:
256,192,132811,1,0,0:0:0:0:
182,192,132889,1,0,0:0:0:0:
329,192,132968,1,8,0:0:0:0:
475,192,132968,1,0,0:0:0:0:
109,192,132968,1,0,0:0:0:0:
329,192,133124,1,8,0:0:0:0:
475,192,133124,1,0,0:0:0:0:
329,192,133280,1,4,0:0:0:0:
475,192,133280,1,8,0:0:0:0:
182,192,133280,1,0,0:0:0:0:
109,192,133280,1,0,0:0:0:0:
36,192,133593,1,8,0:0:0:0:
256,192,133593,1,0,0:0:0:0:
402,192,133593,1,0,0:0:0:0:
36,192,133749,1,8,0:0:0:0:
256,192,133749,1,0,0:0:0:0:
36,192,133905,1,4,0:0:0:0:
256,192,133905,1,0,0:0:0:0:
402,192,133905,1,8,0:0:0:0:
475,192,133905,1,0,0:0:0:0:
182,192,134061,1,0,0:0:0:0:
109,192,134218,1,0,0:0:0:0:
329,192,134218,1,8,0:0:0:0:
475,192,134218,1,0,0:0:0:0:
402,192,134374,1,8,0:0:0:0:
182,192,134374,1,0,0:0:0:0:
256,192,134530,1,0,0:0:0:0:
36,192,134530,1,8,0:0:0:0:
475,192,134530,1,0,0:0:0:0:
402,192,134608,1,0,0:0:0:0:
256,192,134686,1,0,0:0:0:0:
182,192,134764,1,0,0:0:0:0:
475,192,134843,128,0,134999:0:0:0:0:
329,192,134843,1,0,0:0:0:0:
36,192,134843,1,0,0:0:0:0:
256,192,134921,1,0,0:0:0:0:
402,192,134999,128,0,135155:0:0:0:0:
109,192,134999,1,0,0:0:0:0:
182,192,135077,1,0,0:0:0:0:
329,192,135155,128,0,135311:0:0:0:0:
256,192,135155,1,0,0:0:0:0:
36,192,135155,1,0,0:0:0:0:
109,192,135233,1,0,0:0:0:0:
256,192,135311,128,0,135468:0:0:0:0:
182,192,135311,1,0,0:0:0:0:
475,192,135389,1,0,0:0:0:0:
402,192,135468,1,4,0:0:0:0:
109,192,135468,1,0,0:0:0:0:
36,192,135468,128,0,135936:0:0:0:0:
182,192,135624,1,0,0:0:0:0:
256,192,135780,1,8,0:0:0:0:
402,192,135780,1,0,0:0:0:0:
475,192,135780,128,0,135936:0:0:0:0:
109,192,135936,128,0,136405:0:0:0:0:
329,192,135936,1,0,0:0:0:0:
182,192,135936,1,0,0:0:0:0:
182,192,136093,1,0,0:0:0:0:
402,192,136093,1,0,0:0:0:0:
256,192,136249,1,0,0:0:0:0:
402,192,136405,128,0,136718:0:0:0:0:
329,192,136405,1,8,0:0:0:0:
475,192,136405,1,0,0:0:0:0:
36,192,136405,1,0,0:0:0:0:
182,192,136561,1,0,0:0:0:0:
256,192,136718,1,0,0:0:0:0:
109,192,136718,1,0,0:0:0:0:
329,192,136718,1,0,0:0:0:0:
182,192,136874,1,0,0:0:0:0:
36,192,136874,1,0,0:0:0:0:
256,192,137030,1,8,0:0:0:0:
402,192,137030,1,0,0:0:0:0:
109,192,137186,1,0,0:0:0:0:
329,192,137186,1,0,0:0:0:0:
475,192,137186,128,0,137655:0:0:0:0:
329,192,137343,1,0,0:0:0:0:
36,192,137343,1,0,0:0:0:0:
256,192,137499,1,0,0:0:0:0:
329,192,137655,1,8,0:0:0:0:
109,192,137655,1,0,0:0:0:0:
36,192,137655,128,0,137968:0:0:0:0:
182,192,137811,1,0,0:0:0:0:
256,192,137968,1,0,0:0:0:0:
475,192,137968,128,0,139218:0:0:0:0:
109,192,137968,1,0,0:0:0:0:
402,192,137968,1,0,0:0:0:0:
182,192,138124,1,0,0:0:0:0:
256,192,138280,128,0,138749:0:0:0:0:
402,192,138280,1,8,0:0:0:0:
109,192,138280,1,0,0:0:0:0:
182,192,138436,128,0,138749:0:0:0:0:
36,192,138436,1,0,0:0:0:0:
329,192,138436,1,0,0:0:0:0:
109,192,138593,1,0,0:0:0:0:
329,192,138749,1,0,0:0:0:0:
36,192,138749,128,0,139061:0:0:0:0:
402,192,138905,1,0,0:0:0:0:
109,192,138905,1,0,0:0:0:0:
182,192,139061,1,0,0:0:0:0:
256,192,139139,1,0,0:0:0:0:
329,192,139218,1,0,0:0:0:0:
109,192,139218,1,0,0:0:0:0:
402,192,139374,128,0,139530:0:0:0:0:
475,192,139374,1,0,0:0:0:0:
182,192,139374,1,0,0:0:0:0:
256,192,139530,128,0,139686:0:0:0:0:
329,192,139530,1,8,0:0:0:0:
36,192,139530,1,0,0:0:0:0:
109,192,139686,128,0,139843:0:0:0:0:
182,192,139686,1,0,0:0:0:0:
475,192,139843,128,0,139999:0:0:0:0:
402,192,139843,1,8,0:0:0:0:
36,192,139843,1,0,0:0:0:0:
329,192,139999,128,0,140155:0:0:0:0:
256,192,139999,1,8,0:0:0:0:
182,192,139999,1,0,0:0:0:0:
182,192,140155,128,0,140311:0:0:0:0:
109,192,140155,1,8,0:0:0:0:
402,192,140155,1,0,0:0:0:0:
475,192,140233,1,0,0:0:0:0:
36,192,140311,128,0,140468:0:0:0:0:
256,192,140311,1,8,0:0:0:0:
329,192,140389,1,0,0:0:0:0:
109,192,140468,1,0,0:0:0:0:
402,192,140468,1,4,0:0:0:0:
475,192,140468,128,0,140780:0:0:0:0:
182,192,140624,1,0,0:0:0:0:
36,192,140780,128,0,141093:0:0:0:0:
329,192,140780,1,8,0:0:0:0:
256,192,140780,1,0,0:0:0:0:
182,192,140936,128,0,141249:0:0:0:0:
402,192,140936,1,0,0:0:0:0:
109,192,141093,128,0,141405:0:0:0:0:
475,192,141093,1,0,0:0:0:0:
329,192,141093,1,0,0:0:0:0:
256,192,141249,128,0,141561:0:0:0:0:
402,192,141249,1,0,0:0:0:0:
329,192,141405,1,8,0:0:0:0:
36,192,141405,1,0,0:0:0:0:
475,192,141561,128,0,142030:0:0:0:0:
182,192,141561,1,0,0:0:0:0:
402,192,141561,1,0,0:0:0:0:
36,192,141718,1,0,0:0:0:0:
329,192,141718,1,0,0:0:0:0:
109,192,141874,1,0,0:0:0:0:
256,192,141874,1,0,0:0:0:0:
182,192,142030,1,0,0:0:0:0:
329,192,142030,1,8,0:0:0:0:
36,192,142030,1,0,0:0:0:0:
256,192,142186,1,0,0:0:0:0:
182,192,142343,1,0,0:0:0:0:
402,192,142343,1,0,0:0:0:0:
475,192,142343,1,0,0:0:0:0:
329,192,142499,1,0,0:0:0:0:
36,192,142499,1,0,0:0:0:0:
256,192,142655,1,8,0:0:0:0:
109,192,142655,1,0,0:0:0:0:
475,192,142811,128,0,144374:0:0:0:0:
402,192,142811,1,0,0:0:0:0:
182,192,142811,1,4,0:0:0:0:
36,192,142811,1,0,0:0:0:0:
109,192,143124,1,0,0:0:0:0:
329,192,143124,1,0,0:0:0:0:
182,192,143280,1,8,0:0:0:0:
36,192,143280,1,0,0:0:0:0:
402,192,143280,1,0,0:0:0:0:
329,192,143593,1,0,0:0:0:0:
256,192,143593,1,0,0:0:0:0:
402,192,143593,1,0,0:0:0:0:
109,192,143593,128,0,143905:0:0:0:0:
182,192,143905,1,0,0:0:0:0:
329,192,143905,1,8,0:0:0:0:
402,192,143905,1,0,0:0:0:0:
36,192,143905,128,0,144218:0:0:0:0:
109,192,144218,128,0,144530:0:0:0:0:
256,192,144218,1,0,0:0:0:0:
402,192,144218,1,0,0:0:0:0:
329,192,144374,1,0,0:0:0:0:
182,192,144530,1,8,0:0:0:0:
36,192,144530,1,0,0:0:0:0:
329,192,144686,1,0,0:0:0:0:
475,192,144843,1,0,0:0:0:0:
256,192,144843,1,0,0:0:0:0:
182,192,144999,1,0,0:0:0:0:
402,192,144999,1,0,0:0:0:0:
256,192,145077,1,0,0:0:0:0:
109,192,145155,1,0,0:0:0:0:
329,192,145155,1,0,0:0:0:0:
182,192,145233,1,0,0:0:0:0:
36,192,145311,1,0,0:0:0:0:
256,192,145311,1,0,0:0:0:0:
475,192,145389,1,0,0:0:0:0:
329,192,145468,1,0,0:0:0:0:
109,192,145468,1,0,0:0:0:0:
182,192,145468,1,0,0:0:0:0:
256,192,145546,1,0,0:0:0:0:
402,192,145624,1,0,0:0:0:0:
182,192,145702,1,0,0:0:0:0:
36,192,145780,1,0,0:0:0:0:
329,192,145780,1,0,0:0:0:0:
109,192,145936,1,0,0:0:0:0:
256,192,145936,1,0,0:0:0:0:
402,192,145936,1,8,0:0:0:0:
475,192,146014,1,0,0:0:0:0:
329,192,146093,1,0,0:0:0:0:
182,192,146171,1,0,0:0:0:0:
36,192,146249,1,0,0:0:0:0:
256,192,146249,1,0,0:0:0:0:
182,192,146405,1,0,0:0:0:0:
402,192,146405,1,0,0:0:0:0:
475,192,146405,1,8,0:0:0:0:
256,192,146483,1,0,0:0:0:0:
329,192,146561,1,0,0:0:0:0:
109,192,146639,1,0,0:0:0:0:
182,192,146718,1,0,0:0:0:0:
402,192,146718,1,0,0:0:0:0:
329,192,146796,1,0,0:0:0:0:
109,192,146874,1,0,0:0:0:0:
256,192,146952,1,0,0:0:0:0:
182,192,147030,1,8,0:0:0:0:
36,192,147030,1,0,0:0:0:0:
475,192,147030,1,0,0:0:0:0:
402,192,147108,1,0,0:0:0:0:
329,192,147186,1,0,0:0:0:0:
109,192,147264,1,0,0:0:0:0:
182,192,147343,1,0,0:0:0:0:
402,192,147343,1,8,0:0:0:0:
36,192,147343,1,0,0:0:0:0:
256,192,147343,1,0,0:0:0:0:
256,192,147655,128,0,147968:0:0:0:0:
36,192,147968,1,0,0:0:0:0:
182,192,147968,1,0,0:0:0:0:
329,192,147968,1,0,0:0:0:0:
402,192,147968,1,4,0:0:0:0:
256,192,148124,1,0,0:0:0:0:
109,192,148124,1,0,0:0:0:0:
329,192,148280,1,8,0:0:0:0:
36,192,148280,1,0,0:0:0:0:
182,192,148436,1,0,0:0:0:0:
475,192,148436,128,0,149374:0:0:0:0:
402,192,148436,128,0,148593:0:0:0:0:
109,192,148436,1,0,0:0:0:0:
256,192,148593,128,0,148749:0:0:0:0:
36,192,148593,1,0,0:0:0:0:
109,192,148749,128,0,148905:0:0:0:0:
402,192,148749,1,0,0:0:0:0:
36,192,148905,128,0,149061:0:0:0:0:
329,192,148905,1,8,0:0:0:0:
182,192,149061,128,0,149530:0:0:0:0:
402,192,149061,1,0,0:0:0:0:
256,192,149061,1,0,0:0:0:0:
109,192,149218,1,0,0:0:0:0:
329,192,149374,1,0,0:0:0:0:
402,192,149530,128,0,149843:0:0:0:0:
256,192,149530,1,8,0:0:0:0:
109,192,149530,1,0,0:0:0:0:
36,192,149530,1,0,0:0:0:0:
182,192,149686,1,0,0:0:0:0:
256,192,149843,128,0,150155:0:0:0:0:
109,192,149843,1,0,0:0:0:0:
36,192,149843,1,0,0:0:0:0:
329,192,149843,1,0,0:0:0:0:
402,192,149999,1,0,0:0:0:0:
36,192,150155,128,0,150468:0:0:0:0:
109,192,150155,1,0,0:0:0:0:
329,192,150155,1,8,0:0:0:0:
475,192,150155,1,0,0:0:0:0:
256,192,150311,1,0,0:0:0:0:
402,192,150468,128,0,150780:0:0:0:0:
475,192,150468,128,0,150780:0:0:0:0:
182,192,150468,1,0,0:0:0:0:
329,192,150468,1,0,0:0:0:0:
256,192,150624,1,0,0:0:0:0:
182,192,150780,1,8,0:0:0:0:
36,192,150780,1,0,0:0:0:0:
329,192,150780,128,0,151405:0:0:0:0:
256,192,150780,128,0,151093:0:0:0:0:
109,192,150936,1,0,0:0:0:0:
402,192,151093,128,0,151405:0:0:0:0:
182,192,151093,1,0,0:0:0:0:
36,192,151093,1,0,0:0:0:0:
109,192,151249,1,0,0:0:0:0:
475,192,151405,1,0,0:0:0:0:
182,192,151405,1,8,0:0:0:0:
256,192,151561,1,4,0:0:0:0:
36,192,151561,128,0,151718:0:0:0:0:
109,192,151561,1,0,0:0:0:0:
182,192,151718,1,0,0:0:0:0:
402,192,151718,1,0,0:0:0:0:
36,192,151874,1,0,0:0:0:0:
329,192,151874,1,0,0:0:0:0:
256,192,151874,1,0,0:0:0:0:
36,192,152030,1,0,0:0:0:0:
256,192,152030,1,8,0:0:0:0:
475,192,152030,1,0,0:0:0:0:
36,192,152186,1,0,0:0:0:0:
329,192,152186,1,0,0:0:0:0:
182,192,152186,1,0,0:0:0:0:
109,192,152343,1,0,0:0:0:0:
402,192,152343,1,0,0:0:0:0:
256,192,152343,1,0,0:0:0:0:
182,192,152499,1,8,0:0:0:0:
475,192,152499,1,0,0:0:0:0:
329,192,152655,1,0,0:0:0:0:
109,192,152655,1,8,0:0:0:0:
402,192,152655,1,0,0:0:0:0:
475,192,152811,128,0,154061:0:0:0:0:
256,192,152811,1,0,0:0:0:0:
182,192,152811,1,0,0:0:0:0:
36,192,152811,1,4,0:0:0:0:
329,192,152968,1,0,0:0:0:0:
109,192,153124,1,0,0:0:0:0:
256,192,153124,1,0,0:0:0:0:
182,192,153280,1,0,0:0:0:0:
402,192,153280,1,8,0:0:0:0:
329,192,153280,1,0,0:0:0:0:
256,192,153436,1,0,0:0:0:0:
182,192,153593,1,0,0:0:0:0:
402,192,153593,1,0,0:0:0:0:
109,192,153749,1,0,0:0:0:0:
402,192,153749,1,0,0:0:0:0:
36,192,153905,1,0,0:0:0:0:
402,192,153905,1,8,0:0:0:0:
329,192,154061,1,4,0:0:0:0:
109,192,154061,128,0,155155:0:0:0:0:
256,192,154061,1,0,0:0:0:0:
402,192,154218,1,0,0:0:0:0:
256,192,154374,1,0,0:0:0:0:
475,192,154374,1,0,0:0:0:0:
182,192,154530,1,0,0:0:0:0:
402,192,154530,1,8,0:0:0:0:
36,192,154530,128,0,154843:0:0:0:0:
256,192,154686,1,0,0:0:0:0:
182,192,154843,128,0,155468:0:0:0:0:
329,192,154843,1,0,0:0:0:0:
475,192,154843,1,0,0:0:0:0:
402,192,154999,1,0,0:0:0:0:
475,192,155155,128,0,155468:0:0:0:0:
36,192,155155,128,0,155468:0:0:0:0:
329,192,155155,1,8,0:0:0:0:
256,192,155155,1,0,0:0:0:0:
402,192,155311,1,0,0:0:0:0:
329,192,155468,1,0,0:0:0:0:
256,192,155468,1,0,0:0:0:0:
109,192,155468,128,0,156093:0:0:0:0:
402,192,155624,1,0,0:0:0:0:
36,192,155624,1,0,0:0:0:0:
182,192,155780,1,0,0:0:0:0:
256,192,155780,1,8,0:0:0:0:
475,192,155780,1,0,0:0:0:0:
402,192,155936,1,0,0:0:0:0:
329,192,155936,1,0,0:0:0:0:
36,192,156093,128,0,156561:0:0:0:0:
256,192,156093,1,0,0:0:0:0:
475,192,156093,1,0,0:0:0:0:
182,192,156093,1,0,0:0:0:0:
109,192,156249,1,0,0:0:0:0:
329,192,156249,1,0,0:0:0:0:
256,192,156405,1,8,0:0:0:0:
475,192,156405,1,0,0:0:0:0:
402,192,156405,1,0,0:0:0:0:
109,192,156561,1,0,0:0:0:0:
182,192,156561,1,0,0:0:0:0:
329,192,156561,1,4,0:0:0:0:
475,192,156561,128,0,157186:0:0:0:0:
256,192,156718,1,0,0:0:0:0:
402,192,156874,128,0,157186:0:0:0:0:
182,192,156874,1,0,0:0:0:0:
109,192,156952,1,0,0:0:0:0:
329,192,157030,128,0,157186:0:0:0:0:
256,192,157030,1,0,0:0:0:0:
36,192,157030,1,0,0:0:0:0:
109,192,157186,1,0,0:0:0:0:
182,192,157186,1,0,0:0:0:0:
256,192,157264,1,0,0:0:0:0:
36,192,157343,1,0,0:0:0:0:
329,192,157343,1,0,0:0:0:0:
402,192,157343,1,0,0:0:0:0:
475,192,157343,1,0,0:0:0:0:
402,192,157499,1,0,0:0:0:0:
475,192,157499,1,0,0:0:0:0:
109,192,157499,1,0,0:0:0:0:
475,192,157655,1,0,0:0:0:0:
182,192,157655,1,8,0:0:0:0:
109,192,157811,128,0,158202:0:0:0:0:
256,192,157811,1,4,0:0:0:0:
402,192,157811,1,0,0:0:0:0:
36,192,157811,128,0,159061:0:0:0:0:
329,192,157968,1,0,0:0:0:0:
256,192,158124,1,0,0:0:0:0:
402,192,158124,1,0,0:0:0:0:
182,192,158280,1,0,0:0:0:0:
329,192,158280,1,8,0:0:0:0:
109,192,158280,128,0,158593:0:0:0:0:
402,192,158436,1,0,0:0:0:0:
475,192,158593,128,0,158827:0:0:0:0:
329,192,158593,1,0,0:0:0:0:
182,192,158593,1,0,0:0:0:0:
256,192,158749,1,0,0:0:0:0:
475,192,158905,128,0,159061:0:0:0:0:
329,192,158905,1,8,0:0:0:0:
109,192,158905,1,0,0:0:0:0:
402,192,159061,128,0,159530:0:0:0:0:
182,192,159061,1,0,0:0:0:0:
256,192,159061,1,4,0:0:0:0:
109,192,159061,1,0,0:0:0:0:
329,192,159218,1,0,0:0:0:0:
36,192,159374,1,0,0:0:0:0:
329,192,159530,128,0,159843:0:0:0:0:
475,192,159530,128,0,160155:0:0:0:0:
256,192,159530,1,0,0:0:0:0:
109,192,159530,1,8,0:0:0:0:
182,192,159686,1,0,0:0:0:0:
256,192,159843,128,0,160155:0:0:0:0:
402,192,159843,1,0,0:0:0:0:
36,192,159843,1,0,0:0:0:0:
109,192,159999,1,0,0:0:0:0:
182,192,160155,128,0,160468:0:0:0:0:
329,192,160155,1,8,0:0:0:0:
36,192,160155,1,0,0:0:0:0:
402,192,160311,1,0,0:0:0:0:
36,192,160468,128,0,161093:0:0:0:0:
109,192,160468,1,0,0:0:0:0:
256,192,160468,1,0,0:0:0:0:
329,192,160468,1,4,0:0:0:0:
182,192,160624,1,0,0:0:0:0:
402,192,160624,1,0,0:0:0:0:
256,192,160780,1,0,0:0:0:0:
329,192,160780,1,0,0:0:0:0:
475,192,160780,1,8,0:0:0:0:
109,192,160936,1,0,0:0:0:0:
402,192,160936,1,0,0:0:0:0:
182,192,161093,128,0,161718:0:0:0:0:
329,192,161093,1,0,0:0:0:0:
256,192,161093,128,0,161249:0:0:0:0:
402,192,161249,128,0,161405:0:0:0:0:
475,192,161249,1,0,0:0:0:0:
36,192,161405,128,0,162343:0:0:0:0:
329,192,161405,1,8,0:0:0:0:
256,192,161405,128,0,161718:0:0:0:0:
402,192,161561,128,0,161718:0:0:0:0:
475,192,161561,1,0,0:0:0:0:
329,192,161718,1,0,0:0:0:0:
109,192,161718,1,0,0:0:0:0:
329,192,161874,1,0,0:0:0:0:
182,192,162030,1,0,0:0:0:0:
402,192,162030,1,8,0:0:0:0:
109,192,162030,1,0,0:0:0:0:
475,192,162186,1,0,0:0:0:0:
182,192,162186,1,0,0:0:0:0:
109,192,162343,1,0,0:0:0:0:
402,192,162343,1,0,0:0:0:0:
182,192,162421,1,0,0:0:0:0:
329,192,162421,1,0,0:0:0:0:
256,192,162499,1,0,0:0:0:0:
475,192,162499,1,0,0:0:0:0:
109,192,162577,1,0,0:0:0:0:
329,192,162577,1,0,0:0:0:0:
402,192,162655,1,0,0:0:0:0:
182,192,162655,1,0,0:0:0:0:
36,192,162733,1,0,0:0:0:0:
475,192,162733,1,0,0:0:0:0:
109,192,162811,1,0,0:0:0:0:
402,192,162811,1,0,0:0:0:0:
329,192,162889,1,0,0:0:0:0:
182,192,162889,1,0,0:0:0:0:
256,192,162968,1,4,0:0:0:0:
36,192,162968,1,0,0:0:0:0:
475,192,162968,1,0,0:0:0:0:
36,192,163124,1,0,0:0:0:0:
329,192,163124,1,0,0:0:0:0:
182,192,163280,1,0,0:0:0:0:
475,192,163280,1,8,0:0:0:0:
109,192,163436,1,0,0:0:0:0:
402,192,163436,1,0,0:0:0:0:
256,192,163436,1,0,0:0:0:0:
36,192,163593,1,0,0:0:0:0:
329,192,163593,1,0,0:0:0:0:
182,192,163749,1,0,0:0:0:0:
475,192,163749,1,0,0:0:0:0:
36,192,163905,1,0,0:0:0:0:
182,192,163905,1,8,0:0:0:0:
402,192,163905,1,0,0:0:0:0:
36,192,164061,1,0,0:0:0:0:
256,192,164061,1,0,0:0:0:0:
329,192,164218,1,0,0:0:0:0:
475,192,164218,1,0,0:0:0:0:
109,192,164218,1,0,0:0:0:0:
256,192,164374,1,0,0:0:0:0:
109,192,164374,1,0,0:0:0:0:
36,192,164530,1,0,0:0:0:0:
182,192,164530,1,8,0:0:0:0:
329,192,164530,1,0,0:0:0:0:
256,192,164686,1,0,0:0:0:0:
402,192,164686,1,0,0:0:0:0:
329,192,164843,1,0,0:0:0:0:
475,192,164843,1,0,0:0:0:0:
182,192,164843,128,0,165155:0:0:0:0:
402,192,164999,1,0,0:0:0:0:
109,192,165155,128,0,165468:0:0:0:0:
256,192,165155,1,0,0:0:0:0:
475,192,165155,1,8,0:0:0:0:
329,192,165311,1,0,0:0:0:0:
36,192,165468,128,0,166718:0:0:0:0:
182,192,165468,1,0,0:0:0:0:
475,192,165468,1,0,0:0:0:0:
402,192,165468,1,0,0:0:0:0:
329,192,165624,1,0,0:0:0:0:
182,192,165780,1,0,0:0:0:0:
109,192,165936,1,0,0:0:0:0:
402,192,166093,1,0,0:0:0:0:
182,192,166249,1,0,0:0:0:0:
329,192,166405,1,0,0:0:0:0:
256,192,166561,1,0,0:0:0:0:
475,192,166718,1,0,0:0:0:0:
329,192,166874,1,0,0:0:0:0:
182,192,166952,1,0,0:0:0:0:
36,192,167030,1,0,0:0:0:0:
256,192,167030,1,0,0:0:0:0:
109,192,167186,1,0,0:0:0:0:
256,192,167186,1,0,0:0:0:0:
329,192,167343,1,0,0:0:0:0:
182,192,167343,128,0,167499:0:0:0:0:
475,192,167343,1,0,0:0:0:0:
402,192,167499,1,0,0:0:0:0:
36,192,167499,128,0,167811:0:0:0:0:
256,192,167499,1,0,0:0:0:0:
329,192,167655,1,0,0:0:0:0:
109,192,167655,1,0,0:0:0:0:
402,192,167733,1,0,0:0:0:0:
475,192,167811,1,0,0:0:0:0:
256,192,167811,128,0,169843:0:0:0:0:
182,192,167811,1,0,0:0:0:0:
329,192,167968,1,0,0:0:0:0:
402,192,167968,1,4,0:0:0:0:
109,192,167968,128,0,168280:0:0:0:0:
182,192,168124,1,0,0:0:0:0:
402,192,168280,128,0,168593:0:0:0:0:
475,192,168280,1,0,0:0:0:0:
36,192,168280,1,0,0:0:0:0:
182,192,168436,1,0,0:0:0:0:
36,192,168593,128,0,168905:0:0:0:0:
109,192,168593,1,0,0:0:0:0:
329,192,168593,1,8,0:0:0:0:
402,192,168749,1,0,0:0:0:0:
182,192,168905,128,0,169843:0:0:0:0:
109,192,168905,1,0,0:0:0:0:
475,192,168905,1,0,0:0:0:0:
329,192,169061,1,0,0:0:0:0:
329,192,169218,128,0,169843:0:0:0:0:
109,192,169218,1,0,0:0:0:0:
109,192,169374,128,0,169843:0:0:0:0:
402,192,169374,1,0,0:0:0:0:
402,192,169530,128,0,169843:0:0:0:0:
36,192,169530,1,0,0:0:0:0:
36,192,169686,128,0,169843:0:0:0:0:
475,192,169843,1,8,0:0:0:0:
475,192,169999,1,8,0:0:0:0:
36,192,169999,1,0,0:0:0:0:
256,192,169999,1,0,0:0:0:0:
182,192,170468,128,0,171718:0:0:0:0:
329,192,170468,1,4,0:0:0:0:
109,192,170468,1,0,0:0:0:0:
475,192,170468,1,0,0:0:0:0:
402,192,170780,1,0,0:0:0:0:
36,192,171093,1,0,0:0:0:0:
402,192,171405,1,0,0:0:0:0:
256,192,171718,128,0,172343:0:0:0:0:
329,192,171718,1,0,0:0:0:0:
475,192,172030,1,0,0:0:0:0:
36,192,172343,1,0,0:0:0:0:
329,192,172343,128,0,172968:0:0:0:0:
182,192,172655,1,0,0:0:0:0:
109,192,172968,128,0,174530:0:0:0:0:
475,192,172968,1,0,0:0:0:0:
329,192,173280,1,0,0:0:0:0:
182,192,173593,1,0,0:0:0:0:
329,192,173905,1,0,0:0:0:0:
402,192,174218,1,0,0:0:0:0:
329,192,174530,128,0,175155:0:0:0:0:
182,192,174530,128,0,174843:0:0:0:0:
475,192,174530,1,0,0:0:0:0:
109,192,174843,128,0,175155:0:0:0:0:
402,192,174843,1,0,0:0:0:0:
256,192,175155,128,0,175468:0:0:0:0:
36,192,175155,128,0,175468:0:0:0:0:
475,192,175155,1,0,0:0:0:0:
182,192,175468,128,0,175936:0:0:0:0:
475,192,175468,1,0,0:0:0:0:
402,192,175468,1,0,0:0:0:0:
109,192,175468,128,0,176405:0:0:0:0:
329,192,175780,1,0,0:0:0:0:
36,192,175936,128,0,176718:0:0:0:0:
256,192,176093,1,0,0:0:0:0:
475,192,176405,128,0,177968:0:0:0:0:
329,192,176405,1,0,0:0:0:0:
109,192,176718,1,0,0:0:0:0:
402,192,177030,1,0,0:0:0:0:
256,192,177343,1,0,0:0:0:0:
182,192,177655,1,0,0:0:0:0:
329,192,177968,128,0,180155:0:0:0:0:
256,192,177968,1,0,0:0:0:0:
182,192,178280,1,0,0:0:0:0:
36,192,178593,1,0,0:0:0:0:
109,192,178905,1,0,0:0:0:0:
475,192,179218,128,0,180468:0:0:0:0:
182,192,179218,1,0,0:0:0:0:
109,192,179530,1,0,0:0:0:0:
36,192,179843,1,0,0:0:0:0:
256,192,180155,1,0,0:0:0:0:
182,192,180311,1,0,0:0:0:0:
36,192,180468,1,4,0:0:0:0:
109,192,180468,1,0,0:0:0:0:
329,192,180468,128,0,181718:0:0:0:0:
402,192,180468,1,0,0:0:0:0:
182,192,180780,1,0,0:0:0:0:
36,192,181093,1,0,0:0:0:0:
256,192,181405,128,0,181718:0:0:0:0:
182,192,181405,1,0,0:0:0:0:
475,192,181718,128,0,182968:0:0:0:0:
109,192,181718,1,0,0:0:0:0:
182,192,182030,1,0,0:0:0:0:
256,192,182186,128,0,183436:0:0:0:0:
109,192,182343,1,0,0:0:0:0:
36,192,182655,128,0,183905:0:0:0:0:
182,192,182655,1,0,0:0:0:0:
402,192,182968,128,0,184061:0:0:0:0:
109,192,182968,1,0,0:0:0:0:
182,192,183280,1,0,0:0:0:0:
329,192,183436,128,0,185155:0:0:0:0:
109,192,183593,1,0,0:0:0:0:
109,192,183905,128,0,184061:0:0:0:0:
256,192,183905,1,0,0:0:0:0:
182,192,184061,128,0,185468:0:0:0:0:
475,192,184061,128,0,185155:0:0:0:0:
36,192,184218,1,0,0:0:0:0:
109,192,184530,1,0,0:0:0:0:
36,192,184843,1,0,0:0:0:0:
402,192,185155,128,0,185468:0:0:0:0:
256,192,185155,1,0,0:0:0:0:
329,192,185468,128,0,186405:0:0:0:0:
36,192,185468,128,0,190468:0:0:0:0:
109,192,185468,1,0,0:0:0:0:
256,192,185780,1,0,0:0:0:0:
475,192,186093,1,0,0:0:0:0:
256,192,186405,128,0,186718:0:0:0:0:
402,192,186405,1,0,0:0:0:0:
329,192,186718,128,0,188905:0:0:0:0:
109,192,186718,1,0,0:0:0:0:
182,192,187030,1,0,0:0:0:0:
256,192,187343,1,0,0:0:0:0:
182,192,187499,1,0,0:0:0:0:
475,192,187655,1,0,0:0:0:0:
402,192,187811,1,0,0:0:0:0:
256,192,187968,1,0,0:0:0:0:
109,192,188280,1,0,0:0:0:0:
182,192,188593,1,0,0:0:0:0:
402,192,188905,128,0,189218:0:0:0:0:
256,192,188905,1,0,0:0:0:0:
256,192,189218,128,0,190468:0:0:0:0:
475,192,189218,1,8,0:0:0:0:
109,192,189218,1,0,0:0:0:0:
182,192,189296,1,0,0:0:0:0:
329,192,189374,1,0,0:0:0:0:
475,192,189452,1,0,0:0:0:0:
182,192,189530,1,0,0:0:0:0:
402,192,189608,1,0,0:0:0:0:
109,192,189686,1,0,0:0:0:0:
182,192,189764,1,0,0:0:0:0:
475,192,189843,1,0,0:0:0:0:
402,192,189843,1,0,0:0:0:0:
329,192,189921,1,0,0:0:0:0:
182,192,189999,1,0,0:0:0:0:
402,192,190077,1,0,0:0:0:0:
475,192,190155,1,0,0:0:0:0:
109,192,190155,1,0,0:0:0:0:
182,192,190233,1,0,0:0:0:0:
329,192,190233,1,0,0:0:0:0:
402,192,190311,1,0,0:0:0:0:
109,192,190311,1,0,0:0:0:0:
329,192,190389,1,0,0:0:0:0:
182,192,190389,1,0,0:0:0:0:
475,192,190468,1,0,0:0:0:0:
402,192,190468,1,0,0:0:0:0:
109,192,190468,128,0,190520:0:0:0:0:
182,192,190520,128,0,190572:0:0:0:0:
329,192,190572,128,0,190624:0:0:0:0:
475,192,190624,128,0,190676:0:0:0:0:
402,192,190676,128,0,190728:0:0:0:0:
109,192,190728,128,0,190780:0:0:0:0:
329,192,190780,1,8,0:0:0:0:
36,192,190780,128,0,190832:0:0:0:0:
182,192,190832,128,0,190884:0:0:0:0:
256,192,190884,128,0,190936:0:0:0:0:
402,192,190936,128,0,190988:0:0:0:0:
36,192,190936,1,0,0:0:0:0:
109,192,190988,128,0,191040:0:0:0:0:
182,192,191040,128,0,191093:0:0:0:0:
329,192,191093,128,0,191145:0:0:0:0:
475,192,191145,128,0,191197:0:0:0:0:
256,192,191197,128,0,191249:0:0:0:0:
109,192,191249,128,0,191301:0:0:0:0:
402,192,191249,1,0,0:0:0:0:
36,192,191301,128,0,191353:0:0:0:0:
182,192,191353,128,0,191405:0:0:0:0:
329,192,191405,128,0,191457:0:0:0:0:
475,192,191405,1,8,0:0:0:0:
109,192,191457,128,0,191509:0:0:0:0:
256,192,191509,128,0,191561:0:0:0:0:
402,192,191561,128,0,191613:0:0:0:0:
475,192,191613,128,0,191665:0:0:0:0:
182,192,191665,128,0,191718:0:0:0:0:
109,192,191718,128,0,191770:0:0:0:0:
329,192,191718,1,0,0:0:0:0:
36,192,191770,128,0,191822:0:0:0:0:
182,192,191822,128,0,191874:0:0:0:0:
256,192,191874,128,0,191926:0:0:0:0:
402,192,191926,128,0,191978:0:0:0:0:
329,192,191978,128,0,192030:0:0:0:0:
109,192,192030,128,0,192082:0:0:0:0:
36,192,192030,1,8,0:0:0:0:
475,192,192082,128,0,192134:0:0:0:0:
256,192,192134,128,0,192186:0:0:0:0:
182,192,192186,128,0,192238:0:0:0:0:
402,192,192186,1,0,0:0:0:0:
36,192,192238,128,0,192290:0:0:0:0:
109,192,192290,128,0,192343:0:0:0:0:
329,192,192343,128,0,192395:0:0:0:0:
402,192,192395,128,0,192447:0:0:0:0:
256,192,192447,128,0,192499:0:0:0:0:
109,192,192499,128,0,192551:0:0:0:0:
475,192,192499,1,0,0:0:0:0:
402,192,192551,128,0,192603:0:0:0:0:
182,192,192603,128,0,192655:0:0:0:0:
36,192,192655,128,0,192707:0:0:0:0:
329,192,192655,1,8,0:0:0:0:
256,192,192707,128,0,192759:0:0:0:0:
475,192,192759,128,0,192811:0:0:0:0:
329,192,192811,128,0,192863:0:0:0:0:
182,192,192863,128,0,192915:0:0:0:0:
109,192,192915,128,0,192968:0:0:0:0:
36,192,192968,128,0,193905:0:0:0:0:
329,192,192968,1,0,0:0:0:0:
256,192,192968,1,0,0:0:0:0:
475,192,192968,1,0,0:0:0:0:
329,192,193124,1,0,0:0:0:0:
475,192,193124,1,0,0:0:0:0:
182,192,193280,1,8,0:0:0:0:
109,192,193280,1,0,0:0:0:0:
402,192,193280,1,0,0:0:0:0:
256,192,193436,1,0,0:0:0:0:
475,192,193436,1,0,0:0:0:0:
329,192,193436,1,0,0:0:0:0:
329,192,193749,1,0,0:0:0:0:
475,192,193749,1,0,0:0:0:0:
402,192,193905,1,8,0:0:0:0:
256,192,193905,1,0,0:0:0:0:
109,192,193905,1,0,0:0:0:0:
182,192,193905,128,0,194686:0:0:0:0:
329,192,194061,1,0,0:0:0:0:
36,192,194218,1,0,0:0:0:0:
402,192,194218,1,0,0:0:0:0:
475,192,194218,1,0,0:0:0:0:
475,192,194374,1,0,0:0:0:0:
36,192,194374,1,0,0:0:0:0:
329,192,194530,1,0,0:0:0:0:
402,192,194530,1,8,0:0:0:0:
256,192,194686,128,0,195468:0:0:0:0:
36,192,194686,1,0,0:0:0:0:
109,192,194686,1,0,0:0:0:0:
329,192,194999,1,0,0:0:0:0:
402,192,194999,1,0,0:0:0:0:
475,192,194999,1,0,0:0:0:0:
182,192,195155,1,0,0:0:0:0:
109,192,195155,1,0,0:0:0:0:
36,192,195155,1,8,0:0:0:0:
182,192,195311,1,0,0:0:0:0:
329,192,195311,1,0,0:0:0:0:
402,192,195311,1,8,0:0:0:0:
36,192,195468,128,0,195624:0:0:0:0:
475,192,195468,1,4,0:0:0:0:
109,192,195468,1,0,0:0:0:0:
329,192,195468,1,0,0:0:0:0:
109,192,195624,128,0,195780:0:0:0:0:
402,192,195624,1,0,0:0:0:0:
182,192,195780,128,0,195936:0:0:0:0:
329,192,195780,1,8,0:0:0:0:
256,192,195936,128,0,196093:0:0:0:0:
402,192,195936,1,0,0:0:0:0:
36,192,195936,1,0,0:0:0:0:
475,192,196093,128,0,196561:0:0:0:0:
36,192,196249,1,0,0:0:0:0:
256,192,196249,1,0,0:0:0:0:
182,192,196405,1,8,0:0:0:0:
329,192,196405,1,0,0:0:0:0:
402,192,196561,128,0,196718:0:0:0:0:
329,192,196718,128,0,197030:0:0:0:0:
182,192,196718,1,0,0:0:0:0:
36,192,196718,1,0,0:0:0:0:
109,192,196874,1,0,0:0:0:0:
256,192,197030,128,0,197186:0:0:0:0:
475,192,197030,1,8,0:0:0:0:
109,192,197186,128,0,197343:0:0:0:0:
402,192,197186,1,0,0:0:0:0:
36,192,197186,1,0,0:0:0:0:
182,192,197343,128,0,197655:0:0:0:0:
36,192,197499,1,0,0:0:0:0:
329,192,197499,1,0,0:0:0:0:
402,192,197655,1,8,0:0:0:0:
109,192,197655,1,0,0:0:0:0:
329,192,197811,1,0,0:0:0:0:
256,192,197968,128,0,198593:0:0:0:0:
36,192,197968,1,0,0:0:0:0:
109,192,197968,1,0,0:0:0:0:
475,192,197968,1,4,0:0:0:0:
182,192,198124,1,0,0:0:0:0:
402,192,198280,1,8,0:0:0:0:
109,192,198436,1,0,0:0:0:0:
329,192,198436,1,0,0:0:0:0:
36,192,198593,128,0,198749:0:0:0:0:
109,192,198749,128,0,198905:0:0:0:0:
329,192,198749,1,0,0:0:0:0:
182,192,198905,128,0,199061:0:0:0:0:
256,192,198905,1,0,0:0:0:0:
475,192,198905,1,8,0:0:0:0:
329,192,199061,128,0,199218:0:0:0:0:
36,192,199218,128,0,199452:0:0:0:0:
109,192,199218,1,4,0:0:0:0:
402,192,199218,1,0,0:0:0:0:
402,192,199374,1,0,0:0:0:0:
256,192,199452,128,0,199608:0:0:0:0:
182,192,199530,1,0,0:0:0:0:
109,192,199569,1,0,0:0:0:0:
402,192,199608,128,0,199764:0:0:0:0:
36,192,199608,1,0,0:0:0:0:
109,192,199686,1,0,0:0:0:0:
256,192,199764,128,0,199921:0:0:0:0:
36,192,199843,1,0,0:0:0:0:
182,192,199843,1,4,0:0:0:0:
475,192,199921,128,0,200077:0:0:0:0:
329,192,199999,1,0,0:0:0:0:
182,192,200077,128,0,200233:0:0:0:0:
36,192,200155,1,8,0:0:0:0:
329,192,200233,128,0,200389:0:0:0:0:
256,192,200389,128,0,200546:0:0:0:0:
36,192,200468,1,4,0:0:0:0:
109,192,200468,1,0,0:0:0:0:
402,192,200546,128,0,201327:0:0:0:0:
109,192,200780,1,0,0:0:0:0:
256,192,200780,1,8,0:0:0:0:
36,192,200936,1,0,0:0:0:0:
182,192,200936,1,0,0:0:0:0:
36,192,201249,1,0,0:0:0:0:
182,192,201249,1,0,0:0:0:0:
329,192,201327,128,0,201405:0:0:0:0:
475,192,201405,128,0,201561:0:0:0:0:
109,192,201405,1,0,0:0:0:0:
256,192,201405,1,8,0:0:0:0:
402,192,201561,128,0,201639:0:0:0:0:
36,192,201561,1,0,0:0:0:0:
256,192,201639,128,0,201718:0:0:0:0:
109,192,201718,1,0,0:0:0:0:
182,192,201718,1,0,0:0:0:0:
329,192,201796,128,0,201952:0:0:0:0:
402,192,201952,128,0,202577:0:0:0:0:
256,192,202030,1,0,0:0:0:0:
182,192,202030,1,8,0:0:0:0:
36,192,202186,1,0,0:0:0:0:
109,192,202186,1,0,0:0:0:0:
36,192,202499,1,0,0:0:0:0:
109,192,202499,1,0,0:0:0:0:
256,192,202577,128,0,202655:0:0:0:0:
475,192,202655,128,0,202811:0:0:0:0:
182,192,202655,1,0,0:0:0:0:
109,192,202733,1,0,0:0:0:0:
329,192,202811,128,0,202968:0:0:0:0:
36,192,202811,1,0,0:0:0:0:
182,192,202968,128,0,203124:0:0:0:0:
109,192,202968,1,0,0:0:0:0:
402,192,202968,1,0,0:0:0:0:
256,192,203124,128,0,203202:0:0:0:0:
182,192,203202,1,0,0:0:0:0:
109,192,203241,1,0,0:0:0:0:
36,192,203280,128,0,203593:0:0:0:0:
475,192,203280,1,8,0:0:0:0:
182,192,203384,1,0,0:0:0:0:
109,192,203436,128,0,203593:0:0:0:0:
329,192,203436,1,0,0:0:0:0:
256,192,203540,1,0,0:0:0:0:
475,192,203593,128,0,203632:0:0:0:0:
402,192,203632,128,0,203671:0:0:0:0:
329,192,203671,128,0,203710:0:0:0:0:
256,192,203710,128,0,203749:0:0:0:0:
182,192,203749,128,0,203827:0:0:0:0:
36,192,203749,1,0,0:0:0:0:
402,192,203827,128,0,203905:0:0:0:0:
256,192,203905,128,0,203964:0:0:0:0:
475,192,203905,1,8,0:0:0:0:
109,192,203964,128,0,204061:0:0:0:0:
182,192,204061,128,0,204139:0:0:0:0:
109,192,204139,128,0,204178:0:0:0:0:
36,192,204178,128,0,204218:0:0:0:0:
402,192,204218,128,0,204270:0:0:0:0:
329,192,204218,1,0,0:0:0:0:
256,192,204270,128,0,204322:0:0:0:0:
182,192,204322,128,0,204374:0:0:0:0:
36,192,204374,128,0,204426:0:0:0:0:
402,192,204426,128,0,204478:0:0:0:0:
109,192,204478,128,0,204530:0:0:0:0:
329,192,204530,128,0,204582:0:0:0:0:
256,192,204530,1,0,0:0:0:0:
475,192,204582,128,0,204634:0:0:0:0:
182,192,204634,128,0,204686:0:0:0:0:
329,192,204686,128,0,204738:0:0:0:0:
36,192,204686,1,8,0:0:0:0:
109,192,204738,128,0,204790:0:0:0:0:
402,192,204790,128,0,204843:0:0:0:0:
256,192,204843,128,0,204895:0:0:0:0:
182,192,204895,128,0,204947:0:0:0:0:
36,192,204947,128,0,204999:0:0:0:0:
475,192,204999,128,0,205051:0:0:0:0:
109,192,204999,1,0,0:0:0:0:
402,192,205051,128,0,205103:0:0:0:0:
182,192,205103,128,0,205155:0:0:0:0:
36,192,205155,128,0,205207:0:0:0:0:
329,192,205155,1,8,0:0:0:0:
256,192,205207,128,0,205259:0:0:0:0:
329,192,205259,128,0,205311:0:0:0:0:
109,192,205311,128,0,205363:0:0:0:0:
402,192,205363,128,0,205415:0:0:0:0:
256,192,205415,128,0,205468:0:0:0:0:
36,192,205468,128,0,205936:0:0:0:0:
475,192,205468,1,0,0:0:0:0:
182,192,205468,1,4,0:0:0:0:
402,192,205624,1,0,0:0:0:0:
329,192,205780,1,8,0:0:0:0:
256,192,205936,1,0,0:0:0:0:
109,192,205936,1,0,0:0:0:0:
475,192,205936,128,0,206405:0:0:0:0:
36,192,206249,1,0,0:0:0:0:
109,192,206249,1,0,0:0:0:0:
182,192,206405,1,8,0:0:0:0:
256,192,206405,1,0,0:0:0:0:
329,192,206405,128,0,206874:0:0:0:0:
109,192,206718,1,0,0:0:0:0:
256,192,206718,1,0,0:0:0:0:
475,192,206874,128,0,207343:0:0:0:0:
256,192,207030,1,8,0:0:0:0:
402,192,207030,1,0,0:0:0:0:
36,192,207186,1,0,0:0:0:0:
182,192,207186,1,0,0:0:0:0:
109,192,207343,128,0,207968:0:0:0:0:
256,192,207499,1,8,0:0:0:0:
475,192,207499,1,0,0:0:0:0:
256,192,207655,1,8,0:0:0:0:
402,192,207655,1,0,0:0:0:0:
256,192,207811,1,8,0:0:0:0:
329,192,207811,1,0,0:0:0:0:
256,192,207968,128,0,209843:0:0:0:0:
36,192,207968,1,4,0:0:0:0:
475,192,207968,128,0,208124:0:0:0:0:
182,192,208124,1,0,0:0:0:0:
402,192,208124,128,0,208280:0:0:0:0:
109,192,208280,1,8,0:0:0:0:
329,192,208280,128,0,208436:0:0:0:0:
36,192,208436,1,0,0:0:0:0:
182,192,208436,128,0,208593:0:0:0:0:
475,192,208593,1,0,0:0:0:0:
402,192,208749,1,0,0:0:0:0:
109,192,208749,1,0,0:0:0:0:
36,192,208905,1,0,0:0:0:0:
329,192,208905,1,8,0:0:0:0:
402,192,209061,1,0,0:0:0:0:
109,192,209218,128,0,209374:0:0:0:0:
475,192,209218,1,0,0:0:0:0:
36,192,209374,128,0,209530:0:0:0:0:
329,192,209374,1,0,0:0:0:0:
402,192,209530,128,0,209686:0:0:0:0:
182,192,209530,1,8,0:0:0:0:
36,192,209686,1,0,0:0:0:0:
109,192,209764,1,0,0:0:0:0:
329,192,209843,128,0,210311:0:0:0:0:
475,192,209843,1,0,0:0:0:0:
182,192,209843,1,4,0:0:0:0:
109,192,209999,1,0,0:0:0:0:
402,192,209999,1,0,0:0:0:0:
256,192,210155,1,4,0:0:0:0:
475,192,210155,1,8,0:0:0:0:
402,192,210233,1,0,0:0:0:0:
109,192,210311,1,0,0:0:0:0:
182,192,210311,128,0,210624:0:0:0:0:
36,192,210389,1,0,0:0:0:0:
402,192,210468,1,0,0:0:0:0:
475,192,210468,1,4,0:0:0:0:
256,192,210468,1,0,0:0:0:0:
256,192,210624,128,0,212264:0:0:0:0:
402,192,210624,1,0,0:0:0:0:
475,192,210624,1,0,0:0:0:0:
329,192,210780,1,8,0:0:0:0:
109,192,210780,1,0,0:0:0:0:
182,192,210936,1,0,0:0:0:0:
475,192,210936,1,0,0:0:0:0:
109,192,211249,1,0,0:0:0:0:
329,192,211249,1,0,0:0:0:0:
182,192,211405,1,0,0:0:0:0:
402,192,211405,1,8,0:0:0:0:
475,192,211405,1,4,0:0:0:0:
109,192,211718,1,0,0:0:0:0:
402,192,211718,1,0,0:0:0:0:
182,192,211874,1,4,0:0:0:0:
36,192,211874,1,0,0:0:0:0:
329,192,211874,1,8,0:0:0:0:
475,192,212186,1,0,0:0:0:0:
109,192,212186,1,0,0:0:0:0:
182,192,212264,128,0,212343:0:0:0:0:
109,192,212343,128,0,212421:0:0:0:0:
402,192,212343,1,0,0:0:0:0:
36,192,212421,128,0,212499:0:0:0:0:
329,192,212421,1,0,0:0:0:0:
475,192,212499,128,0,212577:0:0:0:0:
256,192,212499,1,0,0:0:0:0:
402,192,212577,128,0,212655:0:0:0:0:
182,192,212577,1,0,0:0:0:0:
329,192,212655,128,0,212733:0:0:0:0:
109,192,212655,1,0,0:0:0:0:
256,192,212733,128,0,212811:0:0:0:0:
36,192,212733,1,0,0:0:0:0:
182,192,212811,128,0,212889:0:0:0:0:
475,192,212811,1,0,0:0:0:0:
109,192,212889,128,0,212968:0:0:0:0:
402,192,212889,1,0,0:0:0:0:
182,192,212968,128,0,214218:0:0:0:0:
329,192,212968,1,0,0:0:0:0:
36,192,212968,1,0,0:0:0:0:
36,192,214218,1,0,0:0:0:0:
256,192,214843,1,0,0:0:0:0:
475,192,215468,1,0,0:0:0:0:
36,192,215468,1,0,0:0:0:0:
182,192,215468,1,0,0:0:0:0:
475,192,217968,5,0,0:0:0:0:
329,192,218362,5,0,0:0:0:0:
256,192,218691,1,0,0:0:0:0:
109,192,219020,1,0,0:0:0:0:
402,192,219349,1,0,0:0:0:0:
256,192,219645,1,0,0:0:0:0:
182,192,220007,1,0,0:0:0:0:
109,192,220336,1,0,0:0:0:0:
36,192,220766,1,0,0:0:0:0:
182,192,220766,1,0,0:0:0:0:
256,192,220766,1,0,0:0:0:0:
475,192,220766,1,0,0:0:0:0:
475,192,221555,1,0,0:0:0:0:
182,192,221555,1,0,0:0:0:0:
329,192,221555,1,0,0:0:0:0:
109,192,221950,1,0,0:0:0:0:
36,192,222344,1,0,0:0:0:0:
329,192,222344,1,0,0:0:0:0:
475,192,222344,1,0,0:0:0:0:
256,192,222344,1,0,0:0:0:0:
475,192,223134,1,0,0:0:0:0:
256,192,223134,1,0,0:0:0:0:
109,192,223134,1,0,0:0:0:0:
329,192,223529,1,0,0:0:0:0:
402,192,223923,1,0,0:0:0:0:
182,192,223923,1,0,0:0:0:0:
36,192,223923,1,0,0:0:0:0:
256,192,223923,1,0,0:0:0:0:
402,192,224713,1,0,0:0:0:0:
256,192,224713,1,0,0:0:0:0:
109,192,224713,1,0,0:0:0:0:
182,192,225108,1,0,0:0:0:0:
475,192,225502,1,0,0:0:0:0:
256,192,225502,1,0,0:0:0:0:
329,192,225502,1,0,0:0:0:0:
36,192,225502,1,0,0:0:0:0:
402,192,226292,1,0,0:0:0:0:
256,192,226292,1,0,0:0:0:0:
182,192,226292,1,0,0:0:0:0:
36,192,227081,1,0,0:0:0:0:
109,192,227081,1,0,0:0:0:0:
256,192,227081,1,0,0:0:0:0:
329,192,227081,1,0,0:0:0:0:
329,192,227871,1,0,0:0:0:0:
475,192,227871,1,0,0:0:0:0:
182,192,227871,1,0,0:0:0:0:
256,192,228266,1,0,0:0:0:0:
256,192,228660,1,0,0:0:0:0:
182,192,228660,1,0,0:0:0:0:
36,192,228660,1,0,0:0:0:0:
475,192,228660,1,0,0:0:0:0:
329,192,229450,1,0,0:0:0:0:
475,192,229450,1,0,0:0:0:0:
109,192,229450,1,0,0:0:0:0:
182,192,229844,1,0,0:0:0:0:
256,192,230239,1,0,0:0:0:0:
475,192,230239,1,0,0:0:0:0:
36,192,230239,1,0,0:0:0:0:
402,192,230239,1,0,0:0:0:0:
36,192,231423,1,0,0:0:0:0:
109,192,231818,1,0,0:0:0:0:
475,192,231818,1,0,0:0:0:0:
256,192,231818,1,0,0:0:0:0:
36,192,231818,1,0,0:0:0:0:
402,192,232016,1,0,0:0:0:0:
329,192,232213,1,0,0:0:0:0:
182,192,232213,1,0,0:0:0:0:
256,192,232608,1,0,0:0:0:0:
109,192,232608,1,0,0:0:0:0:
182,192,233002,1,0,0:0:0:0:
36,192,233002,1,0,0:0:0:0:
36,192,233397,1,0,0:0:0:0:
182,192,233397,1,0,0:0:0:0:
256,192,233397,1,0,0:0:0:0:
475,192,233397,1,0,0:0:0:0:
109,192,234187,1,0,0:0:0:0:
402,192,234187,1,0,0:0:0:0:
256,192,234187,1,0,0:0:0:0:
182,192,234581,1,0,0:0:0:0:
475,192,234976,1,0,0:0:0:0:
36,192,234976,1,0,0:0:0:0:
402,192,234976,1,0,0:0:0:0:
256,192,234976,1,0,0:0:0:0:
256,192,235766,1,0,0:0:0:0:
36,192,235766,1,0,0:0:0:0:
402,192,235766,1,0,0:0:0:0:
109,192,236160,1,0,0:0:0:0:
36,192,236555,1,0,0:0:0:0:
182,192,236555,1,0,0:0:0:0:
256,192,236555,1,0,0:0:0:0:
475,192,236555,1,0,0:0:0:0:
109,192,237344,1,0,0:0:0:0:
256,192,237344,1,0,0:0:0:0:
329,192,237344,1,0,0:0:0:0:
182,192,237739,1,0,0:0:0:0:
256,192,238134,1,0,0:0:0:0:
475,192,238134,1,0,0:0:0:0:
36,192,238923,1,0,0:0:0:0:
36,192,239713,1,0,0:0:0:0:
256,192,239713,1,0,0:0:0:0:
402,192,239713,1,0,0:0:0:0:
109,192,240502,1,0,0:0:0:0:
36,192,240897,1,0,0:0:0:0:
256,192,240897,1,0,0:0:0:0:
402,192,240897,1,0,0:0:0:0:
109,192,242081,1,0,0:0:0:0:
182,192,242476,1,0,0:0:0:0:
36,192,242871,1,0,0:0:0:0:
256,192,242871,1,0,0:0:0:0:
402,192,242871,1,0,0:0:0:0:
256,192,243660,1,0,0:0:0:0:
402,192,243660,1,0,0:0:0:0:
475,192,244450,1,0,0:0:0:0:
402,192,244450,1,0,0:0:0:0:
256,192,244450,1,0,0:0:0:0:
109,192,244450,1,0,0:0:0:0:
475,192,246029,1,0,0:0:0:0:
402,192,246029,1,0,0:0:0:0:
329,192,246029,1,0,0:0:0:0:
182,192,246029,1,0,0:0:0:0:
329,192,248981,128,0,249606:0:0:0:0:
475,192,248981,1,0,0:0:0:0:
402,192,248981,1,0,0:0:0:0:
36,192,248981,1,0,0:0:0:0:
109,192,248981,1,0,0:0:0:0:
182,192,248981,1,4,0:0:0:0:
256,192,249137,1,0,0:0:0:0:
182,192,249293,1,0,0:0:0:0:
36,192,249293,1,0,0:0:0:0:
475,192,249293,1,8,0:0:0:0:
256,192,249449,1,0,0:0:0:0:
182,192,249606,128,0,249840:0:0:0:0:
475,192,249606,1,0,0:0:0:0:
402,192,249606,1,0,0:0:0:0:
36,192,249762,128,0,249918:0:0:0:0:
329,192,249762,1,0,0:0:0:0:
182,192,249918,1,0,0:0:0:0:
256,192,249918,1,0,0:0:0:0:
475,192,249918,1,8,0:0:0:0:
402,192,249918,1,0,0:0:0:0:
256,192,250074,128,0,250543:0:0:0:0:
329,192,250074,1,4,0:0:0:0:
36,192,250074,1,0,0:0:0:0:
109,192,250074,1,0,0:0:0:0:
402,192,250074,1,0,0:0:0:0:
182,192,250231,1,0,0:0:0:0:
402,192,250387,1,0,0:0:0:0:
109,192,250387,1,0,0:0:0:0:
329,192,250543,128,0,250856:0:0:0:0:
36,192,250543,1,0,0:0:0:0:
475,192,250543,1,8,0:0:0:0:
182,192,250543,1,0,0:0:0:0:
256,192,250621,128,0,250934:0:0:0:0:
182,192,250699,128,0,251012:0:0:0:0:
402,192,250699,1,0,0:0:0:0:
475,192,250856,128,0,251168:0:0:0:0:
36,192,250856,1,0,0:0:0:0:
109,192,250856,1,0,0:0:0:0:
402,192,251012,128,0,251168:0:0:0:0:
329,192,251012,1,0,0:0:0:0:
256,192,251168,1,0,0:0:0:0:
109,192,251168,1,0,0:0:0:0:
36,192,251168,1,8,0:0:0:0:
182,192,251168,128,0,251481:0:0:0:0:
256,192,251324,128,0,251481:0:0:0:0:
329,192,251324,1,0,0:0:0:0:
329,192,251481,128,0,252106:0:0:0:0:
475,192,251481,1,4,0:0:0:0:
36,192,251481,1,0,0:0:0:0:
402,192,251481,1,0,0:0:0:0:
256,192,251637,1,0,0:0:0:0:
36,192,251793,1,0,0:0:0:0:
182,192,251793,1,8,0:0:0:0:
475,192,251793,1,0,0:0:0:0:
109,192,251949,128,0,252106:0:0:0:0:
402,192,251949,1,0,0:0:0:0:
182,192,252027,128,0,252184:0:0:0:0:
256,192,252106,128,0,252418:0:0:0:0:
475,192,252106,1,0,0:0:0:0:
36,192,252106,1,0,0:0:0:0:
329,192,252262,128,0,252418:0:0:0:0:
182,192,252262,1,0,0:0:0:0:
36,192,252418,1,0,0:0:0:0:
475,192,252418,1,0,0:0:0:0:
402,192,252418,1,8,0:0:0:0:
109,192,252418,1,0,0:0:0:0:
402,192,252574,128,0,253356:0:0:0:0:
256,192,252574,1,0,0:0:0:0:
475,192,252574,1,4,0:0:0:0:
182,192,252574,1,0,0:0:0:0:
36,192,252574,1,0,0:0:0:0:
109,192,252731,1,0,0:0:0:0:
329,192,252887,1,0,0:0:0:0:
256,192,252887,1,0,0:0:0:0:
36,192,253043,1,0,0:0:0:0:
182,192,253043,1,8,0:0:0:0:
475,192,253043,1,0,0:0:0:0:
109,192,253199,1,0,0:0:0:0:
256,192,253356,128,0,253824:0:0:0:0:
475,192,253356,1,0,0:0:0:0:
36,192,253356,1,0,0:0:0:0:
402,192,253512,1,8,0:0:0:0:
329,192,253512,1,0,0:0:0:0:
109,192,253512,1,0,0:0:0:0:
36,192,253668,1,0,0:0:0:0:
182,192,253668,1,0,0:0:0:0:
475,192,253668,1,8,0:0:0:0:
109,192,253824,128,0,253981:0:0:0:0:
329,192,253824,1,0,0:0:0:0:
402,192,253824,1,4,0:0:0:0:
182,192,253902,128,0,254293:0:0:0:0:
475,192,253981,1,0,0:0:0:0:
256,192,254137,1,0,0:0:0:0:
36,192,254137,1,0,0:0:0:0:
329,192,254293,128,0,254449:0:0:0:0:
475,192,254293,1,8,0:0:0:0:
109,192,254293,1,0,0:0:0:0:
402,192,254293,1,0,0:0:0:0:
182,192,254371,128,0,254606:0:0:0:0:
36,192,254449,1,0,0:0:0:0:
475,192,254606,1,0,0:0:0:0:
109,192,254606,1,0,0:0:0:0:
329,192,254606,128,0,254840:0:0:0:0:
182,192,254762,1,0,0:0:0:0:
475,192,254918,1,8,0:0:0:0:
329,192,254918,1,0,0:0:0:0:
36,192,254918,1,0,0:0:0:0:
256,192,254918,1,0,0:0:0:0:
182,192,255074,128,0,255856:0:0:0:0:
109,192,255074,1,0,0:0:0:0:
475,192,255074,1,0,0:0:0:0:
36,192,255074,1,0,0:0:0:0:
329,192,255074,1,4,0:0:0:0:
256,192,255231,1,0,0:0:0:0:
109,192,255387,1,0,0:0:0:0:
329,192,255387,1,0,0:0:0:0:
256,192,255543,1,0,0:0:0:0:
36,192,255543,1,8,0:0:0:0:
475,192,255543,128,0,255856:0:0:0:0:
402,192,255543,1,0,0:0:0:0:
109,192,255699,1,0,0:0:0:0:
329,192,255856,128,0,256168:0:0:0:0:
402,192,255856,1,0,0:0:0:0:
36,192,255856,1,0,0:0:0:0:
256,192,256012,1,0,0:0:0:0:
182,192,256168,128,0,256481:0:0:0:0:
475,192,256168,1,8,0:0:0:0:
36,192,256168,1,0,0:0:0:0:
109,192,256168,1,0,0:0:0:0:
402,192,256324,1,0,0:0:0:0:
36,192,256481,128,0,257106:0:0:0:0:
329,192,256481,1,4,0:0:0:0:
475,192,256481,1,0,0:0:0:0:
256,192,256481,1,0,0:0:0:0:
182,192,256637,1,0,0:0:0:0:
109,192,256793,1,0,0:0:0:0:
329,192,256793,1,0,0:0:0:0:
402,192,256793,1,8,0:0:0:0:
256,192,256949,1,0,0:0:0:0:
402,192,257106,128,0,257340:0:0:0:0:
475,192,257106,1,0,0:0:0:0:
182,192,257106,1,4,0:0:0:0:
109,192,257106,1,0,0:0:0:0:
329,192,257262,1,0,0:0:0:0:
402,192,257418,1,0,0:0:0:0:
475,192,257418,1,0,0:0:0:0:
182,192,257418,1,8,0:0:0:0:
36,192,257418,1,0,0:0:0:0:
256,192,257574,128,0,258199:0:0:0:0:
329,192,257574,1,0,0:0:0:0:
109,192,257574,1,4,0:0:0:0:
36,192,257574,1,0,0:0:0:0:
475,192,257574,1,0,0:0:0:0:
329,192,257887,128,0,258121:0:0:0:0:
36,192,257887,1,0,0:0:0:0:
475,192,257965,1,0,0:0:0:0:
182,192,258043,128,0,258277:0:0:0:0:
109,192,258043,1,0,0:0:0:0:
329,192,258199,1,0,0:0:0:0:
475,192,258199,1,0,0:0:0:0:
256,192,258277,1,0,0:0:0:0:
182,192,258356,1,0,0:0:0:0:
36,192,258356,1,0,0:0:0:0:
402,192,258356,1,0,0:0:0:0:
109,192,258512,1,0,0:0:0:0:
475,192,258512,1,8,0:0:0:0:
329,192,258512,1,0,0:0:0:0:
36,192,258668,1,0,0:0:0:0:
182,192,258668,1,0,0:0:0:0:
329,192,258668,1,8,0:0:0:0:
329,192,258824,128,0,258981:0:0:0:0:
475,192,258824,1,4,0:0:0:0:
36,192,258824,1,0,0:0:0:0:
109,192,258824,1,0,0:0:0:0:
402,192,258824,1,0,0:0:0:0:
256,192,258902,128,0,259606:0:0:0:0:
182,192,258981,1,0,0:0:0:0:
109,192,259137,1,0,0:0:0:0:
402,192,259137,1,0,0:0:0:0:
475,192,259293,1,8,0:0:0:0:
36,192,259293,1,0,0:0:0:0:
329,192,259293,1,0,0:0:0:0:
182,192,259293,128,0,259606:0:0:0:0:
109,192,259449,1,0,0:0:0:0:
402,192,259606,128,0,259840:0:0:0:0:
475,192,259606,1,0,0:0:0:0:
36,192,259606,1,0,0:0:0:0:
256,192,259762,1,0,0:0:0:0:
329,192,259918,1,8,0:0:0:0:
402,192,259918,1,0,0:0:0:0:
182,192,259918,1,0,0:0:0:0:
36,192,259918,1,0,0:0:0:0:
182,192,260074,128,0,260856:0:0:0:0:
109,192,260074,1,0,0:0:0:0:
475,192,260074,1,0,0:0:0:0:
256,192,260074,1,4,0:0:0:0:
402,192,260074,1,0,0:0:0:0:
329,192,260231,1,0,0:0:0:0:
109,192,260387,1,0,0:0:0:0:
36,192,260387,1,0,0:0:0:0:
402,192,260543,1,8,0:0:0:0:
475,192,260543,1,0,0:0:0:0:
256,192,260543,1,0,0:0:0:0:
329,192,260699,1,0,0:0:0:0:
402,192,260856,128,0,261168:0:0:0:0:
36,192,260856,1,0,0:0:0:0:
475,192,260856,1,0,0:0:0:0:
256,192,260856,1,0,0:0:0:0:
109,192,261012,1,0,0:0:0:0:
256,192,261168,128,0,261481:0:0:0:0:
182,192,261168,1,8,0:0:0:0:
36,192,261168,1,0,0:0:0:0:
475,192,261168,1,0,0:0:0:0:
329,192,261324,1,0,0:0:0:0:
109,192,261481,128,0,262106:0:0:0:0:
475,192,261481,1,4,0:0:0:0:
402,192,261481,1,0,0:0:0:0:
36,192,261481,1,0,0:0:0:0:
329,192,261637,1,0,0:0:0:0:
36,192,261793,1,0,0:0:0:0:
475,192,261793,1,8,0:0:0:0:
256,192,261793,1,0,0:0:0:0:
329,192,261949,128,0,262106:0:0:0:0:
402,192,261949,1,0,0:0:0:0:
256,192,262027,128,0,262184:0:0:0:0:
182,192,262106,128,0,262652:0:0:0:0:
36,192,262106,1,0,0:0:0:0:
475,192,262106,1,0,0:0:0:0:
402,192,262262,1,0,0:0:0:0:
36,192,262418,1,0,0:0:0:0:
109,192,262418,1,0,0:0:0:0:
329,192,262418,1,8,0:0:0:0:
475,192,262418,128,0,262731:0:0:0:0:
256,192,262574,1,0,0:0:0:0:
402,192,262731,1,4,0:0:0:0:
36,192,262731,1,0,0:0:0:0:
329,192,262731,128,0,262965:0:0:0:0:
182,192,262731,1,0,0:0:0:0:
109,192,262887,1,0,0:0:0:0:
329,192,263043,1,0,0:0:0:0:
36,192,263043,1,0,0:0:0:0:
475,192,263043,1,0,0:0:0:0:
182,192,263043,1,8,0:0:0:0:
256,192,263199,128,0,263981:0:0:0:0:
109,192,263199,1,0,0:0:0:0:
402,192,263199,1,0,0:0:0:0:
475,192,263356,1,0,0:0:0:0:
36,192,263356,1,0,0:0:0:0:
402,192,263434,1,0,0:0:0:0:
182,192,263434,1,0,0:0:0:0:
329,192,263512,1,0,0:0:0:0:
109,192,263512,1,0,0:0:0:0:
475,192,263590,1,0,0:0:0:0:
36,192,263590,1,0,0:0:0:0:
402,192,263668,1,0,0:0:0:0:
182,192,263668,1,0,0:0:0:0:
329,192,263746,1,0,0:0:0:0:
109,192,263746,1,0,0:0:0:0:
475,192,263824,1,0,0:0:0:0:
36,192,263824,1,0,0:0:0:0:
402,192,263902,1,0,0:0:0:0:
182,192,263902,1,0,0:0:0:0:
36,192,263981,1,0,0:0:0:0:
475,192,263981,1,4,0:0:0:0:
109,192,263981,1,0,0:0:0:0:
329,192,263981,128,0,264371:0:0:0:0:
182,192,264137,1,0,0:0:0:0:
475,192,264293,1,0,0:0:0:0:
36,192,264293,1,8,0:0:0:0:
256,192,264293,1,0,0:0:0:0:
329,192,264449,1,0,0:0:0:0:
402,192,264449,1,0,0:0:0:0:
182,192,264449,1,0,0:0:0:0:
109,192,264606,1,0,0:0:0:0:
182,192,264762,1,0,0:0:0:0:
402,192,264762,1,0,0:0:0:0:
475,192,264918,1,0,0:0:0:0:
36,192,264918,1,0,0:0:0:0:
329,192,264918,1,0,0:0:0:0:
256,192,264918,1,8,0:0:0:0:
402,192,265074,1,0,0:0:0:0:
329,192,265231,1,0,0:0:0:0:
109,192,265231,1,0,0:0:0:0:
256,192,265387,1,0,0:0:0:0:
36,192,265543,128,0,266402:0:0:0:0:
475,192,265543,1,8,0:0:0:0:
402,192,265543,1,0,0:0:0:0:
182,192,265543,1,0,0:0:0:0:
329,192,265699,1,0,0:0:0:0:
256,192,265856,128,0,266402:0:0:0:0:
475,192,265856,1,0,0:0:0:0:
109,192,265856,1,0,0:0:0:0:
402,192,266012,1,0,0:0:0:0:
475,192,266168,128,0,266402:0:0:0:0:
329,192,266168,1,8,0:0:0:0:
109,192,266168,1,0,0:0:0:0:
182,192,266168,1,0,0:0:0:0:
402,192,266324,1,0,0:0:0:0:
475,192,266481,1,0,0:0:0:0:
36,192,266481,1,0,0:0:0:0:
256,192,266481,1,4,0:0:0:0:
329,192,266637,1,0,0:0:0:0:
109,192,266793,1,0,0:0:0:0:
402,192,266949,1,0,0:0:0:0:
182,192,267106,1,0,0:0:0:0:
329,192,267262,1,0,0:0:0:0:
109,192,267418,1,0,0:0:0:0:
402,192,267574,1,0,0:0:0:0:
256,192,267731,1,4,0:0:0:0:
36,192,267731,1,0,0:0:0:0:
475,192,267731,1,0,0:0:0:0:
182,192,267887,1,0,0:0:0:0:
329,192,267965,1,0,0:0:0:0:
402,192,267965,1,0,0:0:0:0:
182,192,268043,1,0,0:0:0:0:
109,192,268043,1,0,0:0:0:0:
329,192,268199,1,0,0:0:0:0:
475,192,268199,1,0,0:0:0:0:
256,192,268277,1,0,0:0:0:0:
182,192,268356,1,0,0:0:0:0:
36,192,268356,1,0,0:0:0:0:
256,192,268512,1,0,0:0:0:0:
109,192,268590,1,0,0:0:0:0:
256,192,268668,1,0,0:0:0:0:
402,192,268668,1,0,0:0:0:0:
182,192,268746,1,0,0:0:0:0:
36,192,268746,1,0,0:0:0:0:
475,192,268824,1,0,0:0:0:0:
329,192,268824,1,0,0:0:0:0:
256,192,268981,128,0,269918:0:0:0:0:
36,192,268981,1,0,0:0:0:0:
475,192,268981,1,0,0:0:0:0:
109,192,268981,1,0,0:0:0:0:
402,192,268981,1,4,0:0:0:0:
36,192,269449,1,0,0:0:0:0:
475,192,269606,128,0,270231:0:0:0:0:
36,192,269606,1,0,0:0:0:0:
182,192,269606,1,8,0:0:0:0:
36,192,269918,128,0,270543:0:0:0:0:
329,192,269918,1,0,0:0:0:0:
109,192,270074,1,0,0:0:0:0:
182,192,270152,1,0,0:0:0:0:
329,192,270231,128,0,270856:0:0:0:0:
256,192,270231,1,8,0:0:0:0:
182,192,270543,1,0,0:0:0:0:
475,192,270621,1,0,0:0:0:0:
256,192,270699,1,0,0:0:0:0:
36,192,270856,1,0,0:0:0:0:
475,192,270856,1,0,0:0:0:0:
402,192,270856,1,8,0:0:0:0:
109,192,270856,1,0,0:0:0:0:
475,192,271012,1,0,0:0:0:0:
109,192,271012,1,0,0:0:0:0:
402,192,271012,1,8,0:0:0:0:
36,192,271012,1,0,0:0:0:0:
256,192,271481,128,0,272340:0:0:0:0:
36,192,271481,1,0,0:0:0:0:
475,192,271481,1,0,0:0:0:0:
182,192,271481,1,0,0:0:0:0:
329,192,271481,1,4,0:0:0:0:
402,192,271637,1,0,0:0:0:0:
475,192,271793,128,0,272184:0:0:0:0:
36,192,271793,128,0,272184:0:0:0:0:
109,192,271793,1,0,0:0:0:0:
329,192,271949,1,0,0:0:0:0:
402,192,272106,128,0,272418:0:0:0:0:
109,192,272106,128,0,272418:0:0:0:0:
182,192,272106,1,0,0:0:0:0:
475,192,272262,128,0,272418:0:0:0:0:
36,192,272262,128,0,272418:0:0:0:0:
329,192,272262,1,0,0:0:0:0:
329,192,272418,1,8,0:0:0:0:
182,192,272418,1,0,0:0:0:0:
256,192,272418,1,0,0:0:0:0:
475,192,272574,128,0,273590:0:0:0:0:
36,192,272574,128,0,273199:0:0:0:0:
256,192,272574,128,0,273199:0:0:0:0:
109,192,272574,1,0,0:0:0:0:
329,192,272731,1,0,0:0:0:0:
182,192,272887,1,0,0:0:0:0:
182,192,273043,128,0,273199:0:0:0:0:
402,192,273043,128,0,273199:0:0:0:0:
329,192,273043,1,8,0:0:0:0:
109,192,273199,1,0,0:0:0:0:
109,192,273356,128,0,273590:0:0:0:0:
329,192,273356,128,0,273590:0:0:0:0:
256,192,273356,1,0,0:0:0:0:
256,192,273512,128,0,273668:0:0:0:0:
36,192,273512,128,0,273668:0:0:0:0:
402,192,273512,1,0,0:0:0:0:
475,192,273668,1,8,0:0:0:0:
109,192,273668,1,0,0:0:0:0:
329,192,273668,1,0,0:0:0:0:
36,192,273824,1,0,0:0:0:0:
475,192,273824,1,4,0:0:0:0:
182,192,273824,128,0,275777:0:0:0:0:
329,192,273824,128,0,275777:0:0:0:0:
256,192,273824,1,0,0:0:0:0:
109,192,273981,1,0,0:0:0:0:
256,192,274137,1,0,0:0:0:0:
402,192,274137,1,0,0:0:0:0:
475,192,274293,1,8,0:0:0:0:
36,192,274293,1,0,0:0:0:0:
256,192,274293,1,0,0:0:0:0:
109,192,274449,1,0,0:0:0:0:
402,192,274606,1,0,0:0:0:0:
256,192,274606,1,0,0:0:0:0:
109,192,274762,1,0,0:0:0:0:
475,192,274918,1,0,0:0:0:0:
256,192,274918,1,8,0:0:0:0:
36,192,274918,1,0,0:0:0:0:
402,192,275074,1,0,0:0:0:0:
256,192,275231,1,0,0:0:0:0:
109,192,275231,1,0,0:0:0:0:
402,192,275387,1,0,0:0:0:0:
475,192,275543,1,0,0:0:0:0:
256,192,275543,1,8,0:0:0:0:
109,192,275699,1,0,0:0:0:0:
182,192,275856,1,0,0:0:0:0:
329,192,275856,1,0,0:0:0:0:
36,192,275856,1,0,0:0:0:0:
475,192,275856,1,0,0:0:0:0:
36,192,276012,128,0,276168:0:0:0:0:
182,192,276012,128,0,276168:0:0:0:0:
329,192,276012,128,0,276168:0:0:0:0:
475,192,276012,128,0,276168:0:0:0:0:
256,192,276324,128,0,277340:0:0:0:0:
36,192,276324,1,0,0:0:0:0:
402,192,276324,1,4,0:0:0:0:
475,192,276324,1,0,0:0:0:0:
109,192,276324,1,0,0:0:0:0:
329,192,276481,1,0,0:0:0:0:
182,192,276637,1,0,0:0:0:0:
475,192,276793,128,0,277106:0:0:0:0:
36,192,276793,128,0,277106:0:0:0:0:
329,192,276793,1,8,0:0:0:0:
109,192,276949,1,0,0:0:0:0:
182,192,277106,128,0,277418:0:0:0:0:
329,192,277106,128,0,277418:0:0:0:0:
402,192,277106,1,0,0:0:0:0:
36,192,277184,128,0,277340:0:0:0:0:
475,192,277184,128,0,277340:0:0:0:0:
109,192,277262,1,0,0:0:0:0:
475,192,277418,1,0,0:0:0:0:
36,192,277418,1,0,0:0:0:0:
256,192,277418,1,8,0:0:0:0:
256,192,277574,128,0,278590:0:0:0:0:
475,192,277574,128,0,278199:0:0:0:0:
36,192,277574,128,0,278199:0:0:0:0:
109,192,277574,1,0,0:0:0:0:
402,192,277574,1,4,0:0:0:0:
182,192,277731,1,0,0:0:0:0:
402,192,277887,1,0,0:0:0:0:
329,192,278043,128,0,278199:0:0:0:0:
182,192,278043,128,0,278199:0:0:0:0:
109,192,278043,1,8,0:0:0:0:
402,192,278199,1,0,0:0:0:0:
109,192,278356,128,0,278590:0:0:0:0:
402,192,278356,128,0,278590:0:0:0:0:
329,192,278356,1,0,0:0:0:0:
475,192,278512,128,0,278668:0:0:0:0:
36,192,278512,128,0,278668:0:0:0:0:
182,192,278512,1,0,0:0:0:0:
402,192,278668,1,0,0:0:0:0:
109,192,278668,1,0,0:0:0:0:
256,192,278668,1,8,0:0:0:0:
182,192,278824,128,0,279059:0:0:0:0:
475,192,278824,1,4,0:0:0:0:
329,192,278824,128,0,279059:0:0:0:0:
36,192,278824,1,0,0:0:0:0:
256,192,278824,128,0,279137:0:0:0:0:
36,192,279137,1,0,0:0:0:0:
475,192,279137,1,0,0:0:0:0:
182,192,279137,1,0,0:0:0:0:
329,192,279137,1,0,0:0:0:0:
109,192,279293,128,0,280777:0:0:0:0:
402,192,279293,128,0,280777:0:0:0:0:
256,192,279293,1,8,0:0:0:0:
36,192,279293,1,0,0:0:0:0:
475,192,279293,1,0,0:0:0:0:
182,192,279449,1,0,0:0:0:0:
256,192,279606,1,0,0:0:0:0:
475,192,279606,1,0,0:0:0:0:
329,192,279762,1,0,0:0:0:0:
256,192,279918,1,8,0:0:0:0:
36,192,279918,1,0,0:0:0:0:
475,192,279918,1,0,0:0:0:0:
182,192,280074,1,0,0:0:0:0:
256,192,280231,1,0,0:0:0:0:
36,192,280231,1,0,0:0:0:0:
329,192,280387,1,0,0:0:0:0:
256,192,280543,1,0,0:0:0:0:
36,192,280543,1,0,0:0:0:0:
475,192,280543,1,0,0:0:0:0:
182,192,280699,1,0,0:0:0:0:
329,192,280699,1,0,0:0:0:0:
256,192,280856,1,0,0:0:0:0:
109,192,280856,1,0,0:0:0:0:
36,192,280856,1,0,0:0:0:0:
402,192,280856,1,0,0:0:0:0:
475,192,280856,1,0,0:0:0:0:
36,192,281012,128,0,281168:0:0:0:0:
109,192,281012,128,0,281168:0:0:0:0:
402,192,281012,128,0,281168:0:0:0:0:
475,192,281012,128,0,281168:0:0:0:0:
256,192,281012,1,0,0:0:0:0:
256,192,281324,128,0,282340:0:0:0:0:
182,192,281324,1,0,0:0:0:0:
36,192,281324,1,0,0:0:0:0:
475,192,281324,1,0,0:0:0:0:
329,192,281324,1,4,0:0:0:0:
402,192,281481,1,0,0:0:0:0:
109,192,281637,1,0,0:0:0:0:
36,192,281793,128,0,282184:0:0:0:0:
402,192,281793,128,0,282184:0:0:0:0:
329,192,281793,1,8,0:0:0:0:
182,192,281949,1,0,0:0:0:0:
109,192,282106,128,0,282340:0:0:0:0:
475,192,282106,128,0,282340:0:0:0:0:
329,192,282106,1,0,0:0:0:0:
36,192,282262,128,0,282418:0:0:0:0:
402,192,282262,128,0,282418:0:0:0:0:
182,192,282262,1,0,0:0:0:0:
109,192,282418,1,0,0:0:0:0:
475,192,282418,1,0,0:0:0:0:
256,192,282418,1,8,0:0:0:0:
36,192,282574,128,0,283668:0:0:0:0:
256,192,282574,128,0,283043:0:0:0:0:
475,192,282574,128,0,283043:0:0:0:0:
402,192,282574,1,0,0:0:0:0:
182,192,282731,1,0,0:0:0:0:
329,192,282887,1,0,0:0:0:0:
402,192,283043,128,0,283199:0:0:0:0:
109,192,283043,1,8,0:0:0:0:
182,192,283043,128,0,283199:0:0:0:0:
256,192,283199,1,0,0:0:0:0:
256,192,283356,128,0,283590:0:0:0:0:
475,192,283356,128,0,283590:0:0:0:0:
329,192,283356,1,0,0:0:0:0:
329,192,283512,128,0,283668:0:0:0:0:
109,192,283512,128,0,283668:0:0:0:0:
182,192,283512,1,0,0:0:0:0:
256,192,283668,1,8,0:0:0:0:
402,192,283668,1,0,0:0:0:0:
475,192,283668,1,0,0:0:0:0:
475,192,283824,128,0,286090:0:0:0:0:
36,192,283824,128,0,286090:0:0:0:0:
402,192,283824,1,0,0:0:0:0:
256,192,283824,1,4,0:0:0:0:
109,192,283824,1,0,0:0:0:0:
329,192,283981,1,0,0:0:0:0:
182,192,284137,1,0,0:0:0:0:
256,192,284137,1,0,0:0:0:0:
256,192,284293,1,8,0:0:0:0:
109,192,284293,1,0,0:0:0:0:
402,192,284293,1,0,0:0:0:0:
329,192,284449,1,0,0:0:0:0:
182,192,284606,1,0,0:0:0:0:
402,192,284606,128,0,284918:0:0:0:0:
329,192,284762,1,0,0:0:0:0:
109,192,284918,128,0,285231:0:0:0:0:
182,192,284918,1,0,0:0:0:0:
256,192,284918,1,8,0:0:0:0:
329,192,285074,1,0,0:0:0:0:
256,192,285074,1,0,0:0:0:0:
329,192,285231,128,0,285934:0:0:0:0:
402,192,285231,1,0,0:0:0:0:
256,192,285387,1,0,0:0:0:0:
182,192,285387,1,0,0:0:0:0:
182,192,285543,128,0,285777:0:0:0:0:
109,192,285543,1,0,0:0:0:0:
402,192,285543,1,8,0:0:0:0:
256,192,285699,1,0,0:0:0:0:
182,192,285856,128,0,286090:0:0:0:0:
109,192,285856,1,0,0:0:0:0:
329,192,286012,128,0,286246:0:0:0:0:
402,192,286012,1,0,0:0:0:0:
182,192,286168,128,0,286324:0:0:0:0:
36,192,286168,1,0,0:0:0:0:
475,192,286168,1,8,0:0:0:0:
256,192,286246,128,0,286402:0:0:0:0:
329,192,286324,128,0,286481:0:0:0:0:
402,192,286481,128,0,287731:0:0:0:0:
475,192,286481,1,0,0:0:0:0:
109,192,286481,1,4,0:0:0:0:
36,192,286481,1,0,0:0:0:0:
182,192,286637,1,0,0:0:0:0:
36,192,286793,1,0,0:0:0:0:
256,192,286793,1,8,0:0:0:0:
475,192,286793,1,0,0:0:0:0:
109,192,286949,1,0,0:0:0:0:
329,192,286949,1,0,0:0:0:0:
475,192,286949,128,0,287731:0:0:0:0:
182,192,287106,1,0,0:0:0:0:
256,192,287262,1,0,0:0:0:0:
36,192,287262,1,0,0:0:0:0:
329,192,287418,1,0,0:0:0:0:
109,192,287418,1,0,0:0:0:0:
182,192,287418,1,8,0:0:0:0:
256,192,287574,1,0,0:0:0:0:
182,192,287731,128,0,288356:0:0:0:0:
329,192,287731,1,0,0:0:0:0:
36,192,287731,1,0,0:0:0:0:
109,192,288043,1,0,0:0:0:0:
329,192,288043,1,0,0:0:0:0:
402,192,288043,1,8,0:0:0:0:
36,192,288356,128,0,288512:0:0:0:0:
475,192,288356,1,0,0:0:0:0:
256,192,288356,1,0,0:0:0:0:
182,192,288512,128,0,288668:0:0:0:0:
402,192,288512,1,0,0:0:0:0:
329,192,288668,128,0,288824:0:0:0:0:
475,192,288668,1,0,0:0:0:0:
109,192,288668,1,8,0:0:0:0:
36,192,288668,1,0,0:0:0:0:
256,192,288824,128,0,289606:0:0:0:0:
182,192,288824,1,4,0:0:0:0:
402,192,288824,1,0,0:0:0:0:
475,192,288981,128,0,289606:0:0:0:0:
36,192,288981,1,0,0:0:0:0:
109,192,289137,1,0,0:0:0:0:
329,192,289137,1,0,0:0:0:0:
182,192,289293,1,8,0:0:0:0:
402,192,289293,1,0,0:0:0:0:
36,192,289293,1,0,0:0:0:0:
109,192,289449,1,0,0:0:0:0:
182,192,289606,128,0,290231:0:0:0:0:
402,192,289606,128,0,290231:0:0:0:0:
329,192,289606,1,0,0:0:0:0:
36,192,289606,1,0,0:0:0:0:
256,192,289762,1,0,0:0:0:0:
475,192,289918,1,0,0:0:0:0:
329,192,289918,1,8,0:0:0:0:
109,192,289918,1,0,0:0:0:0:
256,192,290074,1,0,0:0:0:0:
36,192,290074,1,0,0:0:0:0:
109,192,290231,128,0,290856:0:0:0:0:
329,192,290231,128,0,290856:0:0:0:0:
475,192,290231,1,0,0:0:0:0:
182,192,290387,1,0,0:0:0:0:
402,192,290387,1,0,0:0:0:0:
475,192,290543,1,0,0:0:0:0:
256,192,290543,1,0,0:0:0:0:
36,192,290621,1,0,0:0:0:0:
402,192,290699,1,0,0:0:0:0:
182,192,290777,1,0,0:0:0:0:
256,192,290856,128,0,291481:0:0:0:0:
475,192,290856,1,0,0:0:0:0:
36,192,290856,1,0,0:0:0:0:
402,192,291012,1,0,0:0:0:0:
109,192,291012,1,0,0:0:0:0:
475,192,291168,1,0,0:0:0:0:
36,192,291168,1,0,0:0:0:0:
402,192,291246,1,0,0:0:0:0:
182,192,291246,1,0,0:0:0:0:
329,192,291324,1,0,0:0:0:0:
109,192,291324,1,0,0:0:0:0:
475,192,291402,1,0,0:0:0:0:
36,192,291402,1,0,0:0:0:0:
402,192,291481,1,0,0:0:0:0:
329,192,291481,1,4,0:0:0:0:
182,192,291481,1,0,0:0:0:0:
109,192,291481,1,0,0:0:0:0:
256,192,291637,1,0,0:0:0:0:
475,192,291793,128,0,292184:0:0:0:0:
36,192,291793,128,0,292184:0:0:0:0:
182,192,291793,1,0,0:0:0:0:
329,192,291793,1,8,0:0:0:0:
256,192,291949,1,0,0:0:0:0:
329,192,292106,128,0,292340:0:0:0:0:
182,192,292106,128,0,292340:0:0:0:0:
109,192,292106,1,0,0:0:0:0:
475,192,292262,128,0,292418:0:0:0:0:
36,192,292262,128,0,292418:0:0:0:0:
402,192,292262,1,0,0:0:0:0:
182,192,292418,1,0,0:0:0:0:
329,192,292418,1,0,0:0:0:0:
256,192,292574,128,0,293590:0:0:0:0:
36,192,292574,128,0,293199:0:0:0:0:
475,192,292574,128,0,293199:0:0:0:0:
109,192,292574,1,0,0:0:0:0:
402,192,292574,1,0,0:0:0:0:
182,192,292731,1,0,0:0:0:0:
329,192,292887,1,0,0:0:0:0:
109,192,293043,128,0,293199:0:0:0:0:
402,192,293043,128,0,293199:0:0:0:0:
182,192,293043,1,8,0:0:0:0:
329,192,293199,1,0,0:0:0:0:
182,192,293356,128,0,293590:0:0:0:0:
329,192,293356,128,0,293590:0:0:0:0:
475,192,293512,128,0,293668:0:0:0:0:
36,192,293512,128,0,293668:0:0:0:0:
256,192,293668,1,8,0:0:0:0:
182,192,293668,1,0,0:0:0:0:
329,192,293668,1,0,0:0:0:0:
109,192,293824,128,0,295777:0:0:0:0:
402,192,293824,128,0,295777:0:0:0:0:
36,192,293824,1,0,0:0:0:0:
475,192,293824,1,0,0:0:0:0:
256,192,293824,1,4,0:0:0:0:
182,192,293981,1,0,0:0:0:0:
256,192,294137,1,0,0:0:0:0:
475,192,294137,1,0,0:0:0:0:
36,192,294293,1,0,0:0:0:0:
182,192,294293,1,0,0:0:0:0:
329,192,294293,1,8,0:0:0:0:
256,192,294449,1,0,0:0:0:0:
475,192,294606,1,0,0:0:0:0:
182,192,294606,1,0,0:0:0:0:
256,192,294762,1,0,0:0:0:0:
329,192,294918,1,8,0:0:0:0:
475,192,294918,1,0,0:0:0:0:
36,192,294918,1,0,0:0:0:0:
256,192,295074,1,0,0:0:0:0:
182,192,295231,1,0,0:0:0:0:
36,192,295231,1,0,0:0:0:0:
256,192,295387,1,0,0:0:0:0:
329,192,295543,1,8,0:0:0:0:
475,192,295543,1,0,0:0:0:0:
36,192,295543,1,0,0:0:0:0:
256,192,295699,1,0,0:0:0:0:
109,192,295856,1,0,0:0:0:0:
402,192,295856,1,0,0:0:0:0:
475,192,295856,1,0,0:0:0:0:
36,192,295856,1,0,0:0:0:0:
109,192,296012,128,0,296168:0:0:0:0:
36,192,296012,128,0,296168:0:0:0:0:
402,192,296012,128,0,296168:0:0:0:0:
475,192,296012,128,0,296168:0:0:0:0:
475,192,296324,1,0,0:0:0:0:
36,192,296324,1,0,0:0:0:0:
329,192,296324,1,4,0:0:0:0:
256,192,296324,128,0,297340:0:0:0:0:
182,192,296324,1,0,0:0:0:0:
109,192,296481,1,0,0:0:0:0:
329,192,296637,1,0,0:0:0:0:
36,192,296793,128,0,296949:0:0:0:0:
475,192,296793,128,0,296949:0:0:0:0:
182,192,296793,1,8,0:0:0:0:
109,192,296949,1,0,0:0:0:0:
402,192,296949,1,0,0:0:0:0:
109,192,297106,128,0,297340:0:0:0:0:
402,192,297106,128,0,297340:0:0:0:0:
329,192,297106,1,0,0:0:0:0:
36,192,297262,128,0,297418:0:0:0:0:
475,192,297262,128,0,297418:0:0:0:0:
182,192,297262,1,0,0:0:0:0:
256,192,297418,1,8,0:0:0:0:
109,192,297418,1,0,0:0:0:0:
402,192,297418,1,0,0:0:0:0:
182,192,297574,128,0,298199:0:0:0:0:
475,192,297574,128,0,298199:0:0:0:0:
36,192,297574,1,4,0:0:0:0:
329,192,297731,1,0,0:0:0:0:
109,192,297887,1,0,0:0:0:0:
109,192,298043,128,0,298199:0:0:0:0:
402,192,298043,128,0,298199:0:0:0:0:
256,192,298043,1,8,0:0:0:0:
36,192,298199,1,0,0:0:0:0:
109,192,298356,128,0,298590:0:0:0:0:
402,192,298356,128,0,298590:0:0:0:0:
182,192,298356,1,0,0:0:0:0:
36,192,298512,128,0,298746:0:0:0:0:
475,192,298512,128,0,298746:0:0:0:0:
256,192,298512,1,0,0:0:0:0:
109,192,298668,128,0,298824:0:0:0:0:
402,192,298668,128,0,298824:0:0:0:0:
329,192,298668,1,8,0:0:0:0:
475,192,298824,1,0,0:0:0:0:
36,192,298824,1,0,0:0:0:0:
329,192,298824,128,0,299137:0:0:0:0:
182,192,298824,128,0,299137:0:0:0:0:
256,192,298824,1,4,0:0:0:0:
36,192,299137,1,0,0:0:0:0:
475,192,299137,1,0,0:0:0:0:
36,192,299293,128,0,300777:0:0:0:0:
475,192,299293,128,0,300777:0:0:0:0:
256,192,299293,1,8,0:0:0:0:
109,192,299293,1,0,0:0:0:0:
402,192,299293,1,0,0:0:0:0:
329,192,299449,1,0,0:0:0:0:
182,192,299606,1,0,0:0:0:0:
329,192,299762,1,0,0:0:0:0:
256,192,299918,1,8,0:0:0:0:
109,192,299918,1,0,0:0:0:0:
402,192,299918,1,0,0:0:0:0:
182,192,300074,1,0,0:0:0:0:
329,192,300231,1,0,0:0:0:0:
256,192,300231,1,0,0:0:0:0:
182,192,300387,1,0,0:0:0:0:
256,192,300543,1,8,0:0:0:0:
109,192,300543,1,0,0:0:0:0:
402,192,300543,1,0,0:0:0:0:
256,192,300699,1,0,0:0:0:0:
182,192,300856,1,0,0:0:0:0:
109,192,300856,1,0,0:0:0:0:
36,192,300856,1,0,0:0:0:0:
329,192,300856,1,0,0:0:0:0:
402,192,300856,1,0,0:0:0:0:
475,192,300856,1,0,0:0:0:0:
475,192,301012,128,0,301168:0:0:0:0:
402,192,301012,128,0,301168:0:0:0:0:
329,192,301012,128,0,301168:0:0:0:0:
182,192,301012,128,0,301168:0:0:0:0:
109,192,301012,128,0,301168:0:0:0:0:
36,192,301012,128,0,301168:0:0:0:0:
256,192,301324,128,0,302340:0:0:0:0:
475,192,301324,1,0,0:0:0:0:
36,192,301324,1,0,0:0:0:0:
182,192,301324,1,0,0:0:0:0:
329,192,301324,1,4,0:0:0:0:
402,192,301481,1,0,0:0:0:0:
109,192,301637,1,0,0:0:0:0:
329,192,301793,128,0,301949:0:0:0:0:
36,192,301793,128,0,301949:0:0:0:0:
402,192,301793,1,8,0:0:0:0:
475,192,301949,1,0,0:0:0:0:
182,192,301949,1,0,0:0:0:0:
109,192,302106,128,0,302340:0:0:0:0:
402,192,302106,128,0,302340:0:0:0:0:
329,192,302106,1,0,0:0:0:0:
36,192,302262,128,0,302418:0:0:0:0:
475,192,302262,128,0,302418:0:0:0:0:
182,192,302262,1,0,0:0:0:0:
256,192,302418,1,8,0:0:0:0:
402,192,302418,1,0,0:0:0:0:
109,192,302418,1,0,0:0:0:0:
36,192,302574,128,0,302965:0:0:0:0:
256,192,302574,128,0,303590:0:0:0:0:
475,192,302574,128,0,302965:0:0:0:0:
329,192,302574,1,4,0:0:0:0:
182,192,302731,1,0,0:0:0:0:
109,192,302887,128,0,303043:0:0:0:0:
402,192,302887,128,0,303043:0:0:0:0:
329,192,302887,1,0,0:0:0:0:
475,192,303043,1,8,0:0:0:0:
36,192,303043,1,0,0:0:0:0:
182,192,303199,1,0,0:0:0:0:
36,192,303356,128,0,303590:0:0:0:0:
475,192,303356,128,0,303590:0:0:0:0:
329,192,303356,1,0,0:0:0:0:
402,192,303512,128,0,303668:0:0:0:0:
109,192,303512,128,0,303668:0:0:0:0:
182,192,303512,1,0,0:0:0:0:
256,192,303668,1,8,0:0:0:0:
475,192,303668,1,0,0:0:0:0:
36,192,303668,1,0,0:0:0:0:
475,192,303824,128,0,306090:0:0:0:0:
36,192,303824,128,0,306090:0:0:0:0:
109,192,303824,1,0,0:0:0:0:
402,192,303824,1,0,0:0:0:0:
256,192,303824,1,4,0:0:0:0:
182,192,303981,1,0,0:0:0:0:
256,192,304137,1,0,0:0:0:0:
329,192,304137,1,0,0:0:0:0:
256,192,304293,1,8,0:0:0:0:
109,192,304293,1,0,0:0:0:0:
402,192,304293,1,0,0:0:0:0:
182,192,304449,1,0,0:0:0:0:
329,192,304606,1,0,0:0:0:0:
109,192,304606,128,0,304918:0:0:0:0:
182,192,304762,1,0,0:0:0:0:
329,192,304918,1,0,0:0:0:0:
402,192,304918,128,0,305231:0:0:0:0:
256,192,304918,1,8,0:0:0:0:
256,192,305074,1,0,0:0:0:0:
182,192,305074,1,0,0:0:0:0:
182,192,305231,128,0,305934:0:0:0:0:
109,192,305231,1,0,0:0:0:0:
329,192,305387,1,0,0:0:0:0:
256,192,305387,1,0,0:0:0:0:
109,192,305543,1,0,0:0:0:0:
329,192,305543,128,0,305777:0:0:0:0:
402,192,305543,1,8,0:0:0:0:
256,192,305699,1,0,0:0:0:0:
329,192,305856,128,0,306090:0:0:0:0:
402,192,305856,1,0,0:0:0:0:
109,192,306012,1,0,0:0:0:0:
182,192,306012,128,0,306246:0:0:0:0:
475,192,306168,1,0,0:0:0:0:
36,192,306168,1,8,0:0:0:0:
329,192,306168,128,0,306324:0:0:0:0:
256,192,306246,128,0,306402:0:0:0:0:
182,192,306324,128,0,306481:0:0:0:0:
109,192,306481,128,0,307731:0:0:0:0:
36,192,306481,1,0,0:0:0:0:
475,192,306481,1,0,0:0:0:0:
402,192,306481,1,4,0:0:0:0:
329,192,306637,1,0,0:0:0:0:
256,192,306793,1,8,0:0:0:0:
475,192,306793,1,0,0:0:0:0:
36,192,306793,1,0,0:0:0:0:
36,192,306949,128,0,307731:0:0:0:0:
402,192,306949,1,0,0:0:0:0:
182,192,306949,1,0,0:0:0:0:
329,192,307106,1,0,0:0:0:0:
256,192,307262,1,0,0:0:0:0:
475,192,307262,1,0,0:0:0:0:
402,192,307418,1,0,0:0:0:0:
182,192,307418,1,0,0:0:0:0:
329,192,307418,1,8,0:0:0:0:
256,192,307574,1,0,0:0:0:0:
475,192,307731,128,0,308356:0:0:0:0:
402,192,307731,1,0,0:0:0:0:
329,192,308043,1,0,0:0:0:0:
109,192,308043,1,8,0:0:0:0:
36,192,308043,1,0,0:0:0:0:
182,192,308199,1,0,0:0:0:0:
402,192,308356,128,0,308668:0:0:0:0:
256,192,308356,1,0,0:0:0:0:
36,192,308356,1,0,0:0:0:0:
329,192,308512,128,0,308824:0:0:0:0:
109,192,308512,1,0,0:0:0:0:
182,192,308668,128,0,308981:0:0:0:0:
475,192,308668,1,8,0:0:0:0:
36,192,308668,1,0,0:0:0:0:
256,192,308824,128,0,311324:0:0:0:0:
475,192,308824,1,4,0:0:0:0:
402,192,308824,1,0,0:0:0:0:
36,192,308824,1,0,0:0:0:0:
109,192,308824,1,0,0:0:0:0:
36,192,309137,1,0,0:0:0:0:
402,192,309137,1,0,0:0:0:0:
475,192,309293,1,8,0:0:0:0:
109,192,309293,1,0,0:0:0:0:
329,192,309293,1,0,0:0:0:0:
182,192,309449,1,0,0:0:0:0:
36,192,309606,1,0,0:0:0:0:
329,192,309606,1,0,0:0:0:0:
402,192,309762,1,0,0:0:0:0:
475,192,309918,1,8,0:0:0:0:
109,192,309918,1,0,0:0:0:0:
182,192,309918,1,0,0:0:0:0:
329,192,310074,1,0,0:0:0:0:
36,192,310231,1,0,0:0:0:0:
475,192,310231,1,0,0:0:0:0:
182,192,310231,1,0,0:0:0:0:
109,192,310387,1,0,0:0:0:0:
402,192,310387,1,0,0:0:0:0:
475,192,310543,1,0,0:0:0:0:
36,192,310543,1,0,0:0:0:0:
329,192,310543,1,0,0:0:0:0:
109,192,310582,1,0,0:0:0:0:
182,192,310621,1,0,0:0:0:0:
402,192,310699,1,0,0:0:0:0:
109,192,310777,1,0,0:0:0:0:
475,192,310856,1,0,0:0:0:0:
36,192,310856,1,0,0:0:0:0:
329,192,310856,1,0,0:0:0:0:
402,192,311012,1,0,0:0:0:0:
182,192,311012,1,0,0:0:0:0:
475,192,311168,1,0,0:0:0:0:
36,192,311168,1,0,0:0:0:0:
329,192,311246,1,0,0:0:0:0:
109,192,311246,1,0,0:0:0:0:
402,192,311324,1,0,0:0:0:0:
182,192,311324,1,0,0:0:0:0:
256,192,311402,1,0,0:0:0:0:
475,192,311402,1,0,0:0:0:0:
402,192,311481,1,0,0:0:0:0:
329,192,311481,1,4,0:0:0:0:
36,192,311481,1,0,0:0:0:0:
109,192,311481,1,0,0:0:0:0:
182,192,311637,128,0,311949:0:0:0:0:
475,192,311637,128,0,311949:0:0:0:0:
402,192,311793,128,0,312106:0:0:0:0:
109,192,311793,128,0,312106:0:0:0:0:
329,192,311949,128,0,312262:0:0:0:0:
36,192,311949,128,0,312262:0:0:0:0:
475,192,312106,128,0,312418:0:0:0:0:
182,192,312106,128,0,312418:0:0:0:0:
109,192,312262,128,0,312574:0:0:0:0:
402,192,312262,128,0,312574:0:0:0:0:
36,192,312418,128,0,312574:0:0:0:0:
329,192,312418,128,0,312574:0:0:0:0:
256,192,312574,1,4,0:0:0:0:
475,192,312574,128,0,312887:0:0:0:0:
182,192,312574,128,0,312887:0:0:0:0:
36,192,312731,128,0,313043:0:0:0:0:
329,192,312731,128,0,313043:0:0:0:0:
109,192,312887,128,0,313199:0:0:0:0:
402,192,312887,128,0,313199:0:0:0:0:
475,192,313043,128,0,313356:0:0:0:0:
182,192,313043,128,0,313356:0:0:0:0:
36,192,313199,128,0,313512:0:0:0:0:
329,192,313199,128,0,313512:0:0:0:0:
109,192,313356,128,0,313668:0:0:0:0:
402,192,313356,128,0,313668:0:0:0:0:
475,192,313512,128,0,313981:0:0:0:0:
182,192,313512,128,0,313824:0:0:0:0:
36,192,313668,128,0,313981:0:0:0:0:
329,192,313668,128,0,313824:0:0:0:0:
109,192,313824,128,0,313981:0:0:0:0:
402,192,313824,128,0,313981:0:0:0:0:
256,192,313981,1,4,0:0:0:0:
182,192,313981,128,0,314293:0:0:0:0:
329,192,313981,128,0,314293:0:0:0:0:
36,192,314137,128,0,314449:0:0:0:0:
475,192,314137,128,0,314449:0:0:0:0:
109,192,314293,128,0,314606:0:0:0:0:
402,192,314293,128,0,314606:0:0:0:0:
182,192,314449,128,0,314762:0:0:0:0:
329,192,314449,128,0,314762:0:0:0:0:
36,192,314606,128,0,314918:0:0:0:0:
475,192,314606,128,0,314918:0:0:0:0:
109,192,314762,128,0,314918:0:0:0:0:
402,192,314762,128,0,314918:0:0:0:0:
256,192,314918,1,4,0:0:0:0:
182,192,314918,128,0,315231:0:0:0:0:
329,192,314918,128,0,315231:0:0:0:0:
256,192,315074,1,4,0:0:0:0:
475,192,315074,128,0,315387:0:0:0:0:
36,192,315074,128,0,315387:0:0:0:0:
109,192,315231,128,0,315543:0:0:0:0:
402,192,315231,128,0,315543:0:0:0:0:
182,192,315387,128,0,315699:0:0:0:0:
329,192,315387,128,0,315699:0:0:0:0:
36,192,315543,128,0,315856:0:0:0:0:
475,192,315543,128,0,315856:0:0:0:0:
402,192,315699,128,0,316012:0:0:0:0:
109,192,315699,128,0,316012:0:0:0:0:
182,192,315856,128,0,316168:0:0:0:0:
329,192,315856,128,0,316168:0:0:0:0:
36,192,316012,128,0,316324:0:0:0:0:
475,192,316012,128,0,316324:0:0:0:0:
109,192,316168,128,0,316324:0:0:0:0:
402,192,316168,128,0,316324:0:0:0:0:
182,192,316324,128,0,316637:0:0:0:0:
329,192,316402,128,0,316793:0:0:0:0:
256,192,316481,128,0,321324:0:0:0:0:
36,192,316481,1,0,0:0:0:0:
475,192,316481,1,4,0:0:0:0:
109,192,316637,128,0,316949:0:0:0:0:
475,192,316793,128,0,317106:0:0:0:0:
36,192,316949,128,0,317262:0:0:0:0:
402,192,317106,128,0,317418:0:0:0:0:
182,192,317262,128,0,317574:0:0:0:0:
329,192,317418,128,0,317731:0:0:0:0:
109,192,317574,1,0,0:0:0:0:
402,192,317574,1,4,0:0:0:0:
36,192,317574,128,0,317887:0:0:0:0:
475,192,317731,128,0,318043:0:0:0:0:
329,192,317887,128,0,318199:0:0:0:0:
182,192,318043,128,0,318356:0:0:0:0:
475,192,318199,128,0,318512:0:0:0:0:
329,192,318356,128,0,318668:0:0:0:0:
36,192,318512,128,0,318824:0:0:0:0:
182,192,318668,128,0,318981:0:0:0:0:
329,192,318824,128,0,319137:0:0:0:0:
109,192,318981,128,0,319293:0:0:0:0:
402,192,318981,128,0,319293:0:0:0:0:
475,192,318981,1,4,0:0:0:0:
36,192,318981,1,0,0:0:0:0:
475,192,319137,128,0,319449:0:0:0:0:
182,192,319137,128,0,319449:0:0:0:0:
36,192,319293,128,0,319606:0:0:0:0:
329,192,319293,128,0,319606:0:0:0:0:
109,192,319449,128,0,319762:0:0:0:0:
402,192,319449,128,0,319762:0:0:0:0:
182,192,319606,128,0,319918:0:0:0:0:
475,192,319606,128,0,319918:0:0:0:0:
36,192,319762,128,0,320074:0:0:0:0:
329,192,319762,128,0,320074:0:0:0:0:
109,192,319918,1,0,0:0:0:0:
402,192,319918,1,4,0:0:0:0:
182,192,320074,1,0,0:0:0:0:
475,192,320074,1,4,0:0:0:0:
109,192,320231,128,0,320543:0:0:0:0:
402,192,320231,128,0,320543:0:0:0:0:
36,192,320387,128,0,320699:0:0:0:0:
329,192,320387,128,0,320699:0:0:0:0:
475,192,320543,128,0,320856:0:0:0:0:
182,192,320543,128,0,320856:0:0:0:0:
402,192,320699,128,0,321012:0:0:0:0:
109,192,320699,128,0,321012:0:0:0:0:
36,192,320856,128,0,321168:0:0:0:0:
329,192,320856,128,0,321168:0:0:0:0:
182,192,321012,128,0,321324:0:0:0:0:
475,192,321012,128,0,321324:0:0:0:0:
109,192,321168,128,0,321324:0:0:0:0:
402,192,321168,128,0,321324:0:0:0:0:
36,192,321324,1,0,0:0:0:0:
329,192,321324,1,0,0:0:0:0:
256,192,321481,1,0,0:0:0:0:
36,192,321481,1,0,0:0:0:0:
475,192,321481,1,0,0:0:0:0:
256,192,321637,1,0,0:0:0:0:
36,192,321637,1,0,0:0:0:0:
475,192,321637,1,0,0:0:0:0:
36,192,321949,1,0,0:0:0:0:
475,192,321949,1,0,0:0:0:0:
256,192,321949,1,0,0:0:0:0:
475,192,322106,1,0,0:0:0:0:
256,192,322106,1,0,0:0:0:0:
36,192,322106,1,0,0:0:0:0:
256,192,322418,1,0,0:0:0:0:
475,192,322418,1,0,0:0:0:0:
36,192,322418,1,0,0:0:0:0:
36,192,322574,1,0,0:0:0:0:
256,192,322574,1,0,0:0:0:0:
475,192,322574,1,0,0:0:0:0:
36,192,322887,1,0,0:0:0:0:
475,192,322887,1,0,0:0:0:0:
256,192,322887,1,0,0:0:0:0:
475,192,323043,1,0,0:0:0:0:
256,192,323043,1,0,0:0:0:0:
36,192,323043,1,0,0:0:0:0:
475,192,323356,128,0,323668:0:0:0:0:
36,192,323356,128,0,323668:0:0:0:0:
256,192,323356,1,0,0:0:0:0:
182,192,323668,128,0,323981:0:0:0:0:
329,192,323668,128,0,323981:0:0:0:0:
256,192,323668,1,0,0:0:0:0:
256,192,323981,1,0,0:0:0:0:
475,192,323981,1,0,0:0:0:0:
36,192,323981,1,0,0:0:0:0:
36,192,324137,1,0,0:0:0:0:
256,192,324137,1,0,0:0:0:0:
475,192,324137,1,0,0:0:0:0:
36,192,324449,1,0,0:0:0:0:
475,192,324449,1,0,0:0:0:0:
256,192,324449,1,0,0:0:0:0:
475,192,324606,1,0,0:0:0:0:
256,192,324606,1,0,0:0:0:0:
36,192,324606,1,0,0:0:0:0:
256,192,324918,1,0,0:0:0:0:
475,192,324918,1,0,0:0:0:0:
36,192,324918,1,0,0:0:0:0:
36,192,325074,1,0,0:0:0:0:
256,192,325074,1,0,0:0:0:0:
475,192,325074,1,0,0:0:0:0:
36,192,325387,1,0,0:0:0:0:
475,192,325387,1,0,0:0:0:0:
256,192,325387,1,0,0:0:0:0:
475,192,325543,1,0,0:0:0:0:
256,192,325543,1,0,0:0:0:0:
36,192,325543,1,0,0:0:0:0:
182,192,325856,1,0,0:0:0:0:
475,192,325856,1,0,0:0:0:0:
36,192,325856,1,0,0:0:0:0:
36,192,326012,1,0,0:0:0:0:
329,192,326012,1,0,0:0:0:0:
475,192,326012,1,0,0:0:0:0:
109,192,326168,128,0,328356:0:0:0:0:
256,192,326168,1,8,0:0:0:0:
36,192,326168,1,0,0:0:0:0:
475,192,326168,1,0,0:0:0:0:
402,192,326168,128,0,328356:0:0:0:0:
256,192,328356,1,4,0:0:0:0:
475,192,328356,1,8,0:0:0:0:
36,192,328356,1,0,0:0:0:0:
329,192,328356,128,0,333981:0:0:0:0:
182,192,328356,128,0,336481:0:0:0:0:
