osu file format v9

[General]
AudioFilename: Ayane - Endless Tears..mp3
AudioLeadIn: 0
PreviewTime: 57584
Countdown: 0
SampleSet: Normal
StackLeniency: 0.7
Mode: 1
LetterboxInBreaks: 0
EpilepsyWarning: 1

[Editor]
Bookmarks: 97544,77741,89064,93264,125709,151894,157954,162714,167894,266396,279104,305458,82874
DistanceSpacing: 0.3
BeatDivisor: 4
GridSize: 16

[Metadata]
Title:Endless Tears...
Artist:Ayane
Creator:lkp
Version:Taiko Oni
Source:11eyes CrossOver
Tags:Beuchi-chan Louis Cyphre aesopl19193 ignorethis koko6162006 lass 5pb.games

[Difficulty]
HPDrainRate:5
CircleSize:4
OverallDifficulty:5
ApproachRate:5
SliderMultiplier:1.4
SliderTickRate:0.5

[Events]
//Background and Video events
0,0,"1d77fdd9173723a38fa84502b11cf0567.jpg"
//Break Periods
2,170597,184197
//Storyboard Layer 0 (Background)
Sprite,Background,Centre,"1d77fdd9173723a38fa84502b11cf0567.jpg",320,240 F,0,0,,1 F,0,1647,4147,1,0
Sprite,Background,Centre,"SB\BG Logo.jpg",320,240 F,0,10397,,1 S,0,10397,,1 F,0,25395,25396,1,0 F,0,326083,328271,0,1 S,0,326083,328271,1.1,1 F,0,335146,336396,1,0
Sprite,Background,Centre,"SB\1.jpg",320,240 M,0,25397,35709,256,240,384,240
Sprite,Background,Centre,"SB\2.jpg",320,240 F,0,35397,35709,0,1 M,0,35397,45709,422,240,212,240 F,0,35709,,1
Sprite,Background,Centre,"SB\3 - Green.jpg",320,240 F,0,45397,45709,0,1 M,1,45397,55396,217,240,426,240
Sprite,Background,Centre,"SB\3 - Cut.jpg",320,240 M,0,55397,57115,320,240 M,0,57115,,320,240
Sprite,Background,Centre,"SB\3 - Red.jpg",320,240 F,0,55397,55553,0,0.25 F,0,55553,55709,0.25,0 F,0,55865,56022,0,0.5 F,0,56022,56178,0.5,0 F,0,56334,56490,0,0.75 F,0,56490,56647,0.75,0 F,0,56803,56959,0,1 F,0,56959,57115,1 F,0,57428,,1
Sprite,Background,Centre,"SB\3 - Zoom.jpg",320,240 F,0,57272,57428,0,1 S,1,57272,57584,1,1.1024 F,0,57428,57584,1,0
Sprite,Background,Centre,"SB\4 - 1.jpg",320,240 F,0,57818,57897,0,1 S,0,57818,70397,1,0.8854058 S,0,70397,,0.8854058
Sprite,Background,Centre,"SB\4 - 3.jpg",320,240 S,0,69147,,0.8967933 F,0,69147,70397,0,1 S,0,69147,77272,0.8967933,0.8227749 S,0,77272,,0.8227749
Sprite,Background,Centre,"SB\4 - 4.jpg",320,240 S,0,75397,,0.839856 F,0,75397,77272,0,1 S,0,75397,79772,0.839856,0.8 F,0,77272,,1
Sprite,Background,Centre,"SB\4 - 5.jpg",320,240 S,0,77897,,0.8170812 F,0,77897,79772,0,1 S,0,77897,79772,0.8170812,0.8 F,0,79772,79928,1,0 S,0,79772,79928,0.8,0.87168
Sprite,Background,Centre,"SB\5.jpg",320,240 F,0,80318,80397,0,1 M,0,80318,85709,320,177,320,300
Sprite,Background,Centre,"SB\6.jpg",320,240 F,0,85397,85709,0,1 M,0,85397,90709,400,240,242,240
Sprite,Background,Centre,"SB\7.jpg",320,240 F,0,90397,90709,0,1 M,0,90397,100397,251,240,391,240 F,0,99772,100397,1,0
Sprite,Background,Centre,"SB\9.jpg",320,240 M,0,115397,125709,425,240,213,240
Sprite,Background,Centre,"SB\10.jpg",320,240 F,0,125397,125709,0,1 M,0,125397,135709,241,240,400,240
Sprite,Background,Centre,"SB\11 - Crystal.jpg",320,240 F,0,135397,135709,0,1 M,1,135397,145396,400,240,239,240
Sprite,Background,Centre,"SB\11 - Cut.jpg",320,240 M,0,145397,147272,320,240
Sprite,Background,Centre,"SB\11 - Broken.jpg",320,240 F,1,145397,147272,0,1 F,0,147428,,1
Sprite,Background,Centre,"SB\11 - Zoom.jpg",320,240 F,0,147272,147428,0,1 S,1,147272,147584,1,1.1024 F,0,147428,147584,1,0
Sprite,Background,Centre,"SB\12 - 1.jpg",320,240 F,0,147818,147897,0,1 S,0,147818,159147,1,0.8967933 S,0,159147,,0.8967933
Sprite,Background,Centre,"SB\12 - 2.jpg",320,240 S,0,157897,,0.9081808 F,0,157897,159147,0,1 S,0,157897,161647,0.9081808,0.8740184 S,0,161647,,0.8740184
Sprite,Background,Centre,"SB\12 - 3.jpg",320,240 S,0,160318,,0.8861256 F,0,160318,161647,0,1 S,0,160318,166669,0.8861256,0.8282682 S,0,166669,,0.8282682
Sprite,Background,Centre,"SB\12 - 4.jpg",320,240 S,0,165397,,0.8398561 F,0,165397,166647,0,1 S,0,165397,169772,0.8398561,0.8 F,0,169772,170084,1,0 S,0,169772,170084,0.8,0.87168
Sprite,Background,Centre,"SB\13.jpg",320,240 F,0,170397,172897,0,1 M,0,170397,190397,240,240,397,240 F,0,187897,190397,1,0
Sprite,Background,Centre,"SB\14.jpg",320,240 M,0,190397,,320,240 F,0,190397,190553,0,1 S,1,190397,190709,1,1.1 S,0,190709,195709,1.1,1
Sprite,Background,Centre,"SB\15.jpg",320,240 F,0,195397,195709,0,1 M,0,195397,200709,432,237,256,241 S,0,195397,200709,1.1,0.95
Sprite,Background,Centre,"SB\16.jpg",320,240 F,0,200397,200709,0,1 M,0,200397,205709,351,103,312,337 S,0,200397,205709,1.25,1.15
Sprite,Background,Centre,"SB\17 - 1.jpg",320,240 F,0,205397,205709,0,1 M,0,205397,212897,424,240,268,240 M,0,212897,,268,235 F,0,212897,,1
Sprite,Background,Centre,"SB\17 - 2.jpg",320,240 M,0,205397,215397,424,240,216,240 F,0,207897,212897,0,1 F,0,212897,215397,1,0
Sprite,Background,Centre,"SB\18.jpg",320,240 F,0,220695,222273,0,0.6 S,0,220695,228589,1,0.85664 R,0,220695,228589,0,-0.1433603 F,0,227010,228589,0.6,0
Sprite,Background,Centre,"SB\19.jpg",320,240 F,0,227010,228589,0,0.6 M,0,227010,234905,399,240,241,240 F,0,233326,234905,0.6,0
Sprite,Background,Centre,"SB\21.jpg",320,240 F,0,233326,234905,0,0.6 M,0,233326,241221,243,240,398,240 F,0,239642,241221,0.6,0
Sprite,Background,Centre,"SB\22.jpg",320,240 F,0,239642,241221,0,0.6 S,0,239642,247537,1,0.8 F,0,245958,247537,0.6,0
Sprite,Background,Centre,"SB\23 - 1.jpg",320,240 F,0,248817,248896,0,1 M,0,248817,259051,424,240,216,240
Sprite,Background,Centre,"SB\24 - 1.jpg",320,240 F,0,258739,259051,0,1 M,0,258739,270771,216,240,425,240
Sprite,Background,Centre,"SB\24 - 2.jpg",320,240 M,0,268896,,392,240 M,0,268896,270771,392,240,425,240 F,0,268896,270771,0,1 F,0,270771,271083,1,0 S,0,270771,271083,1,1.13312
Sprite,Background,Centre,"SB\25.jpg",320,240 F,0,271317,271396,0,1 M,0,271317,276551,320,284,320,201 S,0,271317,276551,1,0.95
Sprite,Background,Centre,"SB\26.jpg",320,240 F,0,276239,276551,0,1 M,0,276239,281551,244,240,396,240
Sprite,Background,Centre,"SB\27.jpg",320,240 F,0,281239,281551,0,1 S,0,281239,286708,0.8,1
Sprite,Background,Centre,"SB\28.jpg",320,240 F,0,286396,286708,0,1 S,0,286396,291396,1,0.5 R,0,286396,291396,0,-1.9 F,0,290146,291396,1,0
Sprite,Background,Centre,"SB\29.jpg",320,240 F,0,291396,291708,0,1 M,0,291396,299208,320,100,320,378 F,0,291708,,1
Sprite,Background,Centre,"SB\31.jpg",320,240 F,0,298896,299208,0,1 M,0,298896,306708,424,240,217,240
Sprite,Background,Centre,"SB\32.jpg",320,240 F,0,306396,306708,0,1 S,0,306396,311396,1,0.8 F,0,310771,311396,1,0
Sprite,Background,Centre,"SB\33.jpg",320,240 F,0,311396,311708,0,1 M,0,311396,313896,229,240,415,240 F,0,313583,313896,1,0
Sprite,Background,Centre,"SB\34.jpg",320,240 F,0,313896,314208,0,1 M,0,313896,316396,422,240,219,240 F,0,316083,316396,1,0
Sprite,Background,Centre,"SB\35.jpg",320,240 F,0,316396,316708,0,1 M,0,316396,318896,245,240,396,240 F,0,318583,318896,1,0
Sprite,Background,Centre,"SB\36.jpg",320,240 F,0,318896,319208,0,1 M,0,318896,321396,395,240,244,240 F,0,321083,321396,1,0
Sprite,Background,Centre,"SB\37.jpg",320,240 F,0,321396,321552,0,1 S,0,321396,321552,1.05,1 S,0,321708,321864,1,1.05 S,0,321864,322021,1.05,1 S,0,322177,322333,1,1.05 S,0,322333,322489,1.05,1 S,0,322646,322802,1,1.05 S,0,322802,322958,1.05,1 F,0,323271,323583,1,0 S,0,323271,323583,1,1.1
Sprite,Background,Centre,"SB\38.jpg",320,240 F,0,323896,324052,0,1 S,0,323896,324052,1.05,1 S,0,324208,324364,1,1.05 S,0,324364,324521,1.05,1 S,0,324677,324833,1,1.05 S,0,324833,324989,1.05,1 S,0,325146,325302,1,1.05 S,0,325302,325458,1.05,1 F,0,325771,327646,1,0 S,0,325771,327646,1,1.1
//Storyboard Layer 1 (Fail)
Sprite,Fail,Centre,"SB\8 - 2.jpg",320,240 F,0,100397,101647,0,1 M,0,100397,115396,320,163,320,312
//Storyboard Layer 2 (Pass)
Sprite,Pass,Centre,"SB\4 - 2.jpg",320,240 F,0,57818,57897,0,1 S,0,57818,69147,1,0.8967933 F,0,57897,58522,1,0 F,0,60318,60397,0,1 F,0,60397,60709,1,0 F,0,60943,61022,0,1 F,0,61022,61334,1,0 F,0,61412,61490,0,1 F,0,61490,62115,1,0 F,0,62662,62740,0,1 F,0,62740,64147,1,0 F,0,62740,64147,1,0 F,0,65318,65397,0,1 F,0,65397,65709,1,0 F,0,65943,66022,0,1 F,0,66022,66334,1,0 F,0,66412,66490,0,1 F,0,66490,67115,1,0 F,0,67662,67740,0,1 F,0,67740,69147,1,0
Sprite,Pass,Centre,"SB\4 - 4.jpg",320,240 F,0,70318,70397,0,1 S,0,70397,,0.8854058 F,0,70397,70865,1,0 S,0,70397,75397,0.8854058,0.839856 F,0,70943,71022,0,1 F,0,71022,71490,1,0 F,0,71568,71647,0,1 F,0,71647,72740,1,0 S,0,75397,,0.839856
Sprite,Pass,Centre,"SB\8 - 1.jpg",320,240 F,0,100397,101647,0,1 M,0,100397,115396,320,163,320,312
Sprite,Pass,Centre,"SB\12 - 2.jpg",320,240 F,0,147818,147897,0,1 S,0,147818,157272,1,0.9138744 F,0,147897,148522,1,0 F,0,150318,150397,0,1 F,0,150397,150709,1,0 F,0,150943,151022,0,1 F,0,151022,151334,1,0 F,0,151412,151490,0,1 F,0,151490,152115,1,0 F,0,152662,152740,0,1 F,0,152740,154147,1,0 F,0,155318,155397,0,1 F,0,155397,155709,1,0 F,0,155943,156022,0,1 F,0,156022,156334,1,0 F,0,156412,156490,0,1 F,0,156490,157272,1,0 S,0,157272,,0.9138744
Sprite,Pass,Centre,"SB\23 - 2.jpg",320,240 F,0,248817,248896,0,1 M,0,248817,258271,424,240,234,240 F,0,248896,249521,1,0 F,0,251317,251396,0,1 F,0,251396,251708,1,0 F,0,251942,252021,0,1 F,0,252021,252333,1,0 F,0,252411,252489,0,1 F,0,252489,253271,1,0 F,0,253661,253739,0,1 F,0,253739,255146,1,0 F,0,256317,256396,0,1 F,0,256396,256708,1,0 F,0,256942,257021,0,1 F,0,257021,257333,1,0 F,0,257411,257489,0,1 F,0,257489,258271,1,0 M,0,258271,,234,240
Sprite,Pass,Centre,"SB\24 - 2.jpg",320,240 F,0,258739,259051,0,1 M,0,258739,267646,216,240,370,240 F,0,259051,259989,1,0 F,0,261321,261396,0,1 F,0,261396,261708,1,0 F,0,261942,262021,0,1 F,0,262021,262333,1,0 F,0,262567,262646,0,1 F,0,262646,263271,1,0 F,0,263817,263896,0,1 F,0,263896,264521,1,0 F,0,264755,264833,0,1 F,0,264833,265771,1,0 F,0,266317,266396,0,1 F,0,266396,267646,1,0 M,0,267646,,370,240
//Storyboard Layer 3 (Foreground)
Sprite,Foreground,Centre,"SB\koko6162006.png",320,240 M,0,16647,,449,78 S,0,16647,,1.2 F,0,16647,17272,0,1 F,0,20397,21647,1,0
Sprite,Foreground,Centre,"SB\Feather 2.png",320,240 S,0,11022,,0.8 M,0,11022,22897,62,-60,142,540 R,0,11022,22897,0,1.67936
Sprite,Foreground,Centre,"SB\Feather 2.png",320,240 S,0,11022,,0.4 M,0,11022,17897,311,-55,472,544 R,0,11022,17897,0,-2.7648
Sprite,Foreground,Centre,"SB\Feather 2.png",320,240 S,0,15397,,0.4 M,0,15397,24772,418,-62,564,542 R,0,15397,24772,0.08192017,3.235841
Sprite,Foreground,Centre,"SB\Feather 2.png",320,240 M,0,16334,25084,303,-59,363,542 R,0,16959,24147,2.33472,3.338239
Sprite,Foreground,Centre,"SB\Feather 1.png",320,240 S,0,11647,,0.8 M,0,11647,22272,511,-79,350,556 R,0,11647,22272,0,-1.444863 R,0,22272,,-2.202624
Sprite,Foreground,Centre,"SB\Feather 1.png",320,240 S,0,16647,,0.5 M,0,16647,24772,138,-106,138,564 R,0,16647,24772,1.35168,0.1433603
Sprite,Foreground,Centre,"SB\Feather 1.png",320,240 S,0,11022,,0.5 M,0,11022,17584,505,-80,166,564 R,0,11022,17584,0,3.502081
Sprite,Foreground,Centre,"SB\Feather 1.png",320,240 S,0,13522,,0.4 M,0,13522,21647,229,-78,215,562 R,0,13522,21647,2.08896,0.3891205
Sprite,Foreground,Centre,"SB\BG Color.jpg",320,240 F,0,5397,6022,0.2,0 C,0,5397,9771,99,18,1 F,0,6647,7272,0.2,0 F,0,7897,8052,0.2,0 F,0,8053,8209,0.2,0 F,0,9147,9772,0.2,0 C,0,9771,,255,255,255 F,0,9772,10397,0,1 F,0,10397,11022,1,0 F,0,11647,12272,0.15,0 F,0,15397,16022,0.15,0 F,0,180397,182897,0.2,0 F,0,328271,332646,0.5,0 T,Passing,100397,115397 F,0,0,210,0.7,0 T,Failing,100397,115397 F,0,0,210,0.7,0
Sprite,Foreground,Centre,"SB\Light big.png",320,240 L,114772,1 F,0,0,625,0,1 S,0,0,625,0.1,2.18784 F,0,625,1250,1,0 F,0,24772,25397,0,1 S,0,24772,25397,0.1,2.18784 F,0,25397,26022,1,0
Sprite,Foreground,Centre,"SB\Artist.png",320,240 S,0,11647,,1.2 M,1,11647,11959,-65,160,227,159 M,0,11959,14147,227,159,345,159 M,2,14147,14459,345,159,701,157
Sprite,Foreground,Centre,"SB\Title.png",320,240 S,0,11647,,1.2 M,1,11647,11959,757,335,393,330 M,0,11959,14147,393,330,303,331 M,2,14147,14459,303,331,-119,339
Sprite,Foreground,Centre,"SB\Beatmap by.png",320,240 S,0,15397,,1.2 M,1,15397,15709,-99,84,160,83 F,0,20397,21647,1,0
Sprite,Foreground,Centre,"SB\Storyboard by.png",320,240 S,0,17897,,1.2 M,1,17897,18209,-114,395,178,398 F,0,20397,21647,1,0
Sprite,Foreground,Centre,"SB\Beuchi-chan.png",320,240 M,0,18834,,451,399 S,0,18834,,1.2 F,0,18834,19459,0,1 F,0,20397,21647,0.984,0
Sprite,Foreground,Centre,"SB\Feather 2.png",320,240 M,0,217897,221089,321,-63,322,550 R,0,217897,221089,0,-2.826238
//Storyboard Sound Samples
//Background Colour Transformations
3,100,163,162,255

[TimingPoints]
5397,312.5,4,1,0,80,1,0
57584,-100,4,1,0,80,0,0
57897,-100,4,1,0,80,0,1
79928,-100,4,1,0,78,0,0
147897,-100,4,1,0,78,0,1
169928,-100,4,1,0,79,0,0
170397,-100,4,1,0,39,0,0
189147,-100,4,1,0,79,0,0
212897,-100,4,1,0,30,0,0
217897,-100,4,1,0,32,0,0
220285,394.736842105263,4,1,0,31,1,0
220695,394.736842105263,4,1,0,29,1,0
242599,-100,4,1,0,22,0,0
248583,312.5,4,1,0,23,1,0
248896,-100,4,1,0,77,0,1
271396,-100,4,1,0,80,0,0
311396,-100,4,1,0,78,0,0
321396,-100,4,1,0,79,0,0

[Colours]
Combo1 : 221,0,0
Combo2 : 227,227,227

[HitObjects]
264,104,5397,1,4
240,224,5553,1,0
376,240,5865,1,0
208,328,6178,1,0
144,208,6490,1,0
160,152,6647,1,4
296,112,6959,1,8
240,240,7272,1,8
240,272,7584,1,8
336,304,7740,1,8
288,184,7897,1,4
192,208,8053,1,4
136,224,8209,1,4
80,160,8365,1,0
280,304,8678,1,0
168,352,8990,1,0
168,352,9147,1,4
192,168,9459,1,0
192,208,9772,1,4
272,192,9928,1,0
264,240,10006,1,0
256,272,10084,1,8
224,272,10162,1,8
192,248,10240,1,8
192,248,10318,1,8
112,168,10397,1,0
376,208,10553,1,0
320,248,10709,1,8
304,128,10787,1,8
280,312,10865,1,0
304,128,10943,1,0
224,336,11022,1,8
224,272,11178,1,0
128,256,11334,1,8
136,192,11490,1,0
136,192,11647,1,0
136,192,11803,1,0
256,248,11881,1,0
136,192,11959,1,8
136,192,12115,1,0
136,192,12272,1,0
136,192,12350,1,0
136,192,12428,1,8
160,216,12584,1,8
264,224,12740,1,0
264,224,12897,1,8
264,224,13053,1,0
264,224,13131,1,0
264,224,13209,1,8
264,224,13365,1,0
264,224,13522,1,0
264,224,13678,1,0
208,208,13756,1,0
264,224,13834,1,8
264,224,13990,1,0
264,224,14147,1,0
264,224,14303,1,0
264,224,14459,1,8
264,224,14615,1,8
264,224,14772,1,0
264,224,14928,1,0
264,224,15084,1,8
352,384,15240,1,0
264,224,15397,1,12
264,224,15553,1,0
264,224,15709,1,0
264,224,15865,1,8
264,224,15943,1,8
264,224,16022,1,0
144,144,16100,1,0
264,224,16178,1,8
264,224,16334,1,8
264,224,16490,1,0
264,224,16647,1,8
264,224,16803,1,0
264,224,16881,1,0
264,224,16959,1,8
264,224,17115,1,0
264,224,17193,1,0
264,224,17272,1,8
264,224,17428,1,0
264,224,17584,1,8
264,224,17740,1,8
264,224,17897,1,0
296,256,18053,1,0
360,192,18131,1,0
296,256,18209,1,8
296,256,18365,1,0
336,224,18522,1,8
336,224,18678,1,0
184,152,18834,1,8
208,184,18990,1,0
224,224,19147,1,8
184,216,19303,1,8
184,256,19459,1,0
184,288,19615,1,0
184,288,19772,1,8
184,288,19928,1,0
184,288,20006,1,0
184,288,20084,1,8
184,288,20240,1,8
184,288,20397,1,4
296,272,20709,1,8
296,272,21022,1,4
296,272,21178,1,8
296,272,21490,1,4
296,272,21803,1,8
296,272,21959,1,8
296,272,22115,1,0
304,224,22272,1,0
304,224,22428,1,8
304,224,22584,1,8
304,224,22897,1,4
304,224,23053,1,0
304,224,23209,1,12
304,224,23522,1,0
304,224,23678,1,8
304,224,23990,1,12
304,224,24303,1,0
304,224,24459,1,8
304,224,24772,1,0
304,224,24928,1,0
304,224,25084,1,8
312,280,25240,1,0
312,280,25397,1,0
304,224,25553,1,0
160,176,25631,1,0
304,224,25709,1,8
304,224,25865,1,0
304,224,26022,1,8
352,264,26178,1,8
352,264,26334,1,0
312,280,26490,1,0
312,280,26647,1,8
312,280,26803,1,0
304,224,26881,1,0
312,280,26959,1,8
272,240,27272,1,0
352,264,27428,1,0
352,264,27584,1,8
352,264,27740,1,0
296,240,27897,1,0
272,240,28053,1,0
272,240,28131,1,0
312,280,28209,1,8
312,280,28365,1,8
312,280,28522,1,0
312,280,28678,1,8
312,280,28834,1,0
296,240,28990,1,12
192,128,29303,1,8
192,128,29459,1,0
272,240,29615,1,8
272,208,29772,1,0
272,240,29928,1,8
272,208,30006,1,8
272,240,30084,1,8
272,240,30240,1,8
248,264,30397,1,0
232,168,30553,1,0
368,176,30631,1,0
272,240,30709,1,8
248,264,30865,1,0
248,264,31022,1,8
232,168,31178,1,0
256,144,31256,1,0
232,216,31334,1,8
232,216,31490,1,8
232,216,31647,1,0
232,216,31803,1,0
248,264,31959,1,8
312,288,32115,1,8
312,288,32272,1,0
312,288,32428,1,0
296,232,32584,1,8
296,232,32662,1,8
232,192,32740,1,0
232,192,32818,1,8
232,192,32897,1,0
232,192,33053,1,4
232,192,33209,1,12
288,240,33365,1,8
296,232,33443,1,0
288,240,33522,1,8
288,240,33678,1,4
288,240,33834,1,12
288,240,33990,1,0
288,240,34068,1,8
288,240,34147,1,8
288,240,34303,1,4
288,240,34459,1,12
288,240,34615,1,0
288,240,34772,1,8
288,240,34850,1,8
288,240,34928,1,8
288,240,35006,1,0
288,240,35084,1,8
288,240,35240,1,8
288,240,35397,1,0
312,280,35553,1,0
288,240,35631,1,0
304,224,35709,1,8
304,224,35865,1,0
288,240,35943,1,0
304,224,36022,1,8
304,224,36178,1,8
352,264,36334,1,8
352,264,36490,1,0
312,280,36647,1,8
312,280,36803,1,0
312,280,36881,1,8
312,280,36959,1,0
312,280,37115,1,0
272,208,37272,1,8
272,240,37428,1,8
352,264,37584,1,8
352,264,37740,1,0
312,280,38053,1,0
272,240,38209,1,8
312,280,38365,1,0
304,272,38443,1,0
312,280,38522,1,0
312,280,38678,1,8
312,280,38834,1,8
312,280,38990,1,0
144,128,39068,1,0
296,240,39147,1,0
248,160,39225,1,8
312,280,39303,1,8
296,240,39459,1,8
296,240,39615,1,0
272,240,39772,1,8
248,160,39850,1,8
272,208,39928,1,8
272,240,40084,1,8
272,240,40240,1,8
272,240,40397,1,0
248,264,40553,1,0
176,88,40631,1,0
232,168,40709,1,8
272,240,40865,1,8
248,264,41022,1,0
248,264,41178,1,0
272,240,41256,1,0
232,168,41334,1,8
232,216,41490,1,0
232,216,41647,1,0
232,216,41803,1,0
232,216,41959,1,8
320,184,42115,1,0
312,288,42272,1,8
312,288,42428,1,0
320,184,42584,1,8
264,272,42662,1,8
264,272,42740,1,0
264,272,42818,1,8
264,272,42897,1,0
264,272,43053,1,4
288,208,43209,1,12
320,264,43365,1,8
320,264,43443,1,0
288,208,43522,1,8
288,152,43678,1,4
288,152,43834,1,12
320,264,43990,1,0
224,176,44068,1,8
320,264,44147,1,8
320,264,44303,1,0
224,176,44459,5,8
232,208,44537,1,8
248,272,44615,1,0
160,264,44693,1,0
112,176,44772,1,8
192,56,44850,1,8
320,112,44928,1,8
384,208,45006,1,8
304,272,45084,1,0
176,304,45162,1,0
192,128,45240,1,0
152,104,45318,1,0
320,112,45397,1,8
264,200,45709,1,0
248,272,45865,1,8
248,272,46022,1,8
248,272,46334,1,8
264,200,46647,1,0
264,200,46803,1,0
264,200,46959,1,8
264,200,47115,1,0
264,200,47428,1,0
288,264,47584,1,8
248,272,47897,1,12
248,272,48209,1,12
248,272,48365,1,0
248,272,48678,1,0
256,160,48834,1,8
328,304,48990,1,0
328,304,49303,1,0
328,304,49459,1,8
352,208,49615,1,8
248,272,49772,1,8
248,272,49928,1,8
248,272,50084,1,0
248,272,50240,1,0
248,272,50397,1,8
248,272,50553,1,0
248,272,50709,1,8
280,256,51022,1,8
280,256,51178,1,0
248,168,51334,1,8
248,272,51647,1,0
248,272,51803,1,0
248,272,51959,1,8
320,296,52115,1,0
288,288,52272,1,8
280,248,52428,1,0
280,248,52584,1,8
320,296,52740,1,4
280,248,53053,1,0
280,248,53209,1,0
280,248,53522,1,0
280,248,53678,1,0
280,248,53834,1,8
232,240,54147,1,0
232,240,54303,1,0
232,240,54459,1,8
232,240,54615,1,0
232,240,54772,1,0
232,240,54928,1,0
232,240,55084,1,8
304,272,55240,1,0
224,192,55318,1,0
264,232,55397,5,8
264,232,55709,1,4
264,232,55865,1,8
264,200,56178,1,4
240,128,56334,1,8
240,128,56647,1,4
240,128,56803,1,8
304,160,56881,1,8
264,232,56959,1,0
264,232,57115,1,8
264,232,57272,1,8
128,192,57584,1,8
304,328,57897,5,4
288,192,58053,1,0
288,192,58209,1,8
288,192,58365,1,8
336,216,58522,1,0
336,216,58678,1,0
192,176,58756,1,0
336,216,58834,1,8
336,216,58990,1,0
176,240,59303,1,0
288,192,59381,1,0
176,240,59459,1,8
144,120,59615,1,0
144,120,59772,1,8
240,128,59928,1,0
272,152,60084,1,8
240,256,60162,1,8
272,272,60240,1,0
192,176,60318,1,0
272,272,60397,1,8
272,272,60553,1,8
272,272,60709,1,8
392,168,60865,1,0
144,192,60943,1,0
392,168,61022,1,8
368,248,61178,1,0
368,248,61334,1,0
368,248,61490,1,8
232,280,61803,1,8
232,280,61959,1,8
232,280,62115,1,8
232,280,62272,1,0
232,280,62428,1,0
312,272,62506,1,0
232,280,62584,1,8
312,272,62740,1,8
312,272,62897,1,4
312,272,63053,1,0
256,144,63131,1,0
312,272,63209,1,8
312,272,63365,1,0
312,272,63522,1,8
312,272,63678,1,8
320,160,63756,1,8
312,272,63834,1,0
312,272,63990,1,8
280,176,64303,1,0
312,272,64381,1,0
224,192,64459,1,8
224,192,64615,1,0
224,192,64772,1,8
224,192,64928,1,0
288,240,65006,1,0
224,192,65084,1,8
160,208,65162,1,0
224,192,65240,1,8
224,192,65397,1,8
224,192,65553,1,0
224,192,65709,1,8
224,192,65865,1,0
280,176,65943,1,0
224,192,66022,1,8
224,192,66178,1,0
224,192,66334,1,8
224,192,66490,1,0
224,192,66803,1,0
256,208,66959,5,8
208,264,67037,1,8
208,264,67115,1,0
80,192,67193,1,0
104,144,67272,1,8
168,104,67350,1,8
208,112,67428,1,0
208,112,67506,1,0
208,112,67584,1,8
224,192,67662,1,0
256,208,67740,1,8
224,192,67897,1,8
304,208,68053,1,0
304,208,68131,1,0
304,208,68209,1,8
304,208,68365,1,8
304,208,68522,1,0
304,208,68678,1,8
256,208,68756,1,8
272,168,68834,1,0
256,208,68990,1,0
288,272,69303,1,0
208,192,69381,1,0
336,240,69459,1,8
288,272,69615,1,0
288,272,69772,1,8
288,272,69928,1,8
224,144,70006,1,8
256,136,70084,1,0
272,168,70240,1,8
272,168,70397,1,8
272,168,70553,1,8
272,168,70631,1,8
272,168,70709,1,8
272,168,70865,1,8
272,168,71022,1,8
272,168,71178,1,0
272,168,71256,1,8
256,136,71334,1,0
288,272,71490,1,8
320,288,71647,1,8
320,288,71803,1,0
256,136,71881,1,0
320,288,71959,1,8
320,288,72115,1,8
176,128,72272,1,0
240,264,72350,1,0
240,264,72428,1,0
240,264,72506,1,0
240,264,72584,1,8
240,264,72662,1,8
240,264,72740,1,8
240,264,72818,1,8
240,264,72897,1,0
280,248,73053,1,0
280,248,73209,1,8
280,248,73365,1,0
256,176,73522,1,8
256,176,73678,1,8
256,176,73834,1,0
256,208,73912,1,0
256,176,73990,1,0
192,176,74068,1,0
256,176,74147,1,8
256,176,74303,1,0
288,208,74381,1,0
256,176,74459,1,8
256,208,74615,1,8
256,208,74772,1,0
256,208,74928,1,0
256,208,75084,1,0
256,208,75240,1,0
256,208,75397,1,8
288,208,75553,1,0
288,208,75709,1,0
256,176,75865,1,8
320,296,76022,5,8
224,96,76178,5,0
224,96,76334,1,0
224,96,76490,1,8
224,256,76647,5,0
224,256,76803,5,0
224,256,76881,5,0
224,256,76959,5,8
224,256,77115,5,0
224,256,77272,5,0
224,256,77350,5,0
224,256,77428,5,8
272,248,77506,5,8
272,248,77584,5,8
272,248,77662,5,8
272,248,77740,5,0
288,272,77897,1,0
280,288,78522,5,8
240,184,79147,1,8
240,184,79459,1,0
208,224,79537,1,0
128,240,79615,1,8
240,184,79772,1,8
320,272,79928,1,8
272,248,80397,1,4
272,248,80553,1,0
272,248,80631,1,0
272,248,80709,1,8
272,248,80865,1,8
200,56,81022,1,0
272,248,81177,1,8
320,272,81256,1,8
296,224,81334,1,0
272,248,81490,1,8
272,248,81568,1,8
272,248,81647,1,0
320,160,81725,1,0
272,248,81803,1,0
208,224,81881,1,0
224,160,81959,1,8
272,248,82115,1,0
272,248,82272,1,8
296,224,82428,1,8
272,248,82584,1,8
272,248,82740,1,12
272,280,83053,1,0
272,280,83209,1,8
272,280,83365,1,0
352,256,83443,1,0
272,280,83522,1,8
272,280,83678,1,0
272,280,83834,1,8
256,176,83990,1,0
248,216,84147,1,8
272,248,84303,1,0
320,128,84381,1,0
248,216,84459,1,8
248,216,84615,1,0
248,216,84772,1,0
272,248,84928,1,8
272,280,85240,1,4
272,248,85553,1,8
272,248,85709,1,0
272,248,85865,1,8
272,248,85943,1,8
272,248,86022,1,0
272,248,86178,1,8
272,248,86334,1,8
272,248,86490,1,8
128,176,86568,1,0
272,280,86647,1,0
272,280,86803,1,0
272,248,86959,1,8
304,160,87037,1,8
272,248,87115,1,0
224,192,87193,1,0
272,248,87272,1,8
272,248,87428,1,0
272,248,87584,1,8
272,248,87740,1,12
272,248,88053,1,4
264,216,88209,1,0
272,248,88365,1,8
272,248,88443,1,8
272,248,88522,1,0
272,248,88678,1,8
272,248,88834,1,0
272,248,88990,1,8
312,272,89068,1,8
272,248,89147,1,0
272,248,89303,1,8
272,248,89459,1,8
272,248,89615,1,0
264,216,89693,1,0
272,248,89772,1,8
272,248,89928,1,0
312,304,90240,1,4
312,272,90553,1,0
312,272,90631,1,0
312,304,90709,1,8
312,304,90787,1,8
312,304,90865,1,0
312,304,91022,1,8
312,304,91178,1,0
208,112,91256,1,0
312,304,91334,1,8
288,128,91490,1,8
304,208,91568,1,8
312,304,91647,1,0
312,304,91803,1,0
312,304,91959,1,8
312,272,92115,1,0
368,160,92193,1,0
192,144,92272,1,8
312,272,92428,1,8
312,272,92584,1,8
312,304,92740,1,12
272,280,93209,1,8
272,280,93365,1,0
272,280,93522,1,8
272,280,93678,1,0
224,176,93756,1,0
272,280,93834,1,8
272,280,93990,1,0
272,280,94147,1,8
272,280,94303,1,0
312,272,94381,1,0
272,280,94459,1,8
192,208,94537,1,0
272,280,94615,1,0
304,304,94772,1,8
312,272,94928,1,0
260,199,95006,1,0
304,304,95084,1,8
256,232,95240,1,0
240,208,95397,1,8
224,192,95553,1,0
224,192,95631,1,8
208,192,95709,1,0
192,176,95865,1,8
176,176,96022,1,8
160,176,96100,1,0
144,176,96178,1,0
128,176,96334,1,8
112,160,96490,1,0
96,160,96568,1,0
96,160,96647,1,8
304,304,96803,1,0
304,304,96959,1,8
352,224,97115,1,0
304,240,97193,1,0
272,280,97272,1,8
224,88,97428,1,0
304,240,97584,1,8
272,280,97740,1,4
304,240,98053,1,0
304,240,98209,1,8
304,240,98522,1,0
144,160,98678,1,0
304,240,98834,1,8
304,240,99147,1,8
304,240,99303,1,0
304,240,99459,1,8
368,160,99615,1,0
224,240,99772,1,0
224,240,99850,1,0
224,240,99928,1,0
224,240,100006,1,0
224,240,100084,1,8
224,240,100162,1,8
224,240,100240,1,8
224,240,100318,1,8
224,240,100397,1,0
272,200,100553,1,0
264,256,100709,1,8
192,144,100787,1,8
264,256,100865,1,0
176,96,100943,1,0
264,256,101022,1,8
264,256,101178,1,0
264,256,101334,1,8
296,272,101490,1,0
296,272,101647,1,0
296,272,101803,1,0
296,272,101881,1,0
296,272,101959,1,8
296,272,102115,1,0
296,272,102272,1,0
288,112,102350,1,0
296,272,102428,1,8
296,200,102584,1,8
240,176,102740,1,0
264,256,102897,1,8
264,256,103052,1,0
256,232,103130,1,0
264,256,103209,1,8
264,256,103365,1,8
216,224,103522,1,0
216,224,103678,1,0
216,224,103834,1,0
216,224,103990,1,8
216,224,104147,1,0
216,224,104303,1,0
216,224,104459,1,8
216,224,104615,1,8
216,224,104772,1,0
216,224,104928,1,0
216,224,105084,1,8
176,160,105240,1,8
320,336,105397,1,4
320,336,105553,1,0
320,336,105631,1,8
320,336,105709,1,0
320,336,105865,1,0
320,336,106022,1,0
320,336,106178,1,8
320,336,106334,1,0
320,336,106490,1,0
320,336,106647,1,8
304,240,106959,1,0
304,240,107272,1,0
304,240,107584,1,0
320,336,107740,1,0
304,240,107897,1,8
328,272,108209,1,8
304,240,108365,1,0
304,240,108678,1,0
304,240,108834,1,8
288,128,109147,1,8
288,160,109303,1,8
288,160,109459,1,0
288,160,109615,1,0
256,160,109772,1,8
256,160,109928,1,0
256,160,110006,1,0
256,160,110084,1,8
256,160,110240,1,8
256,192,110397,12,0,113990
304,200,114303,5,0
304,200,114381,5,0
304,200,114459,1,8
304,200,114537,1,8
304,200,114615,1,8
304,200,114693,1,8
304,200,114772,1,0
304,200,114850,1,0
304,200,114928,1,0
304,200,115006,1,0
304,200,115084,1,8
304,200,115162,1,8
304,200,115240,1,8
240,248,115318,1,8
304,200,115397,1,0
240,248,115553,1,0
240,248,115709,1,8
264,280,116022,1,8
264,280,116178,1,0
264,280,116490,1,0
240,248,116803,1,0
336,272,116959,1,8
336,272,117272,1,8
304,296,117428,1,8
336,272,117584,1,0
264,280,117740,1,0
232,240,117897,1,8
288,256,118053,1,0
232,240,118209,1,8
232,240,118365,1,0
320,344,118522,1,8
320,344,118678,1,0
264,280,118990,1,4
288,256,119147,1,0
112,96,119225,1,8
288,256,119303,1,0
320,128,119381,1,0
288,256,119459,1,8
288,256,119615,1,4
288,256,119772,1,8
224,128,119850,1,8
232,240,119928,1,0
202,187,120006,1,0
232,240,120084,1,8
232,240,120240,1,0
232,240,120397,1,8
232,240,120553,1,8
232,240,120709,1,0
232,240,120865,1,8
232,240,121022,1,0
232,240,121178,1,0
232,240,121256,1,0
232,240,121334,1,8
312,256,121490,1,0
312,256,121647,1,8
312,256,121803,1,0
312,256,121959,1,8
312,256,122115,1,0
312,256,122272,1,8
312,256,122428,1,0
312,256,122584,1,0
264,248,122662,1,8
312,256,122740,1,8
264,248,122818,1,8
264,248,122897,1,0
264,248,123053,1,4
264,248,123209,1,12
264,248,123365,1,8
264,248,123443,1,0
232,136,123522,1,0
232,136,123678,1,4
312,200,123834,1,12
264,248,123990,1,0
264,248,124068,1,0
264,248,124147,1,8
264,248,124303,1,4
264,248,124459,1,12
264,248,124615,1,0
264,248,124772,1,8
330,258,124850,1,8
264,248,124928,1,8
272,208,125006,1,8
264,248,125084,1,8
264,248,125162,1,8
264,248,125240,1,8
264,248,125318,1,8
264,248,125397,1,0
328,336,125709,1,0
328,336,126022,1,8
328,336,126178,1,0
320,200,126490,1,0
192,224,126802,1,0
192,224,126959,1,8
288,176,127271,1,0
288,176,127427,1,8
288,176,127584,1,8
208,192,127740,1,0
320,304,128053,1,0
320,304,128209,1,8
320,304,128522,1,8
320,304,128678,1,0
320,304,128834,1,0
312,272,128990,1,4
312,272,129147,1,0
96,128,129225,1,0
312,272,129303,1,8
312,272,129459,1,8
312,272,129615,1,0
256,112,129693,1,0
232,236,129772,1,0
300,223,129850,1,8
268,258,129928,1,8
268,258,130084,1,8
255,226,130240,1,8
300,223,130397,1,0
255,226,130553,1,0
192,160,130631,1,8
160,224,130709,1,0
160,224,130865,1,8
160,224,131022,1,0
192,160,131178,1,0
192,160,131256,1,0
176,128,131334,1,8
176,128,131490,1,8
240,248,131647,1,0
268,258,131803,1,0
268,258,131959,1,8
336,256,132115,1,0
268,258,132272,1,8
268,258,132428,1,0
272,224,132584,5,0
272,224,132662,1,8
240,248,132740,1,8
240,248,132818,1,8
208,264,132897,1,0
309,287,133053,1,4
309,287,133209,1,12
309,287,133365,1,8
309,287,133443,1,0
309,287,133522,1,0
309,287,133678,1,4
309,287,133834,1,12
309,287,133990,1,0
309,287,134068,1,0
309,287,134147,1,8
309,287,134303,1,4
309,287,134459,1,12
309,287,134615,1,0
309,287,134772,1,0
311,255,134850,1,0
311,255,134928,1,8
311,255,135006,1,8
311,255,135084,1,8
311,255,135162,1,8
311,255,135240,1,0
226,154,135397,1,8
236,221,135709,1,0
232,192,135865,1,8
352,208,136022,1,0
282,140,136178,1,0
282,140,136334,1,8
311,255,136647,1,0
306,302,136803,1,0
311,255,136881,1,0
320,272,136959,1,8
236,221,137115,1,8
236,221,137272,1,0
236,221,137428,1,0
236,221,137584,1,8
236,221,137897,1,4
236,221,138053,1,0
236,221,138209,1,12
236,221,138365,1,0
225,91,138678,1,8
225,91,138834,1,0
299,305,138990,1,0
236,221,139147,1,8
225,91,139303,1,8
304,201,139459,1,0
288,192,139615,1,8
197,240,139772,1,0
197,240,139928,1,0
197,240,140084,1,8
218,176,140240,1,0
238,134,140397,1,0
276,280,140709,1,0
276,280,140865,1,0
276,280,141022,1,8
341,207,141334,1,8
323,295,141647,1,0
323,295,141803,1,0
121,208,141959,1,8
207,149,142115,1,0
257,255,142272,1,0
293,91,142428,1,0
341,207,142584,1,8
281,305,142740,1,4
319,341,143053,1,0
257,255,143209,1,0
272,164,143522,1,0
272,164,143678,1,0
292,250,143834,1,8
257,255,143990,1,0
257,255,144147,1,0
257,255,144303,1,0
257,255,144459,1,8
257,255,144615,1,0
292,250,144772,1,8
280,288,144928,1,8
280,288,145084,1,0
292,250,145240,1,0
176,288,145318,1,0
176,288,145397,1,8
312,232,145475,1,0
320,192,145553,1,0
320,192,145709,1,0
312,232,145865,1,8
266,120,145943,1,0
320,128,146022,1,0
320,192,146100,1,0
312,232,146178,1,0
312,232,146334,1,8
160,248,146412,1,0
312,232,146490,1,0
160,248,146568,1,0
280,288,146647,1,8
160,248,146803,1,8
312,232,146881,1,0
256,184,146959,1,0
136,216,147115,1,8
256,184,147272,1,8
320,128,147584,1,0
274,248,147897,1,4
274,248,148053,1,0
234,156,148209,1,8
394,230,148365,1,8
364,322,148522,1,0
109,294,148678,1,0
288,160,148756,1,0
115,110,148834,1,8
237,273,148990,1,0
237,273,149303,1,0
274,248,149381,1,0
237,273,149459,1,8
237,273,149615,1,0
234,156,149772,1,8
310,118,149928,1,0
320,176,150006,1,0
352,217,150084,1,8
274,248,150162,1,0
342,272,150240,1,8
342,272,150397,1,0
256,124,150553,1,8
234,156,150709,1,0
248,202,150865,1,0
237,273,150943,1,8
237,273,151022,1,0
205,272,151178,1,0
155,271,151334,1,8
248,202,151490,1,0
261,239,151803,1,8
342,272,151959,1,8
342,272,152115,1,0
261,239,152272,1,0
261,239,152350,1,8
248,202,152428,1,0
288,192,152506,1,0
206,215,152584,1,8
206,215,152740,1,0
206,215,152897,1,12
203,164,153053,1,0
290,269,153131,1,0
203,164,153209,1,8
203,164,153365,1,8
203,164,153522,1,0
287,201,153678,1,0
287,201,153834,1,8
287,201,153990,1,0
287,201,154303,1,0
321,304,154459,1,8
290,269,154615,1,0
321,304,154693,1,0
290,269,154772,1,8
290,269,154928,1,0
290,269,155006,1,0
290,269,155084,1,8
290,269,155240,1,8
290,269,155397,1,0
290,269,155553,1,8
192,64,155631,1,8
290,269,155709,1,0
213,175,155865,1,8
290,269,156022,1,0
213,175,156178,1,8
315,209,156256,1,8
315,209,156334,1,0
264,207,156490,1,0
368,176,156647,1,8
264,207,156803,1,8
173,256,156881,1,8
230,251,156959,1,0
230,251,157115,1,0
230,251,157272,1,8
230,251,157350,1,8
230,251,157428,1,8
230,251,157506,1,8
230,251,157584,1,0
264,207,157740,1,4
320,270,157897,1,8
320,270,158053,1,0
320,256,158131,1,0
320,270,158209,1,8
320,270,158365,1,8
320,270,158522,1,0
320,270,158678,1,0
320,270,158834,1,8
320,270,158990,1,0
226,197,159303,1,0
226,197,159381,1,0
212,249,159459,1,8
320,270,159615,1,0
212,249,159772,1,8
212,249,159928,1,0
217,299,160084,1,8
267,149,160240,1,8
320,270,160397,1,8
212,76,160475,1,8
347,112,160553,1,0
254,217,160631,1,0
254,217,160709,1,8
166,127,160865,1,8
212,76,161022,1,8
233,169,161100,1,0
215,196,161178,1,0
212,249,161334,1,8
254,217,161490,1,8
254,217,161647,1,8
240,248,161803,1,0
166,127,161881,1,0
240,248,161959,1,8
240,248,162115,1,0
280,192,162272,5,8
280,192,162350,1,8
240,248,162428,1,0
240,248,162506,1,0
240,248,162584,1,0
240,248,162662,1,0
240,248,162740,1,0
240,248,162897,1,8
280,248,163053,1,0
280,248,163131,1,8
280,248,163209,1,0
280,248,163365,1,0
256,176,163443,1,0
256,176,163522,1,8
256,176,163678,1,8
256,176,163834,1,0
256,176,163990,1,8
256,176,164147,1,8
256,176,164303,1,0
256,176,164381,1,0
256,176,164459,1,8
256,208,164615,1,8
256,208,164772,1,8
256,208,164928,1,0
256,208,165084,1,8
256,208,165240,1,8
256,208,165397,1,0
280,248,166022,1,0
138,170,166647,1,0
208,264,166803,1,8
208,264,166881,1,8
200,296,166959,1,0
160,312,167115,1,8
160,312,167272,1,8
160,312,167350,1,8
160,312,167428,1,0
160,312,167506,1,0
160,312,167584,1,8
160,312,167662,1,8
160,312,167740,1,8
296,240,167897,1,0
247,195,168522,1,8
270,274,169147,1,0
208,112,169459,1,0
215,238,169615,1,0
215,238,169693,1,0
270,274,169772,1,8
256,236,169928,1,8
304,312,170397,1,4
256,192,185397,12,0,187740
312,304,187897,5,0
312,304,188209,1,0
312,304,188522,1,0
312,304,188834,1,0
208,160,189147,5,8
208,160,189225,1,8
224,216,189303,1,8
224,216,189381,1,8
216,256,189459,1,0
192,288,189537,1,0
192,288,189615,1,0
192,288,189693,1,0
136,216,189772,1,8
136,216,189850,1,8
112,184,189928,1,0
104,152,190006,1,0
96,120,190084,1,8
120,96,190162,1,8
176,88,190240,1,8
208,160,190318,1,8
240,120,190397,1,0
312,280,190709,1,8
272,216,190865,1,0
280,248,191178,1,0
280,248,191334,1,8
248,176,191647,1,8
248,176,191803,1,8
248,176,191959,1,8
248,176,192115,1,0
248,176,192428,1,0
248,176,192584,1,8
328,280,192897,1,8
328,280,193053,1,0
328,280,193209,1,0
328,280,193365,1,8
368,328,193678,1,0
368,328,193834,1,0
272,280,194147,1,8
272,280,194303,1,8
288,192,194459,1,0
288,192,194615,1,0
288,192,194928,1,8
288,192,195084,1,0
288,192,195240,1,0
288,192,195397,1,0
352,296,195709,1,0
336,144,196022,1,0
336,144,196334,1,0
336,144,196647,1,0
336,144,196803,1,0
304,104,196959,1,8
304,104,197115,1,0
288,112,197193,1,0
336,144,197272,1,0
336,144,197428,1,0
304,144,197584,1,8
344,320,197897,1,4
296,264,198209,1,8
296,264,198365,1,0
296,264,198522,1,8
296,264,198678,1,0
344,320,198834,1,8
336,304,198912,1,8
320,304,198990,1,8
296,264,199147,1,0
248,200,199459,5,8
96,160,199537,1,8
248,200,199615,1,0
328,288,199772,1,8
328,288,199928,1,8
328,288,200084,1,8
328,216,200240,1,0
328,288,200397,1,8
264,272,200709,1,0
312,320,200865,1,0
312,320,201022,1,8
264,272,201178,1,8
312,320,201334,1,0
312,320,201490,1,0
304,320,201568,1,0
264,272,201647,1,8
264,272,201959,1,0
264,272,202272,1,0
272,208,202584,1,8
224,176,202662,1,8
272,208,202740,1,0
320,272,202897,1,8
320,272,203053,1,0
208,72,203209,1,0
320,272,203365,1,0
352,240,203522,1,8
360,272,203678,1,0
360,272,203834,1,8
320,272,203990,1,0
320,272,204303,1,0
320,272,204459,1,0
320,272,204772,1,0
320,272,204928,1,0
328,312,205084,1,8
328,312,205240,1,0
320,304,205318,1,0
320,272,205397,1,0
328,312,205709,1,8
328,312,205865,1,0
320,272,206178,1,0
320,272,206334,1,8
328,312,206647,1,8
328,312,206803,1,0
328,312,207115,1,0
328,312,207272,1,8
320,272,207584,1,8
320,272,207740,1,0
328,312,207897,1,0
256,248,208209,5,8
256,248,208365,1,0
256,248,208678,1,0
256,248,208834,1,8
256,248,209147,1,0
256,248,209303,1,0
256,248,209459,1,8
256,248,209615,1,0
224,248,209772,1,8
224,248,209928,1,0
224,248,210084,1,8
224,248,210240,1,8
224,248,210397,1,0
312,296,210553,1,0
312,296,210709,1,8
312,296,210865,1,0
320,192,211178,1,0
288,144,211334,1,0
320,192,211647,1,8
336,232,211803,1,0
336,232,212115,1,0
216,240,212272,5,8
232,272,212428,1,0
232,272,212584,1,8
232,272,212740,1,0
256,192,212897,12,0,216647
320,240,217897,5,0
240,128,220285,1,0
192,176,220695,1,0
272,240,221484,1,0
256,176,222273,1,0
272,240,223063,1,0
336,224,223852,1,0
352,256,224642,1,0
304,272,225431,1,8
336,224,226221,1,8
336,304,227010,1,0
336,224,227800,1,0
336,304,228589,1,0
320,256,229379,1,8
336,304,230168,1,0
320,256,231747,1,8
176,64,231945,1,8
272,144,232142,1,0
272,144,232339,1,0
240,176,232537,1,8
240,176,232734,1,0
224,208,232931,1,8
240,176,233129,1,8
320,288,233326,1,0
320,288,234116,1,0
336,256,234905,1,0
240,240,235695,1,0
224,160,236484,1,0
288,224,237273,1,0
304,272,238063,1,0
352,208,238852,1,0
336,288,239642,1,0
320,192,239839,1,0
336,256,240234,1,8
272,240,240826,1,0
336,304,241616,1,0
336,304,242010,1,0
336,304,242405,1,0
256,192,242602,12,0,247142
128,176,248583,5,0
320,160,248896,1,4
304,240,249052,1,8
192,96,249208,1,8
224,176,249364,1,0
208,224,249521,1,0
208,224,249677,1,0
240,144,249755,1,0
240,144,249833,1,8
240,144,249989,1,0
288,128,250302,1,0
320,160,250458,1,8
320,160,250614,1,0
320,160,250692,1,0
288,128,250771,1,8
288,240,250927,1,0
288,240,251005,1,8
288,240,251083,1,0
288,240,251239,1,8
192,160,251396,1,8
272,96,251474,1,8
192,160,251552,1,0
192,160,251630,1,0
192,160,251708,1,8
208,192,251864,1,0
208,192,252021,1,8
96,160,252099,1,8
320,160,252177,1,0
320,160,252333,1,8
352,384,252489,1,8
288,240,252802,1,8
288,240,252958,1,8
288,240,253114,1,8
352,256,253271,1,0
240,208,253427,1,0
208,192,253505,1,0
208,192,253583,1,8
384,192,253739,1,0
400,240,253896,1,0
256,176,253974,1,8
400,240,254052,1,0
336,192,254130,1,0
272,128,254208,1,8
272,128,254364,1,0
272,128,254521,1,8
320,272,254677,1,0
208,144,254755,1,0
320,272,254833,1,8
224,80,254989,1,0
288,176,255302,1,0
288,176,255458,1,8
368,160,255614,1,0
336,192,255692,1,0
336,192,255771,1,8
176,176,255927,1,0
176,176,256005,1,0
176,176,256083,1,8
176,176,256239,1,8
256,208,256396,1,8
256,208,256552,1,0
256,208,256630,1,0
256,208,256708,1,8
320,224,256864,1,8
320,224,257021,1,0
352,256,257099,1,0
320,224,257177,1,0
320,224,257255,1,0
320,224,257333,1,8
320,224,257489,1,0
384,240,257646,1,0
176,176,257802,1,0
176,176,257880,1,0
176,176,257958,1,8
176,176,258036,1,0
256,208,258114,1,0
256,208,258192,1,0
256,208,258271,1,8
288,224,258349,1,8
288,224,258427,1,0
288,224,258505,1,0
288,224,258583,1,8
128,160,258739,1,0
128,160,258896,1,0
128,192,259052,1,0
128,160,259130,1,0
128,192,259208,1,8
208,80,259364,1,8
176,176,259521,1,0
224,192,259677,1,8
320,208,259755,1,0
336,320,259833,1,0
336,320,259989,1,0
336,160,260302,1,0
336,160,260458,1,8
144,128,260614,1,0
144,128,260692,1,8
144,128,260771,1,0
256,192,260927,1,8
288,240,261083,1,8
288,240,261239,1,0
320,256,261396,1,8
320,256,261552,1,0
320,256,261630,1,0
320,256,261708,1,8
320,256,261864,1,8
288,176,262021,1,0
288,176,262099,1,0
288,176,262177,1,8
288,176,262255,1,8
288,176,262333,1,0
288,176,262489,1,0
224,208,262646,1,8
256,144,262802,1,0
288,176,262958,1,0
256,144,263114,1,8
224,208,263271,1,8
192,208,263349,1,8
192,208,263427,1,0
192,208,263505,1,0
192,208,263583,1,0
192,208,263661,1,0
192,208,263739,1,0
192,208,263817,1,0
192,208,263896,1,8
272,272,264052,1,8
272,272,264208,1,0
272,272,264364,1,8
192,96,264442,1,8
272,272,264521,1,0
272,272,264677,1,0
272,272,264833,1,8
272,272,264911,1,0
304,208,264989,1,0
304,208,265146,1,8
304,208,265302,1,8
304,224,265380,1,0
256,224,265458,1,8
256,224,265614,1,0
256,224,265771,1,8
256,224,265849,1,8
256,224,265927,1,0
256,224,266005,1,0
256,224,266083,1,8
224,176,266239,1,8
224,176,266396,1,0
224,176,266552,1,0
208,112,266708,1,8
208,112,266864,1,0
304,256,267021,1,8
208,112,267177,1,0
208,112,267333,1,8
208,112,267489,1,0
160,240,267646,1,0
224,176,267802,1,8
224,176,267880,1,8
304,256,267958,1,0
304,256,268114,1,0
272,192,268271,1,8
304,256,268349,1,8
304,256,268427,1,0
304,256,268505,1,0
272,96,268583,1,8
304,256,268661,1,8
304,256,268739,1,8
304,256,268817,1,8
320,240,268896,1,0
256,288,269208,1,0
256,288,269364,1,0
256,288,269521,1,8
256,288,269833,1,8
352,304,270146,1,0
320,320,270458,1,0
320,320,270536,1,0
320,320,270614,1,0
320,320,270692,1,0
320,208,270771,1,8
320,208,270927,1,8
192,224,271396,1,4
208,80,271552,1,0
208,112,271630,1,0
208,112,271708,1,8
208,112,271864,1,8
256,144,272021,1,0
256,160,272177,1,0
256,144,272255,1,0
256,144,272333,1,8
256,240,272411,1,0
256,144,272489,1,8
208,176,272646,1,0
208,176,272802,1,8
208,176,272958,1,8
272,192,273114,1,8
288,240,273271,1,0
288,240,273427,1,8
288,240,273505,1,8
288,240,273583,1,8
288,240,273739,1,12
304,272,274052,1,0
256,112,274130,1,0
256,112,274208,1,8
256,112,274364,1,0
256,112,274521,1,8
256,112,274677,1,0
208,144,274755,1,0
256,112,274833,1,8
256,112,274989,1,0
256,112,275146,1,8
256,112,275302,1,8
256,112,275458,1,0
256,112,275614,1,0
288,240,275692,1,0
288,240,275771,1,0
256,160,275849,1,0
288,240,275927,1,8
336,192,276239,1,4
208,240,276552,1,0
304,192,276630,1,0
160,160,276708,1,8
176,208,276786,1,8
272,208,276864,1,8
272,208,277021,1,0
304,336,277177,1,8
224,112,277333,1,8
224,112,277489,1,0
256,176,277567,1,0
272,128,277646,1,8
304,192,277802,1,0
304,192,277958,1,8
352,128,278114,1,0
352,128,278192,1,0
352,128,278271,1,8
80,192,278349,1,0
272,128,278427,1,8
320,288,278583,1,8
352,256,278739,1,12
192,144,279052,1,0
128,160,279208,1,8
288,256,279364,1,0
240,240,279521,1,8
240,240,279599,1,0
240,240,279677,1,0
128,208,279755,1,0
240,208,279833,1,8
240,208,279989,1,0
224,160,280146,1,8
224,160,280302,1,0
240,208,280380,1,0
224,160,280458,1,8
288,192,280614,1,8
288,224,280692,1,8
288,192,280771,1,0
288,224,280927,1,0
352,256,281239,1,4
320,144,281552,1,0
160,144,281630,1,0
224,160,281708,1,8
160,144,281786,1,8
224,160,281864,1,8
288,256,282021,1,0
256,144,282177,1,0
128,160,282255,1,0
224,80,282333,1,8
256,144,282489,1,8
256,144,282646,1,0
256,208,282802,1,0
192,80,282880,1,0
256,208,282958,1,8
176,256,283036,1,0
320,192,283114,1,8
352,256,283192,1,8
320,192,283271,1,0
320,192,283427,1,8
80,80,283583,1,8
352,368,283739,1,12
160,176,284208,1,0
240,144,284364,1,0
240,144,284521,1,8
240,208,284677,1,0
288,288,284755,1,0
192,128,284833,1,8
288,288,284989,1,8
320,240,285146,1,0
240,208,285302,1,0
240,208,285380,1,0
240,272,285458,1,8
336,176,285614,1,8
336,176,285771,1,0
288,128,285849,1,8
224,96,285927,1,0
224,96,286005,1,0
240,144,286083,1,8
320,240,286239,1,8
304,240,286396,1,8
288,240,286552,1,8
272,240,286630,1,8
256,240,286708,1,8
240,224,286864,1,8
224,224,287021,1,0
208,208,287177,1,8
192,208,287255,1,8
176,208,287333,1,8
160,192,287489,1,8
144,192,287646,1,0
224,272,287802,1,0
224,272,287958,1,8
384,272,288114,1,0
352,288,288192,1,0
320,336,288271,1,8
320,336,288427,1,0
192,160,288583,1,0
272,144,288739,1,12
240,240,289052,1,0
240,240,289208,1,8
320,160,289364,1,0
320,160,289521,1,0
320,160,289677,1,0
320,160,289833,1,8
336,224,289989,1,0
192,160,290146,1,4
192,160,290302,1,0
192,160,290458,1,8
208,96,290614,1,0
240,208,290771,1,0
384,272,290849,1,0
304,112,290927,1,0
64,272,291005,1,0
192,240,291083,1,8
192,240,291161,1,8
192,240,291239,1,8
192,272,291317,1,8
272,272,291396,1,0
320,320,291552,1,8
272,272,291708,1,0
272,272,291864,1,0
272,272,291942,1,0
272,240,292021,1,8
288,176,292177,1,8
288,176,292333,1,0
320,256,292489,1,0
400,176,292567,1,8
368,224,292646,1,8
368,224,292724,1,0
368,224,292802,1,0
368,224,292958,1,8
368,224,293114,1,0
368,224,293192,1,0
368,224,293271,1,8
256,208,293427,1,8
256,144,293583,1,0
256,144,293739,1,12
128,192,294052,1,0
224,208,294208,1,8
224,208,294364,1,0
192,176,294442,1,0
224,208,294521,1,8
272,272,294599,1,8
192,176,294677,1,0
192,176,294833,1,8
144,160,294989,1,8
192,128,295146,1,0
192,128,295302,1,0
144,160,295380,1,0
272,96,295458,1,8
272,112,295614,1,0
336,144,295927,1,8
272,208,296239,1,4
320,224,296552,1,0
320,224,296630,1,0
320,224,296708,1,8
304,224,296786,1,0
320,272,296864,1,8
304,272,297021,1,0
320,224,297177,1,8
272,208,297333,1,8
224,144,297489,1,0
192,160,297567,1,0
320,224,297646,1,8
256,144,297724,1,8
224,144,297802,1,8
256,144,297958,1,8
384,160,298114,1,0
384,192,298271,1,0
320,272,298427,1,0
192,160,298505,1,0
176,224,298583,1,8
320,272,298739,1,12
272,192,299052,1,4
208,96,299208,1,8
320,272,299364,1,0
320,272,299442,1,0
320,272,299521,1,8
256,224,299677,1,0
256,224,299755,1,0
256,224,299833,1,8
272,192,299989,1,8
256,224,300146,1,0
256,224,300302,1,0
256,224,300380,1,0
272,192,300458,1,8
256,224,300536,1,0
256,304,300614,1,8
256,112,300771,1,0
256,112,300927,1,8
368,208,301239,1,4
320,144,301552,1,0
256,112,301708,1,8
272,192,301864,1,8
272,192,302021,1,0
224,128,302177,1,8
224,128,302255,1,8
208,96,302333,1,0
320,256,302489,1,8
320,256,302646,1,0
304,224,302802,1,0
304,224,302880,1,0
304,64,302958,1,8
288,96,303036,1,8
288,96,303114,1,0
336,224,303271,1,8
304,224,303427,1,8
304,224,303739,1,12
176,160,304052,1,0
176,160,304130,1,0
176,128,304208,1,8
176,128,304364,1,8
224,80,304521,1,0
224,80,304677,1,8
176,160,304755,1,8
144,160,304833,1,0
192,224,304989,1,8
192,224,305146,1,0
128,80,305302,1,8
112,160,305380,1,8
304,176,305458,1,0
304,176,305614,1,0
304,176,305692,1,0
304,176,305771,1,8
272,128,305927,1,8
224,80,306083,1,0
240,192,306239,1,0
224,192,306396,1,0
208,208,306552,1,0
192,208,306630,1,0
176,208,306708,1,8
160,224,306864,1,8
160,224,307021,1,0
160,240,307177,1,8
160,224,307255,1,0
160,224,307333,1,8
176,240,307489,1,8
192,256,307646,1,0
288,240,307802,1,0
224,112,307958,1,8
288,240,308114,1,0
288,240,308271,1,8
256,176,308427,1,0
256,176,308505,1,0
208,144,308583,1,8
176,160,308739,1,4
256,224,309052,1,0
320,240,309208,1,8
192,208,309364,1,8
192,272,309521,1,4
192,64,309677,1,0
192,64,309833,1,8
288,128,309989,1,0
336,192,310146,1,4
320,128,310302,1,0
224,176,310458,1,8
288,208,310614,1,8
288,208,310771,1,0
256,304,310927,1,8
336,192,311083,1,0
320,128,311161,1,8
304,304,311239,1,0
224,176,311396,5,4
176,160,311552,1,0
272,144,311708,1,8
272,144,311864,1,0
304,176,312021,1,8
304,176,312177,1,0
368,256,312333,1,4
368,256,312489,1,0
336,320,312646,1,8
272,256,312802,1,0
176,160,312958,1,0
176,160,313114,1,8
176,160,313271,1,0
176,160,313427,1,0
272,176,313583,1,8
304,176,313739,1,0
336,208,313896,1,4
272,112,314052,1,0
272,112,314208,1,8
272,112,314364,1,0
320,112,314521,1,8
320,112,314677,1,0
288,224,314833,1,4
288,224,314989,1,0
272,176,315146,1,8
336,208,315302,1,0
160,160,315458,1,8
160,160,315614,1,8
160,160,315771,1,0
160,160,315927,1,0
176,128,316083,1,8
288,224,316239,1,0
336,320,316396,1,4
272,288,316552,1,0
208,240,316708,1,8
208,240,316864,1,0
336,224,317021,1,8
368,240,317177,1,0
176,144,317333,1,4
288,192,317489,1,0
368,240,317646,1,8
368,240,317802,1,0
320,192,317958,1,8
320,192,318114,1,0
320,192,318271,1,8
208,240,318427,1,0
320,192,318583,1,8
368,128,318739,1,0
288,192,318896,1,4
352,208,319052,1,0
352,208,319208,1,8
352,208,319364,1,0
320,224,319521,1,8
320,224,319677,1,0
336,320,319833,1,4
336,320,319989,1,0
288,192,320146,1,8
320,192,320302,1,0
352,272,320458,1,8
224,160,320614,1,0
272,256,320771,1,0
304,272,320927,1,0
224,160,321083,1,8
224,160,321239,1,0
256,176,321396,1,12
256,176,321552,1,12
256,176,321864,1,12
256,176,322021,1,12
256,176,322333,1,12
256,176,322489,1,12
336,240,322802,1,12
336,240,322958,1,12
336,240,323271,1,12
256,80,323583,1,4
224,176,323896,1,4
224,176,324052,1,4
224,176,324364,1,4
224,176,324521,1,4
224,176,324833,1,4
224,176,324989,1,4
352,144,325302,1,4
240,112,325458,1,4
352,144,325771,1,4
320,160,325927,1,4
256,192,326083,12,0,328114
256,192,328271,5,4
