osu file format v9

[General]
AudioFilename: Ayane - Endless Tears..mp3
AudioLeadIn: 0
PreviewTime: 57584
Countdown: 0
SampleSet: Normal
StackLeniency: 0.7
Mode: 0
LetterboxInBreaks: 0
EpilepsyWarning: 1

[Editor]
DistanceSpacing: 1
BeatDivisor: 4
GridSize: 8

[Metadata]
Title:Endless Tears...
Artist:Ayane
Creator:lkp
Version:Plus
Source:11eyes CrossOver
Tags:Beuchi-chan Louis Cyphre aesopl19193 ignorethis koko6162006 lass 5pb.games

[Difficulty]
HPDrainRate:8
CircleSize:4
OverallDifficulty:8
ApproachRate:8
SliderMultiplier:1.8
SliderTickRate:0.5

[Events]
//Background and Video events
0,0,"ae9ba5afd23db0cbc8daa2213f1bfce46.jpg"
//Break Periods
2,100597,114647
2,175597,189647
2,217897,219535
2,246158,247833
//Storyboard Layer 0 (Background)
Sprite,Background,Centre,"ae9ba5afd23db0cbc8daa2213f1bfce46.jpg",320,240 F,0,0,,1 F,0,1647,4147,1,0
Sprite,Background,Centre,"SB\BG Logo.jpg",320,240 F,0,10397,,1 S,0,10397,,1 F,0,25395,25396,1,0 F,0,326083,328271,0,1 S,0,326083,328271,1.1,1 F,0,335146,336396,1,0
Sprite,Background,Centre,"SB\1.jpg",320,240 M,0,25397,35709,256,240,384,240
Sprite,Background,Centre,"SB\2.jpg",320,240 F,0,35397,35709,0,1 M,0,35397,45709,422,240,212,240 F,0,35709,,1
Sprite,Background,Centre,"SB\3 - Green.jpg",320,240 F,0,45397,45709,0,1 M,1,45397,55396,217,240,426,240
Sprite,Background,Centre,"SB\3 - Cut.jpg",320,240 M,0,55397,57115,320,240 M,0,57115,,320,240
Sprite,Background,Centre,"SB\3 - Red.jpg",320,240 F,0,55397,55553,0,0.25 F,0,55553,55709,0.25,0 F,0,55865,56022,0,0.5 F,0,56022,56178,0.5,0 F,0,56334,56490,0,0.75 F,0,56490,56647,0.75,0 F,0,56803,56959,0,1 F,0,56959,57115,1 F,0,57428,,1
Sprite,Background,Centre,"SB\3 - Zoom.jpg",320,240 F,0,57272,57428,0,1 S,1,57272,57584,1,1.1024 F,0,57428,57584,1,0
Sprite,Background,Centre,"SB\4 - 1.jpg",320,240 F,0,57818,57897,0,1 S,0,57818,70397,1,0.8854058 S,0,70397,,0.8854058
Sprite,Background,Centre,"SB\4 - 3.jpg",320,240 S,0,69147,,0.8967933 F,0,69147,70397,0,1 S,0,69147,77272,0.8967933,0.8227749 S,0,77272,,0.8227749
Sprite,Background,Centre,"SB\4 - 4.jpg",320,240 S,0,75397,,0.839856 F,0,75397,77272,0,1 S,0,75397,79772,0.839856,0.8 F,0,77272,,1
Sprite,Background,Centre,"SB\4 - 5.jpg",320,240 S,0,77897,,0.8170812 F,0,77897,79772,0,1 S,0,77897,79772,0.8170812,0.8 F,0,79772,79928,1,0 S,0,79772,79928,0.8,0.87168
Sprite,Background,Centre,"SB\5.jpg",320,240 F,0,80318,80397,0,1 M,0,80318,85553,320,177,320,300
Sprite,Background,Centre,"SB\6.jpg",320,240 F,0,85240,85553,0,1 M,0,85240,90553,400,240,242,240
Sprite,Background,Centre,"SB\7.jpg",320,240 F,0,90240,90553,0,1 M,0,90240,100397,251,240,391,240 F,0,99772,100397,1,0
Sprite,Background,Centre,"SB\9.jpg",320,240 M,0,115397,125709,425,240,213,240
Sprite,Background,Centre,"SB\10.jpg",320,240 F,0,125397,125709,0,1 M,0,125397,135709,241,240,400,240
Sprite,Background,Centre,"SB\11 - Crystal.jpg",320,240 F,0,135397,135709,0,1 M,1,135397,145396,400,240,239,240
Sprite,Background,Centre,"SB\11 - Cut.jpg",320,240 M,0,145397,147272,320,240
Sprite,Background,Centre,"SB\11 - Broken.jpg",320,240 F,1,145397,147272,0,1 F,0,147428,,1
Sprite,Background,Centre,"SB\11 - Zoom.jpg",320,240 F,0,147272,147428,0,1 S,1,147272,147584,1,1.1024 F,0,147428,147584,1,0
Sprite,Background,Centre,"SB\12 - 1.jpg",320,240 F,0,147818,147897,0,1 S,0,147818,159147,1,0.8967933 S,0,159147,,0.8967933
Sprite,Background,Centre,"SB\12 - 2.jpg",320,240 S,0,157897,,0.9081808 F,0,157897,159147,0,1 S,0,157897,161647,0.9081808,0.8740184 S,0,161647,,0.8740184
Sprite,Background,Centre,"SB\12 - 3.jpg",320,240 S,0,160318,,0.8861256 F,0,160318,161647,0,1 S,0,160318,166669,0.8861256,0.8282682 S,0,166669,,0.8282682
Sprite,Background,Centre,"SB\12 - 4.jpg",320,240 S,0,165397,,0.8398561 F,0,165397,166647,0,1 S,0,165397,169772,0.8398561,0.8 F,0,169772,170084,1,0 S,0,169772,170084,0.8,0.87168
Sprite,Background,Centre,"SB\13.jpg",320,240 F,0,170397,172897,0,1 M,0,170397,190397,240,240,397,240 F,0,187897,190397,1,0
Sprite,Background,Centre,"SB\14.jpg",320,240 M,0,190397,,320,240 F,0,190397,190553,0,1 S,1,190397,190709,1,1.1 S,0,190709,195709,1.1,1
Sprite,Background,Centre,"SB\15.jpg",320,240 F,0,195397,195709,0,1 M,0,195397,200709,432,237,256,241 S,0,195397,200709,1.1,0.95
Sprite,Background,Centre,"SB\16.jpg",320,240 F,0,200397,200709,0,1 M,0,200397,205709,351,103,312,337 S,0,200397,205709,1.25,1.15
Sprite,Background,Centre,"SB\17 - 1.jpg",320,240 F,0,205397,205709,0,1 M,0,205397,212897,424,240,268,240 M,0,212897,,268,235 F,0,212897,,1
Sprite,Background,Centre,"SB\17 - 2.jpg",320,240 M,0,205397,215397,424,240,216,240 F,0,207897,212897,0,1 F,0,212897,215397,1,0
Sprite,Background,Centre,"SB\18.jpg",320,240 F,0,220695,222273,0,0.6 S,0,220695,228589,1,0.85664 R,0,220695,228589,0,-0.1433603 F,0,227010,228589,0.6,0
Sprite,Background,Centre,"SB\19.jpg",320,240 F,0,227010,228589,0,0.6 M,0,227010,234905,399,240,241,240 F,0,233326,234905,0.6,0
Sprite,Background,Centre,"SB\21.jpg",320,240 F,0,233326,234905,0,0.6 M,0,233326,241221,243,240,398,240 F,0,239642,241221,0.6,0
Sprite,Background,Centre,"SB\22.jpg",320,240 F,0,239642,241221,0,0.6 S,0,239642,247537,1,0.8 F,0,245958,247537,0.6,0
Sprite,Background,Centre,"SB\23 - 1.jpg",320,240 F,0,248817,248896,0,1 M,0,248817,259051,424,240,216,240
Sprite,Background,Centre,"SB\24 - 1.jpg",320,240 F,0,258739,259051,0,1 M,0,258739,270771,216,240,425,240
Sprite,Background,Centre,"SB\24 - 2.jpg",320,240 M,0,268896,,392,240 M,0,268896,270771,392,240,425,240 F,0,268896,270771,0,1 F,0,270771,271083,1,0 S,0,270771,271083,1,1.13312
Sprite,Background,Centre,"SB\25.jpg",320,240 F,0,271317,271396,0,1 M,0,271317,276551,320,284,320,201 S,0,271317,276551,1,0.95
Sprite,Background,Centre,"SB\26.jpg",320,240 F,0,276239,276551,0,1 M,0,276239,281551,244,240,396,240
Sprite,Background,Centre,"SB\27.jpg",320,240 F,0,281239,281551,0,1 S,0,281239,286708,0.8,1
Sprite,Background,Centre,"SB\28.jpg",320,240 F,0,286396,286708,0,1 S,0,286396,291396,1,0.5 R,0,286396,291396,0,-1.9 F,0,290146,291396,1,0
Sprite,Background,Centre,"SB\29.jpg",320,240 F,0,291396,291708,0,1 M,0,291396,299208,320,100,320,378 F,0,291708,,1
Sprite,Background,Centre,"SB\31.jpg",320,240 F,0,298896,299208,0,1 M,0,298896,306708,424,240,217,240
Sprite,Background,Centre,"SB\32.jpg",320,240 F,0,306396,306708,0,1 S,0,306396,311396,1,0.8 F,0,310771,311396,1,0
Sprite,Background,Centre,"SB\33.jpg",320,240 F,0,311396,311708,0,1 M,0,311396,313896,229,240,415,240 F,0,313583,313896,1,0
Sprite,Background,Centre,"SB\34.jpg",320,240 F,0,313896,314208,0,1 M,0,313896,316396,422,240,219,240 F,0,316083,316396,1,0
Sprite,Background,Centre,"SB\35.jpg",320,240 F,0,316396,316708,0,1 M,0,316396,318896,245,240,396,240 F,0,318583,318896,1,0
Sprite,Background,Centre,"SB\36.jpg",320,240 F,0,318896,319208,0,1 M,0,318896,321396,395,240,244,240 F,0,321083,321396,1,0
Sprite,Background,Centre,"SB\37.jpg",320,240 F,0,321396,321552,0,1 S,0,321396,321552,1.05,1 S,0,321708,321864,1,1.05 S,0,321864,322021,1.05,1 S,0,322177,322333,1,1.05 S,0,322333,322489,1.05,1 S,0,322646,322802,1,1.05 S,0,322802,322958,1.05,1 F,0,323271,323583,1,0 S,0,323271,323583,1,1.1
Sprite,Background,Centre,"SB\38.jpg",320,240 F,0,323896,324052,0,1 S,0,323896,324052,1.05,1 S,0,324208,324364,1,1.05 S,0,324364,324521,1.05,1 S,0,324677,324833,1,1.05 S,0,324833,324989,1.05,1 S,0,325146,325302,1,1.05 S,0,325302,325458,1.05,1 F,0,325771,327646,1,0 S,0,325771,327646,1,1.1
//Storyboard Layer 1 (Fail)
Sprite,Fail,Centre,"SB\8 - 2.jpg",320,240 F,0,100397,101647,0,1 M,0,100397,115396,320,163,320,312
//Storyboard Layer 2 (Pass)
Sprite,Pass,Centre,"SB\4 - 2.jpg",320,240 F,0,57818,57897,0,1 S,0,57818,69147,1,0.8967933 F,0,57897,58522,1,0 F,0,60318,60397,0,1 F,0,60397,60709,1,0 F,0,60943,61022,0,1 F,0,61022,61334,1,0 F,0,61412,61490,0,1 F,0,61490,62115,1,0 F,0,62662,62740,0,1 F,0,62740,64147,1,0 F,0,62740,64147,1,0 F,0,65318,65397,0,1 F,0,65397,65709,1,0 F,0,65943,66022,0,1 F,0,66022,66334,1,0 F,0,66412,66490,0,1 F,0,66490,67115,1,0 F,0,67662,67740,0,1 F,0,67740,69147,1,0
Sprite,Pass,Centre,"SB\4 - 4.jpg",320,240 F,0,70318,70397,0,1 S,0,70397,,0.8854058 F,0,70397,70865,1,0 S,0,70397,75397,0.8854058,0.839856 F,0,70943,71022,0,1 F,0,71022,71490,1,0 F,0,71568,71647,0,1 F,0,71647,72740,1,0 S,0,75397,,0.839856
Sprite,Pass,Centre,"SB\8 - 1.jpg",320,240 F,0,100397,101647,0,1 M,0,100397,115396,320,163,320,312
Sprite,Pass,Centre,"SB\12 - 2.jpg",320,240 F,0,147818,147897,0,1 S,0,147818,157272,1,0.9138744 F,0,147897,148522,1,0 F,0,150318,150397,0,1 F,0,150397,150709,1,0 F,0,150943,151022,0,1 F,0,151022,151334,1,0 F,0,151412,151490,0,1 F,0,151490,152115,1,0 F,0,152662,152740,0,1 F,0,152740,154147,1,0 F,0,155318,155397,0,1 F,0,155397,155709,1,0 F,0,155943,156022,0,1 F,0,156022,156334,1,0 F,0,156412,156490,0,1 F,0,156490,157272,1,0 S,0,157272,,0.9138744
Sprite,Pass,Centre,"SB\23 - 2.jpg",320,240 F,0,248817,248896,0,1 M,0,248817,258271,424,240,234,240 F,0,248896,249521,1,0 F,0,251317,251396,0,1 F,0,251396,251708,1,0 F,0,251942,252021,0,1 F,0,252021,252333,1,0 F,0,252411,252489,0,1 F,0,252489,253271,1,0 F,0,253661,253739,0,1 F,0,253739,255146,1,0 F,0,256317,256396,0,1 F,0,256396,256708,1,0 F,0,256942,257021,0,1 F,0,257021,257333,1,0 F,0,257411,257489,0,1 F,0,257489,258271,1,0 M,0,258271,,234,240
Sprite,Pass,Centre,"SB\24 - 2.jpg",320,240 F,0,258739,259051,0,1 M,0,258739,267646,216,240,370,240 F,0,259051,259989,1,0 F,0,261321,261396,0,1 F,0,261396,261708,1,0 F,0,261942,262021,0,1 F,0,262021,262333,1,0 F,0,262567,262646,0,1 F,0,262646,263271,1,0 F,0,263817,263896,0,1 F,0,263896,264521,1,0 F,0,264755,264833,0,1 F,0,264833,265771,1,0 F,0,266317,266396,0,1 F,0,266396,267646,1,0 M,0,267646,,370,240
//Storyboard Layer 3 (Foreground)
Sprite,Foreground,Centre,"SB\lkp.png",320,240 M,0,16647,,449,86 S,0,16647,,1.2 F,0,16647,17272,0,1 F,0,20397,21647,1,0
Sprite,Foreground,Centre,"SB\Feather 2.png",320,240 S,0,11022,,0.8 M,0,11022,22897,62,-60,142,540 R,0,11022,22897,0,1.67936
Sprite,Foreground,Centre,"SB\Feather 2.png",320,240 S,0,11022,,0.4 M,0,11022,17897,311,-55,472,544 R,0,11022,17897,0,-2.7648
Sprite,Foreground,Centre,"SB\Feather 2.png",320,240 S,0,15397,,0.4 M,0,15397,24772,418,-62,564,542 R,0,15397,24772,0.08192017,3.235841
Sprite,Foreground,Centre,"SB\Feather 2.png",320,240 M,0,16334,25084,303,-59,363,542 R,0,16959,24147,2.33472,3.338239
Sprite,Foreground,Centre,"SB\Feather 1.png",320,240 S,0,11647,,0.8 M,0,11647,22272,511,-79,350,556 R,0,11647,22272,0,-1.444863 R,0,22272,,-2.202624
Sprite,Foreground,Centre,"SB\Feather 1.png",320,240 S,0,16647,,0.5 M,0,16647,24772,138,-106,138,564 R,0,16647,24772,1.35168,0.1433603
Sprite,Foreground,Centre,"SB\Feather 1.png",320,240 S,0,11022,,0.5 M,0,11022,17584,505,-80,166,564 R,0,11022,17584,0,3.502081
Sprite,Foreground,Centre,"SB\Feather 1.png",320,240 S,0,13522,,0.4 M,0,13522,21647,229,-78,215,562 R,0,13522,21647,2.08896,0.3891205
Sprite,Foreground,Centre,"SB\BG Color.jpg",320,240 F,0,5397,6022,0.2,0 C,0,5397,9771,99,18,1 F,0,6647,7272,0.2,0 F,0,7897,8052,0.2,0 F,0,8053,8209,0.2,0 F,0,9147,9772,0.2,0 C,0,9771,,255,255,255 F,0,9772,10397,0,1 F,0,10397,11022,1,0 F,0,11647,12272,0.15,0 F,0,15397,16022,0.15,0 F,0,180397,182897,0.2,0 F,0,328271,332646,0.5,0 T,Passing,100397,115397 F,0,0,210,0.7,0 T,Failing,100397,115397 F,0,0,210,0.7,0
Sprite,Foreground,Centre,"SB\Light big.png",320,240 L,114772,1 F,0,0,625,0,1 S,0,0,625,0.1,2.18784 F,0,625,1250,1,0 F,0,24772,25397,0,1 S,0,24772,25397,0.1,2.18784 F,0,25397,26022,1,0
Sprite,Foreground,Centre,"SB\Artist.png",320,240 S,0,11647,,1.2 M,1,11647,11959,-65,160,227,159 M,0,11959,14147,227,159,345,159 M,2,14147,14459,345,159,701,157
Sprite,Foreground,Centre,"SB\Title.png",320,240 S,0,11647,,1.2 M,1,11647,11959,757,335,393,330 M,0,11959,14147,393,330,303,331 M,2,14147,14459,303,331,-119,339
Sprite,Foreground,Centre,"SB\Beatmap by.png",320,240 S,0,15397,,1.2 M,1,15397,15709,-99,84,160,83 F,0,20397,21647,1,0
Sprite,Foreground,Centre,"SB\Storyboard by.png",320,240 S,0,17897,,1.2 M,1,17897,18209,-114,395,178,398 F,0,20397,21647,1,0
Sprite,Foreground,Centre,"SB\Beuchi-chan.png",320,240 M,0,18834,,451,399 S,0,18834,,1.2 F,0,18834,19459,0,1 F,0,20397,21647,0.984,0
Sprite,Foreground,Centre,"SB\Feather 2.png",320,240 M,0,217897,221089,321,-63,322,550 R,0,217897,221089,0,-2.826238
//Storyboard Sound Samples
//Background Colour Transformations
3,100,163,162,255

[TimingPoints]
5397,312.5,4,1,1,81,1,0
57584,-200,4,2,1,0,0,0
57901,-100,4,1,1,81,0,1
75244,-200,4,1,1,81,0,1
76651,-100,4,1,1,81,0,1
79928,-100,4,1,1,81,0,0
80397,-200,4,1,1,81,0,1
80713,-100,4,1,1,80,0,1
85088,-200,4,1,1,80,0,1
85557,-100,4,1,1,81,0,1
90088,-200,4,1,1,81,0,1
90557,-100,4,1,1,81,0,1
100397,-100,4,1,1,81,0,0
115557,-200,4,1,1,80,0,0
120244,-100,4,1,1,79,0,0
125557,-200,4,1,1,80,0,0
130244,-100,4,1,1,80,0,0
147584,-200,4,1,1,80,0,0
147901,-100,4,1,1,81,0,1
152818,-100,4,1,1,50,0,1
152979,-100,4,1,1,81,0,1
165397,-200,4,1,1,0,0,1
165553,-200,4,1,1,10,0,1
165709,-200,4,1,1,20,0,1
165865,-200,4,1,1,30,0,1
166022,-200,4,1,1,40,0,1
166178,-200,4,1,1,50,0,1
166334,-200,4,1,1,61,0,1
166490,-200,4,1,1,71,0,1
166651,-100,4,1,1,81,0,1
169928,-200,4,1,1,82,0,1
170240,-100,4,2,1,5,0,1
170397,-100,4,1,1,81,0,0
175397,-100,4,2,1,21,0,0
190397,-100,4,1,1,80,0,1
212897,-100,4,1,1,80,0,0
215397,-100,4,2,1,20,0,0
220285,394.736842105263,4,2,1,65,1,0
220695,394.736842105263,4,2,1,65,1,0
225629,-100,4,2,1,43,0,0
226221,-100,4,2,1,64,0,0
248583,312.5,4,1,1,100,1,0
248583,-200,4,2,1,5,0,0
248895,-100,4,1,1,81,0,1
266396,-200,4,1,1,81,0,1
267646,-100,4,1,1,81,0,1
270926,-100,4,1,1,81,0,0
271239,-100,4,2,1,5,0,0
271396,-200,4,1,1,81,0,1
271708,-100,4,1,1,81,0,1
276239,-200,4,1,1,80,0,1
276552,-100,4,1,1,81,0,1
281239,-200,4,1,1,81,0,1
281552,-100,4,1,1,80,0,1
286395,-100,4,1,1,65,0,0
291395,-100,4,1,1,80,0,1
296239,-200,4,1,1,80,0,1
296552,-100,4,1,1,80,0,1
301239,-200,4,1,1,80,0,1
301552,-100,4,1,1,80,0,1
311395,-100,4,1,1,80,0,0
328270,-100,4,1,1,80,0,0

[Colours]
Combo1 : 221,0,0
Combo2 : 227,227,227

[HitObjects]
256,192,5397,1,4
96,72,5709,5,0
184,48,5865,2,0,B|264:8|368:48,2,180
216,136,6647,2,0,B|192:184|208:224,1,90,4|0
280,272,6959,1,0
280,272,7115,2,0,B|208:208|72:232,1,180
72,144,7584,2,0,B|48:48,1,90
136,32,7897,5,4
216,80,8053,1,0
304,56,8209,1,0
384,104,8365,2,0,B|448:144|448:144|432:264,2,180
360,192,9147,6,0,B|320:232|264:216,1,90,4|0
216,152,9459,2,0,B|160:144|104:160,1,90,4|0
56,216,9772,1,4
56,232,9850,1,0
56,248,9928,1,0
56,264,10006,1,0
56,280,10084,1,4
56,296,10162,1,0
56,312,10240,1,0
56,328,10319,1,0
56,344,10397,5,4
144,320,10553,1,0
232,336,10709,1,8
320,320,10865,2,0,B|360:336|360:336|408:304,1,90
344,240,11178,2,0,B|328:192|328:192|360:152,2,90,0|8|0
432,216,11647,2,0,B|488:160|488:160|488:48,3,180,0|8|0|8
400,80,12740,1,0
312,56,12897,5,4
232,96,13053,1,0
144,104,13209,2,0,B|120:64|152:16,2,90,8|0|0
200,176,13678,1,0
288,208,13834,2,0,B|304:296,2,90,8|0|0
200,176,14303,1,0
208,264,14459,6,0,B|288:344|408:296,1,180,12|0
424,232,14928,1,0
384,152,15084,2,0,B|368:104|384:48,1,90,12|0
296,24,15397,5,4
208,56,15553,1,0
120,24,15709,1,8
96,112,15865,2,0,B|40:120|16:64,2,90
136,200,16334,2,0,B|184:176|232:192,1,90
304,248,16647,5,0
400,240,16803,1,0
368,160,16959,2,0,B|264:232|368:344,1,180,12|0
256,328,17428,2,0,B|200:320|152:328,1,90,0|12
80,304,17740,1,0
40,224,17897,5,4
96,152,18053,2,0,B|88:104|88:104|120:72,1,90,0|8
192,120,18365,2,0,B|224:144|224:144|280:112,1,90
344,72,18678,1,0
408,136,18834,2,0,B|432:232,1,90,8|0
392,304,19147,5,0
376,304,19225,1,0
360,304,19303,1,0
272,288,19459,2,0,B|232:264|176:280,1,90,8|0
96,304,19772,5,0
88,288,19850,1,0
80,272,19928,1,0
40,192,20084,2,0,B|16:152|16:152|24:96,1,90,8|0
112,136,20397,2,0,B|296:136,1,180,4|0
368,88,20865,1,0
424,160,21022,6,0,B|464:192|456:248,2,90
376,232,21490,2,0,B|264:192|224:328,1,180,0|0
184,376,21959,2,0,B|128:344|144:264,1,90
136,208,22272,1,0
112,120,22428,2,0,B|72:88|24:88,2,90,0|0|0
200,152,22897,6,0,B|232:184|288:192,1,90,4|0
288,104,23209,2,0,B|384:80|480:88,1,180
440,176,23678,2,0,B|424:272,1,90
352,312,23990,2,0,B|264:272|160:288,1,180,0|0
96,328,24459,5,0
40,256,24615,1,0
72,168,24772,1,0
80,152,24850,1,0
88,136,24928,1,0
96,120,25006,1,0
104,104,25084,2,0,B|144:16,1,90,0|0
280,216,25397,5,4
344,272,25553,1,0
424,232,25709,2,0,B|456:192|456:136,1,90,8|0
368,128,26022,2,0,B|344:88|360:32,2,90,0|0|8
320,200,26490,2,0,B|256:200|256:200|232:160|232:160|152:160,1,180,0|0
128,240,26959,6,0,B|96:336,1,90,8|0
192,344,27272,1,0
280,320,27428,2,0,B|336:304|392:328,1,90,0|8
432,256,27740,2,0,B|480:160|480:56,1,180,4|0
400,32,28209,5,8
400,32,28365,1,0
328,80,28522,2,0,B|288:112|224:96,1,90
184,32,28834,1,8
184,32,28990,2,0,B|264:104|208:216,1,180,4|0
136,232,29459,2,0,B|152:288|248:280,1,90,8|0
296,296,29772,1,0
360,232,29928,6,0,B|464:208,2,90,0|8|0
320,152,30397,2,0,B|272:128|216:144,1,90,4|0
144,168,30709,1,8
96,248,30865,2,0,B|8:184|80:80,1,180
152,48,31334,1,8
240,72,31490,6,0,B|280:88|328:80,1,90,0|0
416,48,31803,1,0
448,128,31959,2,0,B|464:240,1,90,8|0
408,288,32272,1,0
336,344,32428,1,0
264,288,32584,1,8
200,344,32740,1,0
128,288,32897,5,4
64,224,33053,1,0
128,160,33209,1,8
384,288,33522,5,0
448,224,33678,1,0
384,160,33834,1,8
72,48,34147,5,4
144,104,34303,1,0
144,104,34459,1,8
216,48,34615,1,0
288,104,34772,2,0,B|320:72|320:16,2,90,0|0|8
216,160,35240,2,0,B|168:160,2,45,0|0|4
216,160,35553,5,0
288,208,35709,2,0,B|328:232|328:232|384:208,1,90,8|0
352,128,36022,2,0,B|336:88|336:88|368:56,2,90,0|0|8
440,144,36490,2,0,B|488:184|488:184|488:320,1,180,0|0
416,344,36959,5,8
320,320,37115,1,0
232,336,37272,2,0,B|144:344,2,90,0|0|8
248,256,37740,2,0,B|248:200|248:200|296:160|296:160|296:72,1,180,4|0
208,96,38209,6,0,B|112:80,1,90,8|0
336,240,38522,2,0,B|432:264,2,90,0|0|8
288,312,38990,6,0,B|80:336,1,180,4|0
152,248,39459,1,8
64,216,39615,2,0,B|40:168|72:112,2,90
144,168,40084,1,8
216,216,40240,1,0
272,288,40397,6,0,B|368:304,2,90,4|0|8
312,208,40865,1,0
256,136,41022,2,0,B|200:56,2,90,0|0|8
344,104,41490,1,0
408,168,41647,6,0,B|440:216|400:272,2,90,0|0|8
344,104,42115,1,0
256,136,42272,2,0,B|208:120|168:128,1,90
80,152,42584,1,8
16,216,42740,1,0
80,280,42897,5,4
160,320,43053,1,0
240,280,43209,1,8
432,104,43522,5,4
352,64,43678,1,0
272,104,43834,1,8
80,280,44147,6,0,B|176:280,1,90,0|0
432,280,44459,2,0,B|336:280,1,90,8|0
256,192,44772,1,0
256,176,44850,1,0
256,160,44928,1,0
256,144,45006,1,0
256,128,45084,2,0,B|256:40,1,90,8|0
168,8,45397,6,0,B|256:56|352:8,1,180,4|8
120,88,45865,6,0,B|104:136|120:192,1,90
391,87,46178,2,0,B|408:136|394:176,2,90,0|8|0
336,312,46647,5,0
264,256,46803,1,0
208,328,46959,2,0,B|176:352|176:352|112:328,1,90,8|0
64,272,47272,1,0
112,192,47428,1,0
80,104,47584,2,0,B|64:64|64:64|96:24,1,90,8|0
160,88,47897,6,0,B|200:136|200:136|336:104,1,180,4|8
392,64,48365,1,0
456,128,48522,2,0,B|480:224,1,90
440,296,48834,1,8
360,248,48990,2,0,B|168:248,1,180,0|0
96,272,49459,5,8
48,192,49615,2,0,B|32:152|32:152|64:112,2,90,0|0|0
136,168,50084,2,0,B|232:160,1,90,8|0
312,152,50397,5,4
384,96,50553,1,0
296,72,50709,2,0,B|200:56,1,90,8|0
392,176,51022,2,0,B|408:272,1,90
416,352,51334,1,8
488,296,51490,6,0,B|400:240|304:320,1,180,4|0
232,328,51959,1,8
176,256,52115,2,0,B|72:224,1,90
24,288,52428,1,0
24,288,52584,1,8
24,288,52740,6,0,B|120:248|96:112,1,180,4|0
192,152,53209,2,0,B|176:88|200:56,1,90,8|0
304,192,53522,6,0,B|320:248|304:304,2,90,0|0|8
296,104,53990,1,0
384,128,54147,2,0,B|368:80|384:24,2,90,0|0|8
392,216,54615,1,0
336,288,54772,2,0,B|240:304,1,90
160,280,55084,1,8
200,200,55240,1,0
112,216,55397,6,0,B|56:120|152:48,1,180,4|8
224,96,55865,1,0
304,56,56022,2,0,B|408:40,1,90
376,128,56334,2,0,B|272:144,2,90,8|0|0
464,104,56803,5,0
464,192,56959,1,12
464,280,57115,1,0
464,104,57272,5,6
96,328,57584,6,0,B|96:224,1,90,0|4
40,168,58053,5,0
112,120,58209,1,8
168,192,58365,2,0,B|232:168|232:168|264:32,1,180,0|0
344,32,58834,1,8
328,120,58990,2,0,B|302:228|302:228|352:296,1,180,4|0
264,328,59459,6,0,B|160:352,2,90,8|0|0
208,256,59928,2,0,B|120:240,1,90,0|8
40,280,60240,1,0
24,192,60397,2,0,B|80:120|64:16,1,180,4|8
152,48,60865,1,0
232,88,61022,2,0,B|280:88|320:128,1,90
360,200,61334,1,8
288,256,61490,6,0,B|336:352|448:328,1,180,4|0
464,240,61959,2,0,B|480:144,1,90,8|0
424,80,62272,1,0
352,128,62428,1,0
296,56,62584,1,8
224,104,62740,6,0,B|152:176|224:304,1,180,4|0
288,232,63209,2,0,B|376:248,2,90,8|0|0
128,120,63678,2,0,B|24:112,1,90,0|8
128,304,63990,2,0,B|216:256|320:288,1,180,4|0
376,328,64459,5,8
456,288,64615,2,0,B|448:240|472:176,1,90,0|0
480,112,64928,1,0
416,48,65084,1,8
328,72,65240,1,0
248,32,65397,6,0,B|184:32|184:32|144:72|144:72|72:72,1,180,4|8
216,112,65865,1,0
280,176,66022,2,0,B|304:272,2,90,0|0|8
376,232,66490,6,0,B|320:328|208:296,1,180,4|0
136,272,66959,1,8
72,208,67115,1,0
64,120,67272,2,0,B|56:24,2,90,0|0|8
144,152,67740,6,0,B|192:200|192:200|320:184,1,180,4|0
368,120,68209,1,8
432,184,68365,2,0,B|464:216|464:216|440:280,2,90,0|0|0
360,240,68834,1,8
272,272,68990,2,0,B|96:304,1,180,4|0
40,232,69459,5,8
88,152,69615,2,0,B|112:104|88:48,2,90
176,152,70084,1,8
240,208,70240,1,0
176,264,70397,6,0,B|136:352,1,90,4|0
336,264,70709,2,0,B|376:352,1,90,8|0
112,208,71022,2,0,B|32:264,1,90,4|0
400,208,71334,2,0,B|480:264,1,90,8|0
256,160,71647,2,0,B|256:72,2,90,4|0|8
184,216,72115,6,0,B|216:280|302:280|335:204,1,180
392,152,72584,1,4
400,162,72662,1,0
404,174,72740,1,0
405,187,72819,1,0
403,200,72897,6,0,B|414:251|363:294,1,90,4|0
302,332,73209,2,0,B|259:356|201:330,1,90,8|0
138,287,73522,2,0,B|97:250|106:195,1,90,0|0
168,144,73834,6,0,B|144:96|184:40,2,90,12|0|0
344,144,74303,2,0,B|368:96|328:40,2,90,0|8|0
168,144,74772,5,4
344,184,74928,1,0
168,224,75084,1,12
344,264,75240,1,0
344,264,75397,6,0,B|288:352|192:368|72:344|40:256,1,360,4|0
40,176,76803,5,0
40,160,76881,1,0
40,144,76959,1,8
40,56,77115,1,0
120,96,77272,1,0
200,56,77428,1,0
280,96,77584,2,0,B|384:120,1,90,8|0
440,56,77897,6,0,B|360:136|400:256,1,180,4|8
480,200,78365,2,0,B|488:304,1,90
408,328,78678,1,0
320,312,78834,2,0,B|272:304|216:304,1,90,8|0
144,312,79147,1,4
64,272,79303,1,0
120,200,79459,2,0,B|168:208|216:200,1,90,8|0
296,192,79772,1,0
296,192,79928,1,0
464,56,80397,6,0,B|416:48|360:56,1,90,4|8
288,72,80865,5,0
216,128,81022,2,0,B|176:144|176:144|120:104,2,90,0|0|8
304,160,81490,2,0,B|368:192|368:192|368:328,1,180,4|0
232,312,81959,6,0,B|136:328,1,90,8|0
72,272,82272,1,0
48,184,82428,2,0,B|32:144|32:144|72:104,1,90,0|8
136,160,82740,2,0,B|184:192|184:192|320:120,1,180,4|0
368,88,83209,5,8
440,144,83365,1,0
400,224,83522,2,0,B|384:264|384:312,1,90,0|0
296,344,83834,1,8
208,320,83990,2,0,B|112:312,2,90,0|0|0
272,256,84459,1,8
344,200,84615,2,0,B|448:160,2,90
288,128,85084,1,8
208,176,85240,6,0,B|120:176,1,90,4|0
56,112,85709,5,8
128,56,85865,1,0
208,88,86022,2,0,B|248:64|312:88,1,90
376,120,86334,1,8
352,32,86490,6,0,B|272:88|304:208,1,180,4|0
352,216,86959,2,0,B|232:240,1,90,8|0
288,56,87272,2,0,B|384:32,1,90,0|0
440,96,87584,1,8
480,176,87740,2,0,B|496:256|496:256|416:320,1,180,4|0
328,296,88209,5,8
248,328,88365,1,0
200,256,88522,2,0,B|168:224|168:224|112:240,1,90
40,264,88834,1,8
64,176,88990,1,0
144,136,89147,6,0,B|184:152|184:152|248:136,1,90
312,120,89459,1,8
408,160,89615,2,0,B|464:200|464:200|464:320,1,180,4|0
360,304,90084,1,0
280,264,90240,6,0,B|192:280,1,90,4|0
104,272,90709,5,8
56,200,90865,2,0,B|40:168|40:168|64:112,2,90
144,184,91334,1,8
224,144,91490,6,0,B|320:128|320:128|360:48,1,180,4|0
264,56,91959,2,0,B|168:40,2,90,8|0|0
312,208,92428,2,0,B|328:296,1,90,0|8
408,328,92740,2,0,B|320:288|216:304,1,180,4|0
192,224,93209,6,0,B|168:128,1,90,8|0
256,152,93522,2,0,B|248:48,1,90
328,104,93834,2,0,B|344:16,2,90,8|0|0
408,144,94303,2,0,B|368:224,2,90,0|8|0
472,208,94772,2,0,B|456:312,1,90,8|0
376,336,95084,1,8
376,336,95240,1,0
288,304,95397,6,0,B|200:272|96:272,1,180,4|0
72,192,95865,2,0,B|160:176|272:208,1,180
336,240,96334,2,0,B|384:264|432:272,2,90,4|0|0
384,168,96803,1,0
336,96,96959,1,4
248,96,97115,1,0
168,56,97272,6,0,B|72:40,1,90,4|0
16,104,97584,1,0
80,168,97740,2,0,B|112:232|112:232|160:232|160:232|192:304,1,180,4|0
96,320,98209,6,0,B|0:352,1,90,0|0
160,160,98522,2,0,B|208:144|256:144,1,90,4|0
320,208,98834,1,4
408,160,98990,1,0
256,192,99147,12,0,100397
64,296,115397,5,4
104,312,115553,1,0
144,296,115709,2,0,B|184:280|240:280,1,90
280,288,116178,1,0
320,296,116334,1,0
368,288,116490,2,0,B|376:240|352:184,1,90,0|0
272,56,116959,6,0,B|288:96|288:144,1,90,0|0
264,184,117428,1,0
232,208,117584,1,0
192,232,117740,2,0,B|168:192|176:136,1,90,4|0
248,80,118209,5,0
288,104,118365,1,0
320,136,118522,1,0
336,176,118678,1,0
352,264,118990,2,0,B|408:240|416:192,2,90,4|0|0
264,272,119772,5,0
176,272,119928,1,0
160,272,120006,1,0
144,272,120084,1,0
128,272,120162,1,0
112,272,120240,1,0
96,272,120319,1,0
80,272,120397,6,0,B|40:256|40:256|24:200,2,90,4|0|8
168,192,120865,2,0,B|248:184|248:184|280:80,1,180
464,40,121334,2,0,B|384:48|384:48|352:152,1,180,8|0
336,232,121803,1,0
400,296,121959,2,0,B|424:208,1,90,8|0
272,64,122272,2,0,B|240:160,2,90,0|0|8
184,32,122740,1,0
112,80,122897,5,4
64,152,123053,1,0
152,168,123209,1,8
400,304,123522,5,4
448,232,123678,1,0
360,216,123834,1,8
208,56,124147,5,4
304,56,124303,1,0
152,128,124459,1,8
360,128,124615,1,0
184,208,124772,1,0
328,208,124928,1,0
160,288,125084,5,12
208,288,125162,1,0
256,288,125240,1,0
304,288,125319,1,0
352,288,125397,1,8
256,192,125553,5,0
96,56,125709,2,0,B|72:96|72:144,1,90,4|0
88,184,126178,1,0
112,224,126334,1,0
152,248,126490,2,0,B|192:272|256:272,1,90,0|0
360,312,126959,6,0,B|328:352|272:352,1,90,4|0
240,352,127428,1,0
200,336,127584,1,0
160,312,127740,2,0,B|168:264|192:224,1,90,0|0
336,144,128209,6,0,B|328:192|288:240,1,90,4|0
264,256,128678,1,0
216,264,128834,1,0
176,256,128990,6,0,B|128:248|88:272,2,90
168,208,129772,1,0
152,168,129928,1,0
112,144,130084,1,0
72,160,130240,1,0
56,200,130397,6,0,B|56:320,2,90,4|0|8
200,376,130865,2,0,B|200:272,2,90
304,304,131334,2,0,B|304:240|304:240|352:200|352:200|352:136,1,180,8|0
384,280,131803,2,0,B|400:376,1,90,0|8
272,160,132115,2,0,B|232:120|264:48,2,90,0|0|0
344,104,132584,1,8
432,128,132740,1,0
456,216,132897,6,0,B|472:320,2,90,4|0|8
56,216,133522,6,0,B|40:320,2,90,0|0|8
56,216,134147,5,4
128,272,134303,1,0
200,216,134459,1,8
272,272,134615,1,0
344,216,134772,5,0
352,200,134850,1,0
360,184,134928,1,0
368,168,135006,1,0
376,152,135084,2,0,B|392:112|392:112|416:48,1,90,8|0
312,112,135397,6,0,B|232:112|232:112|208:176|128:152,1,180,4|8
0,120,135865,2,0,B|80:120|80:120|104:56|184:80,1,180
272,208,136334,2,0,B|304:248|288:296,1,90,8|0
200,312,136647,1,0
112,296,136803,2,0,B|16:312,2,90,0|8|0
168,224,137272,1,0
224,152,137428,2,0,B|264:120|320:128,2,90,0|8|0
352,48,137897,6,0,B|296:120|352:216,1,180,4|8
440,184,138365,2,0,B|456:296|360:352,1,180
296,296,138834,2,0,B|240:272|176:280,1,90,8|0
120,288,139147,1,0
48,232,139303,2,0,B|16:136,2,90,0|8|0
160,40,139772,6,0,B|128:128,2,90,0|0|8
232,96,140240,1,0
320,80,140397,2,0,B|368:64|368:64|408:88,1,90,0|0
448,160,140709,6,0,B|488:128|488:128|488:80,2,90,12|0|0
368,200,141178,1,0
280,184,141334,1,8
200,232,141490,6,0,B|144:232|144:232|104:280|104:280|40:280,1,180,0|0
176,312,141959,2,0,B|208:344|208:344|264:344,1,90,8|0
288,264,142272,2,0,B|320:232|320:232|392:232,2,90,0|0|8
416,328,142740,6,0,B|480:288|480:288|480:168,1,180,4|0
432,104,143209,2,0,B|392:80|392:80|344:88,1,90,8|0
368,176,143522,2,0,B|280:200,1,90
192,184,143834,1,8
120,232,143990,1,0
192,280,144147,6,0,B|280:304,1,90,0|0
480,256,144459,2,0,B|384:232,1,90,8|0
328,176,144772,1,0
280,96,144928,2,0,B|248:56|248:8,2,90,0|8|0
392,120,145397,6,0,B|288:96|224:168,1,180,4|8
256,248,145865,2,0,B|272:288|264:344,2,90
168,272,146334,1,8
96,216,146490,2,0,B|64:112,2,90,0|0|0
160,160,146959,1,8
240,120,147115,2,0,B|248:24,1,90,0|2
448,328,147584,6,0,B|360:328,1,90,0|4
288,272,148053,5,0
200,248,148209,2,0,B|152:232|104:240,1,90,8|0
48,304,148522,2,0,B|8:264|32:200,2,90,0|0|8
136,328,148990,2,0,B|224:320|336:352,1,180,4|0
368,280,149459,2,0,B|400:192,1,90,8|0
304,24,149772,2,0,B|272:120,2,90,0|0|8
208,40,150240,1,0
136,96,150397,5,4
160,176,150553,1,0
240,216,150709,2,0,B|280:192|344:200,1,90,8|0
384,136,151022,2,0,B|328:216|392:304,1,180,0|8
472,232,151490,2,0,B|528:144|472:56,1,180,0|0
392,32,151959,1,8
312,72,152115,1,0
224,48,152272,6,0,B|120:40,2,90,0|0|8
264,128,152740,1,4
336,176,152897,2,0,B|384:144|376:88,2,90,0|0|8
264,128,153365,1,0
184,168,153522,2,0,B|144:256,1,90,0|0
168,336,153834,1,8
240,280,153990,6,0,B|336:248|456:272,1,180,4|0
464,192,154459,1,8
440,104,154615,1,0
360,64,154772,2,0,B|320:40|272:40,1,90,0|0
48,160,155084,2,0,B|88:184|136:184,1,90,8|0
160,96,155397,6,0,B|256:152|192:264,1,180,4|8
120,296,155865,1,0
200,344,156022,2,0,B|256:368|304:320,2,90,0|0|8
200,256,156490,6,0,B|272:176|368:224,1,180,4|0
432,160,156959,1,8
432,160,157115,1,0
464,248,157272,2,0,B|480:344,2,90,0|0|8
336,144,157740,6,0,B|240:200|160:88,1,180,4|0
304,232,158209,2,0,B|320:280|296:336,1,90,8|0
120,344,158522,1,0
48,200,158678,1,0
120,344,158834,1,8
216,320,158990,2,0,B|424:352,1,180,4|0
448,264,159459,6,0,B|480:224|456:160,1,90,8|0
272,144,159772,2,0,B|288:200|360:208,1,90
424,48,160084,2,0,B|368:56|344:120,1,90,8|0
256,320,160397,5,4
160,144,160553,1,0
352,144,160709,1,0
144,264,160865,1,0
352,320,161022,6,0,B|464:320,1,90,0|0
160,320,161334,2,0,B|48:320,1,90,8|0
256,224,161647,2,4,B|256:128,1,90,4|0
256,32,161959,1,8
176,88,162115,2,0,B|264:144|344:88,1,180,0|0
432,48,162584,6,0,B|480:40,2,45
440,144,162897,6,0,B|464:232,2,90,4|0|8
312,336,163365,2,0,B|288:232,2,90
128,56,163834,6,0,B|144:144,2,90,8|0|0
64,168,164303,2,0,B|64:240|152:232,1,90,0|8
200,200,164615,2,0,B|248:176|304:184,1,90,0|0
376,192,164928,1,0
408,280,165084,2,0,B|360:296|304:296,1,90,8|0
152,280,165397,6,0,B|136:280,32,11.25,0|0|0|0|0|0|0|0|0|0|0|0|0|0|0|0|0|0|0|0|0|0|0|0|0|0|0|0|0|0|0|0|4
88,160,166803,5,0
96,144,166881,1,0
104,128,166959,1,8
192,224,167115,1,0
184,240,167194,1,0
176,256,167272,1,0
304,136,167428,5,0
376,88,167584,1,8
416,168,167740,2,0,B|416:232|416:232|456:264|456:264|456:336,1,180,4|0
368,312,168209,2,0,B|264:328,1,90,8|0
112,240,168522,2,0,B|224:224,2,90,0|0|8
48,160,168990,1,0
224,40,169147,5,4
312,88,169303,1,0
240,160,169459,2,0,B|256:200|320:216,1,90,8|0
392,160,169772,1,0
416,248,169928,6,0,B|400:304|320:312,1,90,0|0
256,192,170397,5,4
256,192,170553,12,0,175397
96,144,190397,5,4
128,112,190475,1,0
168,104,190553,1,0
208,120,190631,1,0
240,152,190709,1,0
280,168,190787,1,0
320,160,190865,1,0
360,144,190943,1,0
400,160,191022,6,0,B|440:176,3,45
424,216,191334,2,0,B|448:256,3,45
448,304,191647,5,4
408,320,191725,1,0
368,296,191803,1,0
344,256,191881,1,0
312,224,191959,1,0
272,216,192037,1,0
224,224,192115,1,0
192,256,192193,1,0
176,296,192272,5,4
184,336,192350,1,0
216,368,192428,1,0
256,384,192506,1,0
296,368,192584,1,4
328,344,192662,1,0
336,304,192740,1,0
320,264,192818,1,0
288,232,192897,6,0,B|288:176|288:176|336:144|336:144|336:56,1,180,4|0
248,104,193365,2,0,B|152:88,1,90
400,232,193678,2,0,B|424:264|424:264|400:336,2,90,0|4|0
296,280,194147,6,0,B|96:296,1,180,4|0
0,184,194615,2,4,B|200:168,1,180
328,176,195084,2,0,B|376:192,2,45
392,80,195397,5,4
304,112,195553,2,0,B|280:152|280:152|216:136,1,90
192,64,195865,1,0
136,136,196022,1,0
136,136,196178,2,0,B|80:176|80:176|80:320,1,180
208,224,196647,2,0,B|272:176|272:176|272:104,2,135,4|0|0
248,312,197272,5,4
260,316,197350,1,0
272,320,197428,1,0
284,324,197506,1,0
296,328,197584,2,0,B|396:360,1,90,4|0
448,312,197897,6,0,B|448:240|448:240|488:216|488:216|488:128,1,180,4|0
448,16,198365,2,0,B|448:88|448:88|408:112|408:112|408:200,1,180
320,200,198834,2,0,B|320:112,2,90
320,288,199303,5,0
232,264,199459,1,4
440,120,199615,1,0
432,208,199772,1,4
240,56,199928,1,0
328,32,200084,1,4
128,152,200240,1,0
64,216,200397,6,0,B|80:256|80:320,1,90,4|0
152,360,200709,1,0
216,296,200865,2,0,B|408:280,1,180
464,224,201334,1,4
416,144,201490,1,0
336,184,201647,2,0,B|304:240|200:232|200:136,1,180,4|0
280,112,202115,2,0,B|312:56|416:64|416:160,1,180,4|0
416,232,202584,2,0,B|400:288|320:288,1,90,4|0
264,264,202897,6,0,B|168:240|80:248,1,180,4|0
64,208,203287,1,4
48,168,203365,1,0
64,128,203444,1,0
96,96,203522,1,0
136,80,203600,1,0
176,88,203678,1,0
208,120,203756,1,0
208,168,203834,5,0
184,208,203912,1,0
176,248,203990,1,0
192,288,204068,1,0
232,312,204147,1,0
280,304,204225,1,0
312,272,204303,1,0
320,224,204381,1,0
312,176,204459,5,0
320,128,204537,1,0
352,96,204615,1,0
392,80,204693,1,0
432,88,204772,1,0
464,120,204850,1,0
480,160,204928,1,0
480,208,205006,1,0
464,248,205084,5,0
440,288,205162,1,0
400,312,205240,1,0
360,320,205318,1,0
312,312,205397,6,0,B|264:304|216:312,1,90,4|0
136,336,205709,1,0
80,264,205865,2,0,B|56:160,2,90,4|0|0
160,224,206334,1,4
296,136,206490,1,0
160,224,206647,1,0
216,280,206803,6,0,B|304:304,1,90,4|0
456,208,207115,2,0,B|360:168,2,90,0|4|0
344,288,207584,1,0
200,304,207740,5,4
152,312,207819,1,0
112,288,207897,1,0
96,248,207975,1,0
112,208,208053,1,0
152,184,208131,1,0
192,200,208209,1,0
224,232,208287,1,0
264,224,208365,6,0,B|312:232,3,45
320,192,208677,2,0,B|384:184,3,45
368,232,208990,5,0
384,272,209068,1,0
424,296,209146,1,0
464,288,209224,1,0
496,256,209302,1,0
504,216,209380,1,0
488,176,209458,1,0
456,152,209536,1,0
416,136,209615,6,0,B|376:112|328:112,1,90
144,208,209928,2,0,B|192:208|224:152,1,90
64,152,210240,1,0
96,272,210397,5,4
112,312,210475,1,0
144,344,210553,1,0
184,360,210631,1,0
224,352,210709,1,0
256,320,210787,1,0
272,280,210865,1,0
256,240,210943,1,0
264,192,211022,6,0,B|272:144,3,45
312,168,211334,2,0,B|344:120,3,45
384,128,211647,5,0
424,144,211725,1,0
456,176,211803,1,0
472,216,211881,1,0
464,256,211959,1,0
432,288,212037,1,0
392,304,212115,1,0
344,296,212193,1,0
304,312,212272,6,0,B|248:304,3,45
256,264,212584,2,0,B|192:240,3,45
184,216,212897,5,4
256,192,212975,12,0,215397
88,160,220285,5,0
88,160,220482,1,0
176,80,220695,6,0,B|232:168|200:264,1,180,2|0
128,304,221287,2,0,B|200:240|304:272,1,180,2|0
360,328,221879,1,2
456,80,222273,1,0
192,136,222668,6,0,B|8:136,2,180,2|0|2
352,56,223852,2,0,B|464:96|480:192|400:288,1,270,2|0
488,320,224642,2,0,B|400:272|272:288,1,180,2|0
240,328,225234,2,0,B|152:368|40:320,1,180,2|0
400,56,226023,5,0
328,112,226221,2,0,B|272:192|296:288,1,180,2|0
384,296,226813,2,0,B|200:296,1,180,2|0
112,296,227405,1,0
56,128,227800,2,0,B|248:128,2,180,2|0|2
336,256,228984,6,0,B|400:232|432:176|368:96,2,180,2|0|2
400,320,229971,1,0
400,320,230168,2,0,B|304:376|240:280,1,180,2|0
200,112,230958,6,0,B|184:56|144:32|88:40|56:96,1,180,2|0
56,176,231550,2,0,B|72:232|112:256|168:248|200:192,1,180,2|0
272,160,232142,1,2
360,136,232339,1,0
440,184,232537,1,2
472,272,232734,1,0
408,336,232931,1,2
320,312,233129,6,0,B|248:280|120:304,1,180,0|2
80,232,233721,1,0
56,144,233918,2,0,B|24:96|48:48,2,90,2|0|2
136,96,234510,1,0
216,136,234708,1,2
144,192,234905,2,0,B|208:272|320:208,1,180,0|0
352,136,235497,1,2
400,216,235695,2,0,B|496:144|432:48,2,180,0|2|0
448,288,236681,5,2
360,312,236879,2,0,B|264:288,1,90,0|2
320,216,237273,2,0,B|216:168|160:272,1,180,0|2
88,312,237866,1,0
56,224,238063,2,0,B|40:32,1,180,2|0
120,80,238655,2,0,B|168:168|288:112,1,180,2|0
312,200,239247,2,0,B|336:288,1,90,2|0
416,320,239642,6,0,B|304:280|216:328,1,180,2|0
48,216,240234,2,0,B|160:256|248:208,1,180,2|0
304,176,240826,1,2
384,224,241023,1,0
440,152,241221,2,0,B|392:144|376:80,1,90,2|0
304,40,241616,1,2
224,80,241813,1,0
136,64,242010,6,0,B|136:264,1,180,2|0
136,244,242602,1,2
256,192,242800,12,0,245958
472,336,248583,6,0,B|472:248,1,90,0|4
424,160,249052,5,0
352,216,249209,1,8
264,232,249365,2,0,B|184:152|272:56,1,180
352,64,249834,1,8
352,64,249990,2,0,B|232:120|176:-16,1,180,4|0
112,160,250459,6,0,B|96:64,1,90,8|0
216,232,250771,2,0,B|240:144,1,90,0|0
112,336,251084,2,0,B|72:256,1,90,8|0
224,320,251396,6,0,B|296:376|400:328,1,180,4|8
360,248,251864,1,0
432,192,252021,2,0,B|456:96,2,90,0|0|8
360,136,252489,2,0,B|304:136|304:136|264:88|264:88|200:88,1,180,4|0
184,176,252958,2,0,B|72:208,1,90,8|0
224,272,253271,2,0,B|320:304,2,90,0|0|8
136,288,253739,6,0,B|40:240|72:112,1,180,4|0
136,72,254208,1,8
200,136,254364,1,0
288,104,254521,2,0,B|320:72|304:16,2,90,0|4|8
200,136,254989,2,0,B|256:224|368:184,1,180,4|0
432,232,255458,6,0,B|464:328,1,90,8|0
368,320,255771,2,0,B|304:240|192:296,1,180,0|8
136,336,256239,1,0
72,272,256396,2,0,B|40:232|64:176,1,90,4|0
144,208,256708,2,0,B|160:112,1,90,8|0
88,48,257021,6,0,B|160:128|264:88,1,180,0|8
456,216,257489,2,0,B|384:136|280:176,1,180,4|0
224,232,257958,2,0,B|184:192|200:144,1,90,8|0
256,80,258271,5,0
408,120,258427,1,0
360,272,258583,1,8
296,328,258739,6,0,B|224:352|224:352|128:288,1,180,4|0
168,208,259208,1,8
96,152,259364,1,0
48,232,259521,2,0,B|40:280|40:280|72:328,2,90,0|4|8
136,216,259989,2,0,B|320:192,1,180,4|0
432,104,260458,5,8
448,192,260614,1,0
312,336,260771,1,0
288,248,260927,1,0
112,48,261083,1,8
88,136,261239,1,0
152,200,261396,6,0,B|192:232|248:216,1,90,0|0
384,168,261708,2,0,B|336:144|280:160,1,90,8|0
320,240,262021,2,0,B|320:344,1,90,0|0
224,136,262333,2,0,B|224:48,1,90,8|0
312,32,262646,5,0
376,96,262802,1,0
464,72,262958,1,8
400,208,263114,6,0,B|384:304|216:336,1,180,4|0
120,328,263583,1,0
112,312,263661,1,0
104,296,263739,1,0
96,280,263817,1,0
88,264,263896,6,0,B|40:168,2,90,4|0|8
168,144,264364,2,0,B|152:40,2,90,0|0|0
344,144,264833,2,0,B|360:40,2,90,8|0|0
424,264,265302,2,0,B|472:168,2,90,0|8|0
256,256,265771,6,0,B|256:56,1,180,4|0
128,360,266396,2,0,B|128:264|264:224|376:272|384:368,1,360
448,304,267802,5,0
456,288,267880,1,0
464,272,267958,1,8
368,176,268114,1,0
360,160,268192,1,0
352,144,268271,1,0
224,72,268427,5,0
136,40,268583,1,8
80,112,268739,2,0,B|8:200|112:296,1,180,4|0
152,208,269208,1,8
232,248,269364,2,0,B|256:344,2,90,0|4|0
304,192,269833,1,8
376,248,269989,1,0
432,176,270146,6,0,B|456:72,2,90,4|0|8
360,120,270614,1,0
272,88,270771,1,0
272,88,270927,2,0,B|216:120|216:120|80:96,1,180,4|0
48,176,271396,6,0,B|16:280,1,90,4|8
88,320,271864,5,0
176,296,272021,2,0,B|224:272|264:280,1,90,0|0
336,336,272333,1,8
416,304,272489,2,0,B|488:216|400:120,1,180,4|0
336,184,272958,2,0,B|248:200,1,90,8|0
80,64,273271,6,0,B|176:40,2,90,0|0|8
128,136,273739,2,0,B|184:192|184:192|160:304,1,180,4|0
72,272,274208,2,0,B|56:320|56:320|88:368,1,90,8|0
168,368,274521,1,0
248,328,274677,1,0
336,344,274833,2,0,B|376:248,1,90,8|0
216,128,275146,6,0,B|192:24,1,90,0|8
120,104,275458,1,0
152,200,275614,2,0,B|256:248|320:152,1,180,8|0
368,80,276083,1,0
416,168,276239,6,0,B|440:272,1,90,4|0
368,328,276708,6,0,B|344:224,1,90,8|0
256,184,277021,1,0
168,240,277177,1,0
80,176,277333,1,8
88,88,277489,6,0,B|168:16|256:80,1,180,4|0
200,152,277958,1,8
288,168,278114,1,0
352,104,278271,1,0
408,176,278427,2,0,B|376:216|392:288,1,90,0|8
464,304,278739,6,0,B|376:256|288:280,1,180,4|0
208,320,279208,1,8
120,288,279364,1,0
64,216,279521,2,0,B|32:176|48:120,1,90,8|0
136,144,279833,2,0,B|152:40,2,90,8|0|8
200,208,280302,1,0
264,144,280458,1,8
320,208,280614,2,0,B|400:264|512:208,1,180,4|0
72,336,281239,6,0,B|72:240,1,90,4|0
144,192,281708,5,8
232,216,281864,1,0
320,232,282020,2,0,B|368:216|368:216|392:168,1,90
440,112,282333,1,8
360,72,282489,2,0,B|168:48,1,180,4|0
112,104,282958,1,8
112,104,283114,1,0
136,280,283271,6,0,B|32:304,2,90,0|0|8
96,200,283739,2,0,B|200:152|248:264,1,180,4|0
208,336,284208,1,8
296,360,284364,1,0
376,312,284521,6,0,B|464:248,1,90,0|0
136,312,284833,2,0,B|48:248,1,90,8|0
368,216,285146,2,0,B|432:128,1,90,8|0
144,216,285458,2,0,B|80:128,1,90,8|0
328,136,285771,2,0,B|360:40,1,90,8|0
184,136,286083,2,0,B|152:40,1,90,8|0
256,192,286396,6,0,B|64:192,1,180,4|0
256,192,286864,2,0,B|448:192,1,180,4|0
256,272,287333,2,0,B|256:360,2,90,4|0|0
184,288,287802,5,0
328,288,287958,1,0
256,192,288114,1,0
184,96,288271,1,0
328,96,288427,1,0
256,192,288583,1,0
184,288,288739,2,0,B|120:232|120:232|120:120,1,180,4|0
328,96,289208,2,0,B|392:152|392:152|392:264,1,180,4|0
312,288,289677,6,0,B|312:336|312:336|344:368,2,90,4|0|0
232,288,290146,1,4
184,296,290224,1,0
144,280,290302,1,0
120,240,290380,1,0
136,200,290458,1,4
168,176,290536,1,0
216,168,290614,1,0
256,184,290692,1,0
296,208,290771,6,0,B|352:200,3,45
352,160,291083,2,0,B|424:144,3,45,4|0|0|0
432,168,291396,6,0,B|456:280,1,90,4|0
376,296,291708,1,8
288,328,291864,1,0
224,264,292021,2,0,B|192:240|128:248,1,90,8|0
72,312,292333,1,8
72,312,292489,2,0,B|160:248|104:144,1,180,4|0
32,104,292958,2,0,B|56:56|128:48,1,90,8|0
217,119,293271,6,0,B|305:135,1,90,8|0
448,232,293583,1,8
392,304,293739,2,0,B|280:352|224:224,1,180,4|0
192,328,294208,2,0,B|88:352,1,90,8|0
48,280,294521,1,8
88,200,294677,1,0
56,120,294833,2,0,B|32:24,2,90,8|0|8
144,136,295302,5,0
216,88,295458,1,8
264,168,295614,2,0,B|360:192|360:192|432:136,1,180,4|0
440,232,296083,1,0
328,312,296239,6,0,B|224:312,1,90,4|0
144,312,296708,5,8
104,216,296864,1,0
168,128,297021,6,0,B|272:152,1,90,8|0
344,120,297333,1,8
408,184,297489,2,0,B|328:264|416:360,1,180,4|0
464,256,297958,2,0,B|512:224|496:160,1,90,8|0
296,320,298271,2,0,B|184:320,1,90,8|0
128,272,298583,1,8
56,224,298739,6,0,B|56:160|56:160|104:128|104:128|104:48,1,180,4|0
136,200,299208,2,0,B|184:224|232:200,1,90,8|0
280,136,299521,1,8
360,184,299677,2,0,B|376:272,2,90,0|8|0
464,288,300146,6,0,B|432:360|352:368|288:312,1,180,4|0
240,280,300614,1,0
152,288,300771,2,0,B|48:304,1,90,4|0
384,80,301239,6,0,B|472:72,1,90,4|0
440,168,301708,6,0,B|336:176,1,90,8|0
280,120,302021,1,8
208,72,302177,2,0,B|176:48|176:48|112:64,1,90,0|8
168,136,302489,2,0,B|192:216|192:216|288:256,1,180,4|0
224,328,302958,1,8
136,320,303114,2,0,B|48:336,2,90,0|8|0
184,248,303583,1,0
272,264,303739,2,0,B|336:216|336:216|336:96,1,180,4|0
200,104,304208,6,0,B|184:64|184:64|128:56,1,90,4|0
8,216,304521,2,0,B|24:256|24:256|80:264,1,90,0|0
152,88,304833,2,0,B|136:48|136:48|80:40,1,90,0|0
312,280,305146,6,0,B|328:320|328:320|384:328,1,90,4|0
504,168,305459,2,0,B|488:128|488:128|432:120,1,90,0|0
360,296,305771,2,0,B|376:336|376:336|432:344,1,90,4|0
464,152,306083,2,0,B|448:112|448:112|392:104,1,90,4|0
376,192,306396,6,0,B|184:192,1,180,4|0
96,272,306864,2,0,B|280:272,1,180,4|0
344,344,307333,2,0,B|392:320|376:256,2,90,4|0|0
144,192,307802,2,0,B|96:152|144:72,2,90,4|0|0
240,240,308271,5,4
336,192,308427,1,0
392,280,308583,1,0
296,336,308739,2,0,B|104:336,1,180,4|0
32,256,309208,6,0,B|16:160,1,90,4|0
104,200,309521,2,0,B|112:104,1,90
192,152,309833,1,0
200,240,309989,1,0
288,256,310146,5,4
328,272,310224,1,0
376,264,310302,1,0
416,240,310380,1,0
432,200,310458,1,4
424,152,310536,1,0
392,120,310614,1,0
352,112,310692,1,0
312,128,310771,6,0,B|256:144,3,45,4|0|0|0
256,96,311083,2,0,B|208:104,3,45,4|0|0|0
168,192,311396,6,0,B|120:168|128:96,2,90,4|0|0
256,104,311864,2,0,B|280:56|352:64,2,90,4|0|0
344,192,312333,2,0,B|392:216|384:288,2,90,4|0|0
256,280,312802,2,0,B|232:328|160:320,2,90,4|0|0
160,144,313271,5,4
320,104,313427,1,0
360,264,313583,1,4
208,312,313739,1,0
208,312,313896,6,0,B|120:312,2,90,4|0|0
304,232,314364,2,0,B|416:232,2,90,4|0|0
208,152,314833,2,0,B|96:152,2,90,4|0|0
304,72,315302,2,0,B|408:72,2,90,4|0|0
168,72,315771,5,4
344,152,315927,1,0
168,232,316083,1,4
344,312,316239,1,0
344,312,316396,6,0,B|256:312,2,90,4|0|0
168,232,316864,2,0,B|280:232,2,90,4|0|0
344,152,317333,2,0,B|248:152,2,90,4|0|0
168,72,317802,2,0,B|272:72,2,90,4|0|0
344,72,318271,5,4
168,152,318427,1,0
344,232,318583,1,4
168,312,318739,1,0
256,272,318896,6,0,B|264:320|336:352,2,90,4|0|0
168,200,319364,2,0,B|120:224|128:296,2,90,4|0|0
256,96,319833,2,0,B|232:48|160:56,2,90,4|0|0
344,200,320302,2,0,B|392:176|384:104,2,90,4|0|0
192,288,320770,5,4
152,128,320926,1,0
312,88,321082,1,4
360,240,321238,1,0
256,192,321396,5,8
256,192,321552,1,0
256,80,321864,1,8
256,80,322021,1,0
152,260,322333,1,8
152,260,322490,1,0
359,260,322801,1,8
359,260,322958,1,0
256,80,323271,5,8
152,260,323427,1,0
359,260,323583,1,4
256,192,323896,5,8
256,192,324052,1,0
256,304,324364,1,8
256,304,324521,1,0
360,124,324833,1,8
360,124,324990,1,0
153,124,325301,1,8
153,124,325458,1,0
256,304,325771,5,8
360,124,325927,1,0
153,124,326083,1,4
256,192,326239,12,4,328270
