osu file format v9

[General]
AudioFilename: Ayane - Endless Tears..mp3
AudioLeadIn: 0
PreviewTime: 57584
Countdown: 0
SampleSet: Normal
StackLeniency: 0.7
Mode: 0
LetterboxInBreaks: 0
EpilepsyWarning: 1

[Editor]
Bookmarks: 172635
DistanceSpacing: 1.4
BeatDivisor: 4
GridSize: 4

[Metadata]
Title:Endless Tears...
Artist:Ayane
Creator:lkp
Version:Imprecation
Source:11eyes CrossOver
Tags:Beuchi-chan Louis Cyphre aesopl19193 ignorethis koko6162006 lass 5pb.games

[Difficulty]
HPDrainRate:6
CircleSize:4
OverallDifficulty:6
ApproachRate:7
SliderMultiplier:1.4
SliderTickRate:1

[Events]
//Background and Video events
0,0,"b3d1dfcb52c22c028f0fa5329dc1e45cb.jpg"
//Break Periods
2,115597,118090
2,125597,128090
//Storyboard Layer 0 (Background)
Sprite,Background,Centre,"b3d1dfcb52c22c028f0fa5329dc1e45cb.jpg",320,240 F,0,0,,1 F,0,1647,4147,1,0 F,0,170397,171648,0,1 F,0,175397,,1
Sprite,Background,Centre,"SB\BG Logo.jpg",320,240 F,0,10397,,1 S,0,10397,,1 F,0,25395,25396,1,0
Sprite,Background,Centre,"SB\1.jpg",320,240 M,0,25397,35709,256,240,384,240
Sprite,Background,Centre,"SB\2.jpg",320,240 F,0,35397,35709,0,1 M,0,35397,45709,422,240,212,240 F,0,35709,,1
Sprite,Background,Centre,"SB\3 - Green.jpg",320,240 F,0,45397,45709,0,1 M,1,45397,55396,217,240,426,240
Sprite,Background,Centre,"SB\3 - Cut.jpg",320,240 M,0,55397,57115,320,240 M,0,57115,,320,240
Sprite,Background,Centre,"SB\3 - Red.jpg",320,240 F,0,55397,55553,0,0.25 F,0,55553,55709,0.25,0 F,0,55865,56022,0,0.5 F,0,56022,56178,0.5,0 F,0,56334,56490,0,0.75 F,0,56490,56647,0.75,0 F,0,56803,56959,0,1 F,0,56959,57115,1 F,0,57428,,1
Sprite,Background,Centre,"SB\3 - Zoom.jpg",320,240 F,0,57272,57428,0,1 S,1,57272,57584,1,1.1024 F,0,57428,57584,1,0
Sprite,Background,Centre,"SB\4 - 1.jpg",320,240 F,0,57818,57897,0,1 S,0,57818,70397,1,0.8854058 S,0,70397,,0.8854058
Sprite,Background,Centre,"SB\4 - 3.jpg",320,240 S,0,69147,,0.8967933 F,0,69147,70397,0,1 S,0,69147,77272,0.8967933,0.8227749 S,0,77272,,0.8227749
Sprite,Background,Centre,"SB\4 - 4.jpg",320,240 S,0,75397,,0.839856 F,0,75397,77272,0,1 S,0,75397,79772,0.839856,0.8 F,0,77272,,1
Sprite,Background,Centre,"SB\4 - 5.jpg",320,240 S,0,77897,,0.8170812 F,0,77897,79772,0,1 S,0,77897,79772,0.8170812,0.8 F,0,79772,79928,1,0 S,0,79772,79928,0.8,0.87168
Sprite,Background,Centre,"SB\5.jpg",320,240 F,0,80318,80397,0,1 M,0,80318,85553,320,177,320,300
Sprite,Background,Centre,"SB\6.jpg",320,240 F,0,85240,85553,0,1 M,0,85240,90553,400,240,242,240
Sprite,Background,Centre,"SB\7.jpg",320,240 F,0,90240,90553,0,1 M,0,90240,100397,251,240,391,240 F,0,99772,100397,1,0
Sprite,Background,Centre,"SB\9.jpg",320,240 M,0,115397,125709,425,240,213,240
Sprite,Background,Centre,"SB\10.jpg",320,240 F,0,125397,125709,0,1 M,0,125397,135709,241,240,400,240
Sprite,Background,Centre,"SB\11 - Crystal.jpg",320,240 F,0,135397,135709,0,1 M,1,135397,145396,400,240,239,240
Sprite,Background,Centre,"SB\11 - Cut.jpg",320,240 M,0,145397,147272,320,240
Sprite,Background,Centre,"SB\11 - Broken.jpg",320,240 F,1,145397,147272,0,1 F,0,147428,,1
Sprite,Background,Centre,"SB\11 - Zoom.jpg",320,240 F,0,147272,147428,0,1 S,1,147272,147584,1,1.1024 F,0,147428,147584,1,0
Sprite,Background,Centre,"SB\12 - 1.jpg",320,240 F,0,147818,147897,0,1 S,0,147818,159147,1,0.8967933 S,0,159147,,0.8967933
Sprite,Background,Centre,"SB\12 - 2.jpg",320,240 S,0,157897,,0.9081808 F,0,157897,159147,0,1 S,0,157897,161647,0.9081808,0.8740184 S,0,161647,,0.8740184
Sprite,Background,Centre,"SB\12 - 3.jpg",320,240 S,0,160318,,0.8861256 F,0,160318,161647,0,1 S,0,160318,166669,0.8861256,0.8282682 S,0,166669,,0.8282682
Sprite,Background,Centre,"SB\12 - 4.jpg",320,240 S,0,165397,,0.8398561 F,0,165397,166647,0,1 S,0,165397,169772,0.8398561,0.8 F,0,169772,170084,1,0 S,0,169772,170084,0.8,0.87168
//Storyboard Layer 1 (Fail)
Sprite,Fail,Centre,"SB\8 - 2.jpg",320,240 F,0,100397,101647,0,1 M,0,100397,115396,320,163,320,312
//Storyboard Layer 2 (Pass)
Sprite,Pass,Centre,"SB\4 - 2.jpg",320,240 F,0,57818,57897,0,1 S,0,57818,69147,1,0.8967933 F,0,57897,58522,1,0 F,0,60318,60397,0,1 F,0,60397,60709,1,0 F,0,60943,61022,0,1 F,0,61022,61334,1,0 F,0,61412,61490,0,1 F,0,61490,62115,1,0 F,0,62662,62740,0,1 F,0,62740,64147,1,0 F,0,62740,64147,1,0 F,0,65318,65397,0,1 F,0,65397,65709,1,0 F,0,65943,66022,0,1 F,0,66022,66334,1,0 F,0,66412,66490,0,1 F,0,66490,67115,1,0 F,0,67662,67740,0,1 F,0,67740,69147,1,0
Sprite,Pass,Centre,"SB\4 - 4.jpg",320,240 F,0,70318,70397,0,1 S,0,70397,,0.8854058 F,0,70397,70865,1,0 S,0,70397,75397,0.8854058,0.839856 F,0,70943,71022,0,1 F,0,71022,71490,1,0 F,0,71568,71647,0,1 F,0,71647,72740,1,0 S,0,75397,,0.839856
Sprite,Pass,Centre,"SB\8 - 1.jpg",320,240 F,0,100397,101647,0,1 M,0,100397,115396,320,163,320,312
Sprite,Pass,Centre,"SB\12 - 2.jpg",320,240 F,0,147818,147897,0,1 S,0,147818,157272,1,0.9138744 F,0,147897,148522,1,0 F,0,150318,150397,0,1 F,0,150397,150709,1,0 F,0,150943,151022,0,1 F,0,151022,151334,1,0 F,0,151412,151490,0,1 F,0,151490,152115,1,0 F,0,152662,152740,0,1 F,0,152740,154147,1,0 F,0,155318,155397,0,1 F,0,155397,155709,1,0 F,0,155943,156022,0,1 F,0,156022,156334,1,0 F,0,156412,156490,0,1 F,0,156490,157272,1,0 S,0,157272,,0.9138744
//Storyboard Layer 3 (Foreground)
Sprite,Foreground,Centre,"SB\aesopl19193.png",320,240 M,0,16647,,449,79 S,0,16647,,1.2 F,0,16647,17272,0,1 F,0,20397,21647,1,0
Sprite,Foreground,Centre,"SB\Feather 2.png",320,240 S,0,11022,,0.8 M,0,11022,22897,62,-60,142,540 R,0,11022,22897,0,1.67936
Sprite,Foreground,Centre,"SB\Feather 2.png",320,240 S,0,11022,,0.4 M,0,11022,17897,311,-55,472,544 R,0,11022,17897,0,-2.7648
Sprite,Foreground,Centre,"SB\Feather 2.png",320,240 S,0,15397,,0.4 M,0,15397,24772,418,-62,564,542 R,0,15397,24772,0.08192017,3.235841
Sprite,Foreground,Centre,"SB\Feather 2.png",320,240 M,0,16334,25084,303,-59,363,542 R,0,16959,24147,2.33472,3.338239
Sprite,Foreground,Centre,"SB\Feather 1.png",320,240 S,0,11647,,0.8 M,0,11647,22272,511,-79,350,556 R,0,11647,22272,0,-1.444863 R,0,22272,,-2.202624
Sprite,Foreground,Centre,"SB\Feather 1.png",320,240 S,0,16647,,0.5 M,0,16647,24772,138,-106,138,564 R,0,16647,24772,1.35168,0.1433603
Sprite,Foreground,Centre,"SB\Feather 1.png",320,240 S,0,11022,,0.5 M,0,11022,17584,505,-80,166,564 R,0,11022,17584,0,3.502081
Sprite,Foreground,Centre,"SB\Feather 1.png",320,240 S,0,13522,,0.4 M,0,13522,21647,229,-78,215,562 R,0,13522,21647,2.08896,0.3891205
Sprite,Foreground,Centre,"SB\BG Color.jpg",320,240 F,0,5397,6022,0.2,0 C,0,5397,9771,99,18,1 F,0,6647,7272,0.2,0 F,0,7897,8052,0.2,0 F,0,8053,8209,0.2,0 F,0,9147,9772,0.2,0 C,0,9771,,255,255,255 F,0,9772,10397,0,1 F,0,10397,11022,1,0 F,0,11647,12272,0.15,0 F,0,15397,16022,0.15,0 T,Passing,100397,115397 F,0,0,210,0.7,0 T,Failing,100397,115397 F,0,0,210,0.7,0
Sprite,Foreground,Centre,"SB\Light big.png",320,240 L,114772,1 F,0,0,625,0,1 S,0,0,625,0.1,2.18784 F,0,625,1250,1,0 F,0,24772,25397,0,1 S,0,24772,25397,0.1,2.18784 F,0,25397,26022,1,0
Sprite,Foreground,Centre,"SB\Artist.png",320,240 S,0,11647,,1.2 M,1,11647,11959,-65,160,227,159 M,0,11959,14147,227,159,345,159 M,2,14147,14459,345,159,701,157
Sprite,Foreground,Centre,"SB\Title.png",320,240 S,0,11647,,1.2 M,1,11647,11959,757,335,393,330 M,0,11959,14147,393,330,303,331 M,2,14147,14459,303,331,-119,339
Sprite,Foreground,Centre,"SB\Beatmap by.png",320,240 S,0,15397,,1.2 M,1,15397,15709,-99,84,160,83 F,0,20397,21647,1,0
Sprite,Foreground,Centre,"SB\Storyboard by.png",320,240 S,0,17897,,1.2 M,1,17897,18209,-114,395,178,398 F,0,20397,21647,1,0
Sprite,Foreground,Centre,"SB\Beuchi-chan.png",320,240 M,0,18834,,451,399 S,0,18834,,1.2 F,0,18834,19459,0,1 F,0,20397,21647,0.984,0
//Storyboard Sound Samples
//Background Colour Transformations
3,100,163,162,255

[TimingPoints]
5397,312.5,4,1,1,80,1,0
9041,-133.333333333333,4,1,1,80,0,0
10291,-100,4,1,1,80,0,0
57584,-100,4,1,1,80,0,0
57897,-100,4,1,1,80,0,1
75397,-200,4,1,1,80,0,1
76698,-100,4,1,1,80,0,1
79928,-100,4,1,1,80,0,0
80397,-100,4,1,1,80,0,1
100397,-100,4,1,1,80,0,0
147584,-100,4,1,1,80,0,0
147897,-100,4,1,1,80,0,1
165318,-200,4,1,1,80,0,1
167818,-100,4,1,1,5,0,1
170397,-100,4,2,1,46,0,0
220285,394.736842105263,4,1,1,80,1,0
220695,394.736842105263,4,1,1,80,1,0
248583,312.5,4,1,1,80,1,0

[Colours]
Combo1 : 221,0,0
Combo2 : 227,227,227

[HitObjects]
256,192,5397,1,0
256,192,6647,5,0
256,192,7740,5,0
256,192,7897,1,0
256,192,8053,1,0
88,72,9147,6,0,B|296:72,1,209.999993741512
376,136,10084,1,0
376,136,10397,6,0,B|432:176|456:248,1,140,0|8
480,184,10865,2,0,B|456:264|400:312,1,140,0|0
352,344,11334,1,8
168,344,11647,2,0,B|112:304|88:232,1,140,0|8
64,296,12115,2,0,B|88:216|144:168,1,140
192,136,12584,1,8
256,304,12897,6,0,B|256:160,1,140,0|8
328,152,13365,2,0,B|328:296,1,140
328,360,13834,1,8
144,360,14147,1,0
88,312,14303,1,0
56,248,14459,2,0,B|40:176|72:112,1,140,8|0
120,64,14928,1,0
184,40,15084,1,8
280,192,15397,6,0,B|424:192,2,140,0|8|0
208,192,16178,1,0
136,192,16334,1,8
256,328,16647,2,0,B|328:352|392:312,1,140,0|8
448,272,17115,1,0
472,200,17272,2,0,B|488:160|472:120,2,70,0|0|8
352,64,17897,6,0,B|208:64,1,140,0|8
144,64,18365,2,0,B|72:64,2,70
184,120,18834,2,0,B|256:120,1,70,8|0
328,120,19147,6,0,B|400:128|400:184|328:192,1,140,0|8
256,192,19615,1,0
184,192,19772,2,0,B|112:200|112:256|184:264,1,140,0|8
256,264,20240,1,0
256,264,20397,6,0,B|256:336,1,70
320,368,20709,2,0,B|392:368,1,70,8|0
456,336,21022,1,0
456,336,21178,2,0,B|456:264,1,70,0|8
456,200,21490,2,0,B|456:56,3,140
280,104,22740,5,0
208,96,22897,1,0
136,104,23053,2,0,B|56:104,1,70,0|8
112,240,23522,2,0,B|184:240,1,70
248,240,23834,1,8
312,224,23990,6,0,B|376:192|448:224,1,140,0|8
448,296,24459,2,0,B|448:152,1,140
448,88,24928,1,0
384,56,25084,1,8
312,64,25240,2,0,B|240:64,1,70
264,128,25553,5,0
264,128,25709,2,0,B|192:128,1,70,8|0
224,192,26022,1,0
224,192,26178,2,0,B|80:192,1,140
168,352,26803,1,0
168,352,26959,2,0,B|240:352,1,70,8|0
216,288,27272,1,0
216,288,27428,2,0,B|360:288,1,140
440,128,28053,5,0
384,88,28209,2,0,B|360:64|320:64,1,70,8|0
256,80,28522,1,0
192,56,28678,2,0,B|152:56|120:72,1,70,0|8
72,112,28990,2,0,B|24:168|48:248,3,140
80,304,30084,1,8
224,192,30397,6,0,B|368:192,1,140,0|8
432,192,30865,1,0
432,336,31178,1,0
360,336,31334,2,0,B|208:336,2,140,8|0|8
504,336,32272,1,0
512,264,32428,1,0
504,192,32584,1,8
472,128,32740,1,0
472,128,32897,6,0,B|400:128,1,70
336,128,33209,1,12
208,256,33522,2,0,B|280:256,1,70
344,256,33834,1,12
208,376,34147,2,0,B|136:376,1,70
72,376,34459,1,12
0,256,34772,2,0,B|0:328,2,70,0|0|8
0,184,35240,1,0
0,112,35397,1,0
176,72,35709,6,0,B|248:56|320:72,1,140,8|0
376,104,36178,2,0,B|432:144|440:224,1,140
336,312,36803,1,0
336,312,36959,2,0,B|264:328|192:312,1,140,8|0
136,280,37428,2,0,B|80:240|72:160,1,140
184,72,38053,5,0
184,72,38209,2,0,B|256:104|320:72,1,140,8|0
384,40,38678,2,0,B|432:96,1,70,0|8
480,144,38990,1,0
344,320,39303,1,0
208,144,39615,1,0
72,320,39928,1,0
32,264,40084,1,8
24,192,40240,1,0
48,128,40397,6,0,B|80:64|160:56,1,140,0|8
96,24,40865,2,0,B|176:48|208:112,1,140
224,176,41334,1,8
368,184,41647,2,0,B|440:184,2,70,0|0|8
224,296,42272,2,0,B|152:296|144:296,2,70,0|0|8
296,296,42740,1,0
368,296,42897,5,0
368,296,43053,1,0
368,296,43209,1,8
256,152,43522,1,0
256,152,43678,1,0
256,152,43834,1,8
440,128,44147,1,0
440,128,44303,1,0
440,128,44459,1,8
368,296,44772,6,0,B|440:296,2,70,0|0|8
296,296,45240,1,0
296,296,45397,2,0,B|224:280|152:304,1,140,0|8
88,312,45865,2,0,B|48:304|32:272,1,70
16,208,46178,1,0
16,208,46334,2,0,B|8:136|48:72,1,140,8|0
104,32,46803,2,0,B|136:16|176:24,1,70,0|8
240,48,47115,1,0
240,48,47272,2,0,B|208:112|240:184,1,140,0|8
368,136,47897,6,0,B|408:200|368:272,1,140,0|8
312,312,48365,1,0
248,344,48522,2,0,B|216:360|176:344,1,70
128,304,48834,1,8
128,304,48990,2,0,B|96:232|136:168,1,140
184,120,49459,2,0,B|256:120,1,70,8|0
312,192,49772,2,0,B|240:192,1,70
296,120,50084,2,0,B|368:120,1,70,8|0
440,120,50397,1,0
496,296,50709,5,8
440,336,50865,1,0
368,344,51022,1,0
304,320,51178,1,0
232,328,51334,1,8
232,328,51490,2,0,B|88:328,1,140
112,264,51959,2,0,B|40:264,1,70,8|0
64,200,52272,1,0
64,200,52428,2,0,B|136:200,1,70,0|8
96,136,52740,6,0,B|248:136,1,140
304,136,53209,1,8
432,272,53522,1,0
368,240,53678,1,0
304,272,53834,1,8
128,320,54147,2,0,B|56:320,2,70,0|0|8
264,352,54772,5,0
328,328,54928,1,0
352,264,55084,1,8
328,200,55240,1,0
264,176,55397,1,0
104,88,55709,1,8
104,88,55865,1,0
56,264,56178,1,0
56,264,56334,1,8
232,216,56647,1,0
232,216,56803,1,0
288,48,57115,1,0
288,48,57272,2,0,B|432:48,1,140
472,224,57897,6,0,B|440:288|360:296,1,140,0|8
288,280,58365,1,0
216,296,58522,2,0,B|184:272|144:280,1,70
80,288,58834,1,8
80,288,58990,6,0,B|80:144,1,140
24,192,59459,2,0,B|136:104,1,140,8|0
160,168,59928,2,0,B|216:120,1,70,0|8
272,80,60240,1,0
272,80,60397,6,0,B|336:40|408:72,1,140,0|8
464,112,60865,1,0
464,112,61022,2,8,B|496:176|472:248,1,140
432,304,61490,2,0,B|376:344|296:336,1,140
232,328,61959,1,8
304,160,62272,5,0
240,136,62428,1,0
168,136,62584,1,8
168,136,62740,2,0,B|96:152|40:208,1,140
16,264,63209,1,8
160,264,63522,2,0,B|232:264,1,70
296,264,63834,1,8
296,264,63990,2,0,B|376:256|424:208,1,140
360,184,64459,2,0,B|344:248|368:328,1,140,8|0
408,376,64928,1,0
408,376,65084,1,8
480,208,65397,6,0,B|496:136|456:72,1,140,0|8
272,72,66022,2,0,B|232:128|248:208,1,140,0|8
312,168,66490,2,0,B|256:112|184:104,1,140
120,104,66959,1,8
48,120,67115,1,0
48,120,67272,6,0,B|16:184|40:256,1,140,0|8
80,312,67740,2,0,B|224:312,1,140
192,248,68209,2,0,B|336:248,1,140,8|0
296,184,68678,2,0,B|368:184,1,70,0|8
432,184,68990,2,0,B|504:192|504:248|432:256,1,140
360,256,69459,6,0,B|216:256,1,140,8|0
152,256,69928,1,0
152,256,70084,1,8
136,72,70397,2,0,B|216:64|264:120,1,140,0|8
256,304,71022,2,0,B|176:312|128:256,1,140,0|8
192,192,71490,1,0
192,192,71647,2,0,B|336:192,1,140,0|8
400,192,72115,1,0
488,296,72428,5,0
432,344,72584,1,8
368,312,72740,1,0
304,336,72897,2,0,B|232:320|160:344,1,140,0|8
152,272,73365,2,0,B|72:248|8:280,1,140
16,344,73834,2,0,B|16:200,1,140,8|0
16,136,74303,1,0
16,136,74459,1,8
200,56,74772,5,0
368,152,75084,1,8
240,300,75397,2,0,B|148:352|76:260|148:168|240:220,1,280
376,280,76959,5,8
464,168,77272,1,0
464,168,77428,2,0,B|424:104|352:80,1,140
288,72,77897,2,0,B|216:64|144:88,3,140
40,176,79147,5,0
144,264,79459,1,0
24,336,79772,1,0
24,336,79928,1,0
400,80,80397,6,0,B|440:136|440:216,1,140,0|8
304,200,81022,1,0
312,272,81178,1,0
264,320,81334,1,8
264,320,81490,2,0,B|120:320,1,140
56,320,81959,1,8
64,80,82272,1,0
136,64,82428,1,0
208,64,82584,1,8
208,64,82740,6,0,B|352:64,1,140
312,128,83209,2,0,B|456:128,1,140,8|0
480,192,83678,2,0,B|408:192,1,70,0|8
200,272,84147,2,0,B|344:272,1,140,0|8
304,336,84615,2,0,B|376:336,1,70
448,336,84928,1,0
456,112,85240,6,0,B|384:80|312:104,1,140,0|0
352,160,85709,2,0,B|328:96|264:48,1,140,8|0
200,32,86178,1,0
128,32,86334,1,8
128,32,86490,2,0,B|32:144,1,140
136,128,86959,2,0,B|40:240,1,140,8|0
88,296,87428,2,0,B|133:242,1,70,0|8
160,312,87740,2,0,B|232:280|296:304,1,140
344,368,88209,6,0,B|448:264,1,140,8|0
376,240,88678,1,0
376,240,88834,2,0,B|432:184,1,70,8|0
360,160,89147,2,0,B|416:104,1,70
464,64,89459,1,8
464,64,89615,5,0
256,40,89928,1,0
48,64,90240,2,0,B|16:128|32:200,1,140
56,264,90709,1,8
184,208,91022,2,0,B|192:240|184:280,1,70
168,344,91334,1,8
168,344,91490,2,0,B|312:344,1,140
376,344,91959,1,8
472,240,92272,2,0,B|488:208|480:168,1,70
472,104,92584,1,8
424,56,92740,6,0,B|368:16|288:16,1,140,0|0
224,24,93209,1,8
48,80,93522,1,0
64,264,93834,1,8
88,328,93990,1,0
136,272,94147,1,0
64,264,94303,1,0
88,328,94459,1,8
224,312,94772,1,0
304,200,95084,1,8
456,304,95397,6,0,B|312:304,1,140,0|8
240,304,95865,1,0
296,88,96178,1,0
296,88,96334,2,0,B|440:88,2,140,8|0|8
152,264,97272,5,0
224,264,97428,1,0
288,224,97584,1,8
360,224,97740,1,0
256,192,97897,12,0,100084
256,104,100397,5,4
208,232,100709,1,8
208,232,100865,1,0
304,336,101178,1,0
304,336,101334,1,8
256,104,101647,5,0
304,232,101959,1,8
304,232,102115,1,0
208,336,102428,1,0
208,336,102584,1,8
432,336,102897,6,0,B|464:272|456:200,1,140,0|8
448,128,103365,2,0,B|424:64|352:24,1,140
288,16,103834,1,8
144,184,104147,5,0
216,184,104303,1,0
288,184,104459,1,8
360,304,104772,1,0
288,304,104928,1,0
216,304,105084,1,8
256,80,105397,5,0
384,128,105709,1,8
384,200,105865,1,0
256,248,106178,1,0
256,176,106334,1,8
256,352,106647,5,0
128,304,106959,1,8
128,232,107115,1,0
256,176,107428,1,0
256,248,107584,1,8
432,88,107897,5,0
456,152,108053,1,0
448,224,108209,1,8
448,224,108365,2,0,B|424:296|360:328,1,140
288,336,108834,1,8
96,312,109147,5,0
96,312,109303,1,0
96,312,109459,1,0
160,184,109772,1,0
160,184,109928,1,0
160,184,110084,1,8
56,88,110397,6,0,B|96:32|192:40,1,140,0|8
288,160,111022,2,0,B|200:184,2,70,0|0|8
352,136,111490,2,0,B|416:200|360:280,1,140
370,263,111959,1,8
232,264,112272,1,0
240,192,112428,1,0
208,128,112584,1,8
136,112,112740,1,0
80,160,112897,6,0,B|40:224|72:296,1,140,0|8
208,264,113522,2,0,B|216:296|208:336,2,70,0|0|8
176,208,113990,2,0,B|144:136|176:72,1,140
224,24,114459,1,8
344,96,114772,1,0
400,144,114928,1,0
408,216,115084,1,8
392,280,115240,1,0
344,328,115397,5,0
328,88,118990,5,0
184,88,119303,1,0
328,88,119615,1,0
184,88,119928,6,0,B|112:88,2,70
256,88,120397,2,0,B|320:88|320:168|256:168,1,140,0|8
184,168,120865,2,0,B|328:168,1,140
392,168,121334,1,8
392,312,121647,2,0,B|320:336|248:312,1,140,0|8
296,376,122115,2,0,B|240:320|240:240,1,140
240,184,122584,2,0,B|240:144|256:112,1,70,8|0
296,56,122897,5,0
296,56,123053,1,0
296,56,123209,1,4
216,168,123522,1,0
216,168,123678,1,0
216,168,123834,1,4
296,288,124147,2,0,B|368:328,2,70,0|0|4
104,344,124772,2,0,B|56:296|64:208,1,140,0|8
80,144,125240,1,0
128,88,125397,5,0
96,128,128990,6,0,B|160:104|240:112,3,140
304,136,130084,1,8
240,264,130397,6,0,B|312:280|384:264,1,140,0|8
336,320,130865,2,0,B|400:264|384:184,1,140
360,128,131334,1,8
240,56,131647,2,0,B|88:56,1,140,0|8
80,120,132115,2,0,B|224:120,1,140
192,184,132584,2,8,B|264:184,1,70
336,184,132897,5,0
336,184,133053,1,0
336,184,133209,1,4
336,328,133522,2,0,B|408:328,2,70,0|0|4
192,328,134147,2,0,B|120:328,2,70,0|0|4
48,192,134772,5,0
256,112,135084,1,0
464,192,135397,1,4
384,304,135709,5,8
384,304,135865,1,0
384,304,136022,2,0,B|240:304,1,140,0|8
48,192,136647,2,0,B|192:192,1,140,0|8
256,192,137115,1,0
256,192,137272,2,0,B|328:192,1,70
392,192,137584,1,8
256,56,137897,5,0
128,112,138209,1,8
128,112,138365,1,0
152,248,138678,2,0,B|80:248,2,70,0|8|0
288,272,139303,1,0
288,272,139459,1,8
360,152,139772,1,0
416,192,139928,1,0
448,256,140084,1,8
440,328,140240,1,0
440,328,140397,1,0
304,328,140709,6,0,B|232:328,1,70,8|0
160,328,141022,1,0
160,328,141178,1,0
128,192,141490,2,0,B|96:128|24:104,1,140
24,104,141959,1,8
216,56,142272,1,0
216,56,142428,2,0,B|276:94|350:77,1,140
416,56,142897,5,0
432,280,143209,1,8
208,304,143522,1,0
184,80,143834,1,8
408,88,144147,1,0
416,312,144459,1,8
192,328,144772,5,0
192,328,144928,1,0
192,328,145084,1,8
192,328,145240,1,0
192,328,145397,2,0,B|64:272,1,140
152,208,145865,2,0,B|280:264,1,140
280,152,146334,2,0,B|152:96,1,140
256,48,146803,2,0,B|392:104,1,140
448,128,147272,1,0
448,128,147584,5,0
448,128,147897,2,0,B|480:192|456:264,1,140,0|8
384,248,148365,2,0,B|344:304|264:328,1,140,0|8
216,280,148834,1,0
144,296,148990,1,0
120,160,149303,1,0
120,160,149459,2,0,B|168:104|240:96,1,140,8|0
304,96,149928,1,0
304,96,150084,1,8
408,192,150397,5,0
256,312,150709,1,8
104,192,151022,1,0
256,64,151334,1,8
256,64,151490,2,0,B|256:208,1,140
192,280,151959,2,0,B|152:336,1,70
320,280,152272,2,0,B|360:336,1,70
432,344,152584,1,8
432,344,152740,6,0,B|480:288|464:208,1,140
440,144,153209,1,8
312,208,153522,2,0,B|272:152|192:128,1,140,0|8
128,112,153990,1,0
32,208,154303,1,0
32,208,154459,2,0,B|48:280|104:328,1,140,8|0
160,360,154928,1,0
160,360,155084,1,8
88,192,155397,5,0
256,40,155709,1,8
424,192,156022,1,0
256,352,156334,1,8
256,352,156490,2,0,B|112:352,1,140
88,288,156959,2,0,B|160:288,1,70,8|0
232,288,157272,2,0,B|304:288|304:216|232:216,1,140,0|8
168,216,157740,6,0,B|312:216,1,140
376,216,158209,1,8
448,96,158522,2,0,B|376:80|304:96,1,140,0|8
240,112,158990,2,0,B|168:128|96:112,1,140
152,64,159459,2,0,B|208:128|200:200,1,140
192,264,159928,2,0,B|184:296|144:320,1,70,0|8
288,328,160397,5,0
424,192,160709,1,8
280,56,161022,2,0,B|352:56,2,70,0|0|8
96,120,161647,2,0,B|80:192|96:264,1,140,0|8
128,320,162115,1,0
184,360,162272,2,0,B|224:368|256:368,1,70
320,360,162584,1,8
384,336,162740,1,0
384,336,162897,6,0,B|416:272|416:200,1,140,0|8
408,128,163365,1,0
280,64,163678,1,0
280,64,163834,1,8
224,192,164147,2,0,B|80:192,1,140,0|8
136,320,164772,1,0
136,320,164928,1,0
136,320,165084,1,0
136,320,165397,6,0,B|256:408|416:320,1,280
384,184,167272,1,0
384,184,167428,2,0,B|312:184,1,70
256,192,167897,12,0,170397
