osu file format v14

[General]
AudioFilename: Ayane - Endless Tears....mp3
AudioLeadIn: 0
PreviewTime: 57193
Countdown: 0
SampleSet: Soft
StackLeniency: 0.7
Mode: 3
LetterboxInBreaks: 0
SpecialStyle: 0
WidescreenStoryboard: 0

[Editor]
DistanceSpacing: 1.5
BeatDivisor: 4
GridSize: 16
TimelineZoom: 2

[Metadata]
Title:Endless Tears...
TitleUnicode:Endless Tears...
Artist:Ayane
ArtistUnicode:彩音
Creator:Shinzo-
Version:MX
Source:11eyes CrossOver
Tags:Lass 5pb.Games op Verniy_Chan Kyousuke-
BeatmapID:703504
BeatmapSetID:315572

[Difficulty]
HPDrainRate:8
CircleSize:5
OverallDifficulty:8
ApproachRate:5
SliderMultiplier:1.4
SliderTickRate:1

[Events]
//Background and Video events
Video,-274,"video34.avi"
0,0,"BG.jpg",0,0
//Break Periods
//Storyboard Layer 0 (Background)
//Storyboard Layer 1 (Fail)
//Storyboard Layer 2 (Pass)
//Storyboard Layer 3 (Foreground)
//Storyboard Sound Samples

[TimingPoints]
3756,312.5,4,2,1,30,1,0
57193,-166.666666666667,4,2,1,30,0,0
57349,-71.4285714285714,4,2,1,30,0,0
57506,-100,4,2,1,30,0,1
66881,-100,4,2,1,30,0,0
67349,-100,4,2,1,30,0,1
79537,-166.666666666667,4,2,1,30,0,1
79849,-74.0740740740741,4,2,1,30,0,1
80006,-100,4,2,1,30,0,0
105006,-76.9230769230769,4,2,1,30,0,0
105084,-142.857142857143,4,2,1,30,0,0
105162,-100,4,2,1,30,0,0
105474,-76.9230769230769,4,2,1,30,0,0
105552,-142.857142857143,4,2,1,30,0,0
105631,-100,4,2,1,30,0,0
105943,-76.9230769230769,4,2,1,30,0,0
106021,-142.857142857143,4,2,1,30,0,0
106099,-100,4,2,1,30,0,0
106412,-76.9230769230769,4,2,1,30,0,0
106490,-142.857142857143,4,2,1,30,0,0
106568,-100,4,2,1,30,0,0
106881,-76.9230769230769,4,2,1,30,0,0
106959,-142.857142857143,4,2,1,30,0,0
107037,-76.9230769230769,4,2,1,30,0,0
107115,-142.857142857143,4,2,1,30,0,0
107193,-100,4,2,1,30,0,0
109381,-133.333333333333,4,2,1,30,0,0

[HitObjects]
51,192,5006,5,0,0:0:0:0:
358,192,5006,1,0,0:0:0:0:
153,192,5006,1,4,0:0:0:0:
358,192,6256,1,0,0:0:0:0:
460,192,6256,1,4,0:0:0:0:
153,192,6256,1,0,0:0:0:0:
460,192,7506,1,0,0:0:0:0:
153,192,7506,1,4,0:0:0:0:
51,192,7506,1,0,0:0:0:0:
51,192,7662,1,0,0:0:0:0:
358,192,7662,1,4,0:0:0:0:
460,192,7662,1,0,0:0:0:0:
460,192,8756,1,0,0:0:0:0:
51,192,8756,1,4,0:0:0:0:
358,192,8756,1,0,0:0:0:0:
460,192,9224,128,0,9927:0:0:0:0:
256,192,9302,128,0,9927:0:0:0:0:
51,192,9381,128,0,9927:0:0:0:0:
358,192,9537,1,8,0:0:0:0:
153,192,9615,1,8,0:0:0:0:
358,192,9693,1,8,0:0:0:0:
153,192,9771,1,8,0:0:0:0:
358,192,9849,1,8,0:0:0:0:
153,192,9927,1,8,0:0:0:0:
51,192,10006,1,0,0:0:0:0:
460,192,10006,1,0,0:0:0:0:
256,192,10006,1,4,0:0:0:0:
153,192,10162,1,0,0:0:0:0:
256,192,10318,1,0,0:0:0:0:
358,192,10318,1,8,0:0:0:0:
460,192,10318,1,0,0:0:0:0:
51,192,10474,128,0,10787:0:0:0:0:
153,192,10474,1,0,0:0:0:0:
256,192,10474,1,0,0:0:0:0:
358,192,10631,1,0,0:0:0:0:
460,192,10787,128,0,11099:0:0:0:0:
256,192,10787,1,0,0:0:0:0:
153,192,10787,1,0,0:0:0:0:
51,192,10943,1,0,0:0:0:0:
358,192,10943,1,0,0:0:0:0:
256,192,10943,1,8,0:0:0:0:
153,192,11099,128,0,11256:0:0:0:0:
51,192,11099,1,0,0:0:0:0:
256,192,11256,128,0,12193:0:0:0:0:
358,192,11256,1,0,0:0:0:0:
460,192,11256,1,0,0:0:0:0:
51,192,11412,1,0,0:0:0:0:
153,192,11568,1,0,0:0:0:0:
358,192,11568,1,8,0:0:0:0:
460,192,11568,1,0,0:0:0:0:
51,192,11724,1,0,0:0:0:0:
153,192,11724,1,0,0:0:0:0:
358,192,11881,1,0,0:0:0:0:
153,192,12037,1,0,0:0:0:0:
460,192,12037,1,0,0:0:0:0:
358,192,12193,1,0,0:0:0:0:
51,192,12193,1,0,0:0:0:0:
460,192,12193,1,8,0:0:0:0:
256,192,12349,1,0,0:0:0:0:
153,192,12349,1,0,0:0:0:0:
358,192,12506,128,0,12974:0:0:0:0:
153,192,12506,1,0,0:0:0:0:
51,192,12506,1,0,0:0:0:0:
256,192,12662,1,0,0:0:0:0:
153,192,12818,1,8,0:0:0:0:
51,192,12818,1,0,0:0:0:0:
460,192,12818,1,0,0:0:0:0:
460,192,12974,128,0,13287:0:0:0:0:
256,192,12974,1,0,0:0:0:0:
153,192,12974,1,0,0:0:0:0:
358,192,13131,1,0,0:0:0:0:
153,192,13287,128,0,13599:0:0:0:0:
51,192,13287,1,0,0:0:0:0:
256,192,13287,1,0,0:0:0:0:
256,192,13443,1,0,0:0:0:0:
460,192,13443,1,0,0:0:0:0:
358,192,13443,1,8,0:0:0:0:
51,192,13599,128,0,13756:0:0:0:0:
460,192,13599,1,0,0:0:0:0:
358,192,13756,128,0,14381:0:0:0:0:
256,192,13756,1,0,0:0:0:0:
153,192,13756,1,0,0:0:0:0:
51,192,13912,1,0,0:0:0:0:
153,192,13912,1,0,0:0:0:0:
256,192,14068,1,8,0:0:0:0:
460,192,14068,1,0,0:0:0:0:
51,192,14068,1,0,0:0:0:0:
153,192,14224,1,0,0:0:0:0:
51,192,14381,1,0,0:0:0:0:
256,192,14381,1,0,0:0:0:0:
358,192,14459,1,0,0:0:0:0:
460,192,14537,1,0,0:0:0:0:
153,192,14537,1,0,0:0:0:0:
51,192,14693,1,0,0:0:0:0:
256,192,14693,1,8,0:0:0:0:
358,192,14693,1,0,0:0:0:0:
460,192,14849,1,0,0:0:0:0:
51,192,14849,1,0,0:0:0:0:
153,192,15006,1,0,0:0:0:0:
256,192,15006,1,4,0:0:0:0:
358,192,15006,1,0,0:0:0:0:
460,192,15162,1,0,0:0:0:0:
51,192,15318,1,0,0:0:0:0:
153,192,15318,1,8,0:0:0:0:
358,192,15318,1,0,0:0:0:0:
256,192,15474,128,0,15787:0:0:0:0:
358,192,15474,1,0,0:0:0:0:
460,192,15474,1,0,0:0:0:0:
153,192,15631,1,0,0:0:0:0:
460,192,15787,128,0,16099:0:0:0:0:
51,192,15787,1,0,0:0:0:0:
358,192,15787,1,0,0:0:0:0:
153,192,15943,1,0,0:0:0:0:
256,192,15943,1,8,0:0:0:0:
358,192,15943,1,0,0:0:0:0:
51,192,16099,128,0,16256:0:0:0:0:
153,192,16099,1,0,0:0:0:0:
358,192,16256,128,0,17193:0:0:0:0:
256,192,16256,1,0,0:0:0:0:
460,192,16256,1,0,0:0:0:0:
153,192,16412,1,0,0:0:0:0:
51,192,16568,1,0,0:0:0:0:
256,192,16568,1,8,0:0:0:0:
460,192,16568,1,0,0:0:0:0:
51,192,16724,1,0,0:0:0:0:
153,192,16724,1,0,0:0:0:0:
256,192,16881,1,0,0:0:0:0:
153,192,17037,1,0,0:0:0:0:
460,192,17037,1,0,0:0:0:0:
256,192,17193,1,8,0:0:0:0:
51,192,17193,1,0,0:0:0:0:
460,192,17193,1,0,0:0:0:0:
358,192,17349,1,0,0:0:0:0:
153,192,17506,128,0,17974:0:0:0:0:
256,192,17506,1,0,0:0:0:0:
460,192,17506,1,0,0:0:0:0:
51,192,17662,1,0,0:0:0:0:
358,192,17662,1,0,0:0:0:0:
256,192,17818,1,0,0:0:0:0:
358,192,17818,1,8,0:0:0:0:
460,192,17818,1,0,0:0:0:0:
256,192,17974,128,0,18287:0:0:0:0:
51,192,17974,1,0,0:0:0:0:
460,192,17974,1,0,0:0:0:0:
153,192,18131,1,0,0:0:0:0:
153,192,18287,128,0,18443:0:0:0:0:
51,192,18287,1,0,0:0:0:0:
460,192,18287,1,0,0:0:0:0:
256,192,18443,1,8,0:0:0:0:
358,192,18443,1,0,0:0:0:0:
153,192,18521,1,8,0:0:0:0:
51,192,18521,1,0,0:0:0:0:
358,192,18599,1,8,0:0:0:0:
460,192,18599,1,0,0:0:0:0:
153,192,18677,1,0,0:0:0:0:
256,192,18677,1,8,0:0:0:0:
460,192,18756,128,0,19381:0:0:0:0:
51,192,18756,1,0,0:0:0:0:
358,192,18756,1,4,0:0:0:0:
256,192,18912,1,0,0:0:0:0:
153,192,18912,1,0,0:0:0:0:
51,192,19068,1,0,0:0:0:0:
358,192,19068,1,8,0:0:0:0:
256,192,19068,1,0,0:0:0:0:
153,192,19224,1,0,0:0:0:0:
358,192,19381,128,0,20006:0:0:0:0:
51,192,19381,1,0,0:0:0:0:
256,192,19381,1,4,0:0:0:0:
153,192,19537,1,8,0:0:0:0:
460,192,19537,1,0,0:0:0:0:
256,192,19615,1,8,0:0:0:0:
51,192,19693,1,8,0:0:0:0:
153,192,19771,1,8,0:0:0:0:
256,192,19849,1,8,0:0:0:0:
460,192,19927,1,8,0:0:0:0:
153,192,20006,128,0,21881:0:0:0:0:
51,192,20006,1,0,0:0:0:0:
256,192,20006,1,4,0:0:0:0:
358,192,20162,1,0,0:0:0:0:
460,192,20318,1,0,0:0:0:0:
256,192,20318,1,8,0:0:0:0:
51,192,20318,1,0,0:0:0:0:
358,192,20474,1,0,0:0:0:0:
256,192,20631,1,0,0:0:0:0:
460,192,20631,1,0,0:0:0:0:
51,192,20787,1,0,0:0:0:0:
358,192,20943,1,8,0:0:0:0:
256,192,20943,1,0,0:0:0:0:
460,192,20943,1,0,0:0:0:0:
51,192,21099,1,0,0:0:0:0:
358,192,21099,1,4,0:0:0:0:
460,192,21099,1,0,0:0:0:0:
256,192,21256,1,0,0:0:0:0:
358,192,21412,1,0,0:0:0:0:
51,192,21412,1,0,0:0:0:0:
460,192,21568,1,0,0:0:0:0:
256,192,21568,1,8,0:0:0:0:
51,192,21568,1,0,0:0:0:0:
358,192,21724,1,0,0:0:0:0:
256,192,21881,1,0,0:0:0:0:
460,192,21881,1,0,0:0:0:0:
358,192,22037,1,8,0:0:0:0:
51,192,22037,1,0,0:0:0:0:
460,192,22037,1,0,0:0:0:0:
256,192,22193,1,0,0:0:0:0:
153,192,22193,1,0,0:0:0:0:
153,192,22349,1,0,0:0:0:0:
358,192,22349,1,0,0:0:0:0:
256,192,22506,128,0,25006:0:0:0:0:
51,192,22506,1,0,0:0:0:0:
460,192,22506,1,0,0:0:0:0:
153,192,22662,1,0,0:0:0:0:
358,192,22662,1,0,0:0:0:0:
51,192,22818,1,0,0:0:0:0:
460,192,22818,1,4,0:0:0:0:
358,192,22818,1,8,0:0:0:0:
153,192,22974,1,0,0:0:0:0:
358,192,23131,1,0,0:0:0:0:
51,192,23131,1,0,0:0:0:0:
460,192,23287,1,0,0:0:0:0:
358,192,23443,1,0,0:0:0:0:
153,192,23443,1,8,0:0:0:0:
51,192,23443,1,0,0:0:0:0:
460,192,23599,1,4,0:0:0:0:
153,192,23599,1,0,0:0:0:0:
358,192,23599,1,8,0:0:0:0:
51,192,23912,1,0,0:0:0:0:
153,192,23912,1,0,0:0:0:0:
153,192,24068,1,0,0:0:0:0:
358,192,24068,1,4,0:0:0:0:
460,192,24068,1,8,0:0:0:0:
51,192,24381,1,8,0:0:0:0:
153,192,24381,1,0,0:0:0:0:
358,192,24537,1,0,0:0:0:0:
153,192,24537,1,8,0:0:0:0:
460,192,24537,1,0,0:0:0:0:
358,192,24693,1,8,0:0:0:0:
460,192,24693,1,0,0:0:0:0:
51,192,24693,1,0,0:0:0:0:
51,192,25006,1,0,0:0:0:0:
153,192,25006,1,4,0:0:0:0:
460,192,25006,1,0,0:0:0:0:
358,192,25162,1,0,0:0:0:0:
256,192,25318,1,8,0:0:0:0:
153,192,25318,1,0,0:0:0:0:
460,192,25318,1,0,0:0:0:0:
51,192,25474,1,0,0:0:0:0:
256,192,25631,1,0,0:0:0:0:
358,192,25631,1,0,0:0:0:0:
153,192,25787,1,0,0:0:0:0:
51,192,25943,1,0,0:0:0:0:
358,192,25943,1,8,0:0:0:0:
460,192,25943,1,0,0:0:0:0:
256,192,26099,1,0,0:0:0:0:
153,192,26099,1,0,0:0:0:0:
358,192,26256,1,0,0:0:0:0:
256,192,26412,1,0,0:0:0:0:
460,192,26412,1,0,0:0:0:0:
51,192,26568,1,0,0:0:0:0:
358,192,26568,1,0,0:0:0:0:
153,192,26568,1,8,0:0:0:0:
460,192,26724,1,0,0:0:0:0:
153,192,26881,1,0,0:0:0:0:
256,192,26881,1,0,0:0:0:0:
358,192,27037,1,0,0:0:0:0:
51,192,27193,1,0,0:0:0:0:
153,192,27193,1,8,0:0:0:0:
460,192,27193,1,0,0:0:0:0:
256,192,27349,1,0,0:0:0:0:
358,192,27349,1,0,0:0:0:0:
153,192,27506,1,0,0:0:0:0:
51,192,27662,1,0,0:0:0:0:
256,192,27662,1,0,0:0:0:0:
153,192,27818,1,0,0:0:0:0:
460,192,27818,1,0,0:0:0:0:
358,192,27818,1,8,0:0:0:0:
51,192,27974,1,0,0:0:0:0:
256,192,28131,1,0,0:0:0:0:
358,192,28131,1,0,0:0:0:0:
153,192,28287,1,0,0:0:0:0:
51,192,28443,1,0,0:0:0:0:
460,192,28443,1,0,0:0:0:0:
256,192,28443,1,8,0:0:0:0:
153,192,28599,1,0,0:0:0:0:
358,192,28599,1,0,0:0:0:0:
256,192,28599,128,4,28912:0:0:0:0:
153,192,28912,1,0,0:0:0:0:
358,192,28912,1,0,0:0:0:0:
51,192,29068,1,0,0:0:0:0:
460,192,29068,1,0,0:0:0:0:
256,192,29068,1,8,0:0:0:0:
153,192,29224,1,0,0:0:0:0:
256,192,29381,1,0,0:0:0:0:
358,192,29381,1,0,0:0:0:0:
153,192,29537,1,0,0:0:0:0:
51,192,29693,1,0,0:0:0:0:
358,192,29693,1,8,0:0:0:0:
460,192,29693,1,0,0:0:0:0:
256,192,29849,1,0,0:0:0:0:
153,192,30006,1,0,0:0:0:0:
358,192,30006,1,0,0:0:0:0:
51,192,30162,1,0,0:0:0:0:
256,192,30318,1,0,0:0:0:0:
460,192,30318,1,0,0:0:0:0:
358,192,30318,1,8,0:0:0:0:
51,192,30474,1,0,0:0:0:0:
153,192,30474,1,0,0:0:0:0:
256,192,30631,1,0,0:0:0:0:
358,192,30787,1,0,0:0:0:0:
460,192,30787,1,0,0:0:0:0:
153,192,30943,1,8,0:0:0:0:
51,192,30943,1,0,0:0:0:0:
256,192,30943,1,0,0:0:0:0:
358,192,31099,1,0,0:0:0:0:
256,192,31256,1,0,0:0:0:0:
460,192,31256,1,0,0:0:0:0:
153,192,31412,1,0,0:0:0:0:
51,192,31568,1,0,0:0:0:0:
256,192,31568,1,8,0:0:0:0:
358,192,31568,1,0,0:0:0:0:
153,192,31724,1,0,0:0:0:0:
460,192,31724,1,0,0:0:0:0:
358,192,31881,1,0,0:0:0:0:
460,192,32037,1,0,0:0:0:0:
51,192,32037,1,0,0:0:0:0:
153,192,32193,1,0,0:0:0:0:
358,192,32193,1,8,0:0:0:0:
256,192,32193,1,0,0:0:0:0:
460,192,32349,1,0,0:0:0:0:
51,192,32349,1,8,0:0:0:0:
153,192,32427,1,0,0:0:0:0:
358,192,32427,1,8,0:0:0:0:
460,192,32506,128,0,33131:0:0:0:0:
51,192,32506,1,8,0:0:0:0:
51,192,32662,1,0,0:0:0:0:
51,192,32818,1,0,0:0:0:0:
153,192,32818,1,4,0:0:0:0:
358,192,32818,1,0,0:0:0:0:
256,192,32974,1,0,0:0:0:0:
358,192,33131,128,0,33756:0:0:0:0:
153,192,33131,1,0,0:0:0:0:
153,192,33287,1,0,0:0:0:0:
51,192,33443,1,0,0:0:0:0:
256,192,33443,1,4,0:0:0:0:
460,192,33443,1,0,0:0:0:0:
153,192,33599,1,0,0:0:0:0:
153,192,33756,128,0,34381:0:0:0:0:
256,192,33756,1,0,0:0:0:0:
256,192,33912,1,0,0:0:0:0:
51,192,34068,1,0,0:0:0:0:
358,192,34068,1,4,0:0:0:0:
460,192,34068,1,0,0:0:0:0:
256,192,34224,1,0,0:0:0:0:
51,192,34381,128,0,34693:0:0:0:0:
460,192,34381,1,0,0:0:0:0:
358,192,34381,1,0,0:0:0:0:
153,192,34537,1,0,0:0:0:0:
460,192,34537,1,0,0:0:0:0:
358,192,34537,1,8,0:0:0:0:
256,192,34693,1,8,0:0:0:0:
153,192,34693,1,0,0:0:0:0:
460,192,34693,1,0,0:0:0:0:
358,192,34771,1,0,0:0:0:0:
51,192,34849,1,0,0:0:0:0:
153,192,34927,1,0,0:0:0:0:
51,192,35006,1,0,0:0:0:0:
460,192,35006,1,0,0:0:0:0:
358,192,35006,1,4,0:0:0:0:
256,192,35162,128,0,35318:0:0:0:0:
153,192,35318,1,8,0:0:0:0:
358,192,35318,1,0,0:0:0:0:
51,192,35318,1,0,0:0:0:0:
256,192,35474,1,0,0:0:0:0:
460,192,35631,128,0,35787:0:0:0:0:
153,192,35631,1,0,0:0:0:0:
358,192,35631,1,0,0:0:0:0:
51,192,35787,1,0,0:0:0:0:
256,192,35943,1,0,0:0:0:0:
358,192,35943,1,8,0:0:0:0:
460,192,35943,1,0,0:0:0:0:
153,192,36099,128,0,36256:0:0:0:0:
51,192,36099,1,0,0:0:0:0:
460,192,36099,1,0,0:0:0:0:
256,192,36256,1,0,0:0:0:0:
153,192,36412,1,0,0:0:0:0:
51,192,36412,1,0,0:0:0:0:
358,192,36568,128,0,36724:0:0:0:0:
256,192,36568,1,8,0:0:0:0:
460,192,36568,1,0,0:0:0:0:
51,192,36724,1,0,0:0:0:0:
153,192,36881,1,0,0:0:0:0:
256,192,36881,1,0,0:0:0:0:
51,192,37037,128,0,37193:0:0:0:0:
460,192,37037,1,0,0:0:0:0:
358,192,37193,1,8,0:0:0:0:
256,192,37193,1,0,0:0:0:0:
153,192,37193,1,0,0:0:0:0:
51,192,37349,1,0,0:0:0:0:
460,192,37349,1,0,0:0:0:0:
153,192,37349,1,0,0:0:0:0:
460,192,37506,128,0,37818:0:0:0:0:
256,192,37506,1,0,0:0:0:0:
153,192,37662,1,0,0:0:0:0:
51,192,37662,1,0,0:0:0:0:
153,192,37818,1,8,0:0:0:0:
51,192,37818,1,0,0:0:0:0:
358,192,37818,1,0,0:0:0:0:
256,192,37974,128,0,38131:0:0:0:0:
460,192,37974,1,0,0:0:0:0:
153,192,38131,1,0,0:0:0:0:
358,192,38131,1,0,0:0:0:0:
51,192,38287,1,0,0:0:0:0:
153,192,38443,1,0,0:0:0:0:
358,192,38443,1,8,0:0:0:0:
460,192,38443,1,0,0:0:0:0:
256,192,38599,128,4,38912:0:0:0:0:
51,192,38599,1,0,0:0:0:0:
460,192,38599,1,0,0:0:0:0:
358,192,38912,1,0,0:0:0:0:
460,192,38912,1,0,0:0:0:0:
51,192,39068,1,8,0:0:0:0:
256,192,39068,1,0,0:0:0:0:
153,192,39068,128,0,39224:0:0:0:0:
358,192,39224,1,0,0:0:0:0:
460,192,39381,128,0,39537:0:0:0:0:
256,192,39381,1,0,0:0:0:0:
51,192,39381,1,0,0:0:0:0:
358,192,39537,128,0,39693:0:0:0:0:
153,192,39537,1,0,0:0:0:0:
256,192,39693,128,0,39849:0:0:0:0:
51,192,39693,1,0,0:0:0:0:
460,192,39693,1,0,0:0:0:0:
153,192,39693,1,8,0:0:0:0:
358,192,39849,1,0,0:0:0:0:
51,192,40006,1,0,0:0:0:0:
460,192,40006,1,0,0:0:0:0:
153,192,40162,128,0,40318:0:0:0:0:
358,192,40162,1,0,0:0:0:0:
256,192,40318,1,8,0:0:0:0:
460,192,40318,1,0,0:0:0:0:
51,192,40318,1,0,0:0:0:0:
153,192,40474,1,0,0:0:0:0:
358,192,40474,1,0,0:0:0:0:
256,192,40631,128,0,40787:0:0:0:0:
51,192,40631,1,0,0:0:0:0:
358,192,40787,1,0,0:0:0:0:
460,192,40787,1,0,0:0:0:0:
256,192,40943,1,0,0:0:0:0:
153,192,40943,1,8,0:0:0:0:
51,192,40943,1,0,0:0:0:0:
358,192,41099,128,0,41256:0:0:0:0:
460,192,41099,1,0,0:0:0:0:
51,192,41256,1,0,0:0:0:0:
153,192,41256,1,0,0:0:0:0:
358,192,41412,1,0,0:0:0:0:
460,192,41568,128,0,41724:0:0:0:0:
153,192,41568,1,8,0:0:0:0:
51,192,41568,1,0,0:0:0:0:
256,192,41724,1,0,0:0:0:0:
153,192,41724,1,0,0:0:0:0:
51,192,41881,128,0,42037:0:0:0:0:
256,192,41881,1,0,0:0:0:0:
153,192,42037,128,0,42193:0:0:0:0:
358,192,42037,1,0,0:0:0:0:
460,192,42037,1,0,0:0:0:0:
256,192,42193,1,8,0:0:0:0:
358,192,42193,1,0,0:0:0:0:
51,192,42271,1,0,0:0:0:0:
153,192,42271,1,8,0:0:0:0:
256,192,42349,1,8,0:0:0:0:
358,192,42349,1,0,0:0:0:0:
51,192,42427,1,0,0:0:0:0:
153,192,42427,1,8,0:0:0:0:
256,192,42506,1,0,0:0:0:0:
358,192,42506,1,0,0:0:0:0:
460,192,42506,128,0,42818:0:0:0:0:
153,192,42662,128,0,42818:0:0:0:0:
51,192,42662,1,0,0:0:0:0:
51,192,42818,1,0,0:0:0:0:
256,192,42818,1,4,0:0:0:0:
358,192,42818,1,0,0:0:0:0:
51,192,43131,128,0,43443:0:0:0:0:
358,192,43131,128,0,43287:0:0:0:0:
153,192,43131,1,0,0:0:0:0:
153,192,43443,1,0,0:0:0:0:
358,192,43443,1,0,0:0:0:0:
256,192,43443,1,4,0:0:0:0:
460,192,43599,128,0,43756:0:0:0:0:
51,192,43599,1,0,0:0:0:0:
256,192,43756,128,0,44068:0:0:0:0:
153,192,43756,1,4,0:0:0:0:
51,192,43756,1,0,0:0:0:0:
358,192,43756,1,0,0:0:0:0:
358,192,43912,1,8,0:0:0:0:
460,192,43912,1,0,0:0:0:0:
153,192,44068,128,0,44224:0:0:0:0:
51,192,44068,1,0,0:0:0:0:
358,192,44068,1,0,0:0:0:0:
460,192,44224,1,0,0:0:0:0:
358,192,44302,1,0,0:0:0:0:
256,192,44381,1,0,0:0:0:0:
153,192,44459,1,0,0:0:0:0:
51,192,44537,1,0,0:0:0:0:
460,192,44615,1,0,0:0:0:0:
358,192,44693,1,0,0:0:0:0:
256,192,44771,1,0,0:0:0:0:
153,192,44849,1,0,0:0:0:0:
51,192,44927,1,0,0:0:0:0:
256,192,45006,1,0,0:0:0:0:
358,192,45006,1,4,0:0:0:0:
460,192,45006,1,0,0:0:0:0:
153,192,45006,128,0,46256:0:0:0:0:
51,192,45162,1,0,0:0:0:0:
358,192,45318,1,8,0:0:0:0:
460,192,45318,1,0,0:0:0:0:
256,192,45318,1,0,0:0:0:0:
51,192,45474,1,0,0:0:0:0:
358,192,45474,1,0,0:0:0:0:
256,192,45631,1,0,0:0:0:0:
460,192,45631,1,0,0:0:0:0:
51,192,45787,1,0,0:0:0:0:
256,192,45943,1,0,0:0:0:0:
358,192,45943,1,8,0:0:0:0:
460,192,45943,1,0,0:0:0:0:
358,192,46099,1,0,0:0:0:0:
51,192,46256,128,0,47506:0:0:0:0:
256,192,46256,1,0,0:0:0:0:
460,192,46256,1,0,0:0:0:0:
358,192,46412,1,0,0:0:0:0:
153,192,46568,1,0,0:0:0:0:
256,192,46568,1,8,0:0:0:0:
460,192,46568,1,0,0:0:0:0:
256,192,46724,1,0,0:0:0:0:
358,192,46724,1,0,0:0:0:0:
358,192,46881,1,0,0:0:0:0:
460,192,46881,1,0,0:0:0:0:
256,192,47037,1,0,0:0:0:0:
153,192,47193,1,0,0:0:0:0:
358,192,47193,1,8,0:0:0:0:
460,192,47193,1,0,0:0:0:0:
256,192,47349,1,0,0:0:0:0:
460,192,47506,128,0,48599:0:0:0:0:
358,192,47506,1,0,0:0:0:0:
256,192,47506,1,4,0:0:0:0:
153,192,47506,1,0,0:0:0:0:
51,192,47662,1,0,0:0:0:0:
153,192,47818,1,0,0:0:0:0:
256,192,47818,1,8,0:0:0:0:
358,192,47818,1,0,0:0:0:0:
358,192,47974,1,0,0:0:0:0:
256,192,47974,1,0,0:0:0:0:
51,192,48131,1,0,0:0:0:0:
256,192,48287,1,0,0:0:0:0:
153,192,48287,1,0,0:0:0:0:
358,192,48443,1,8,0:0:0:0:
51,192,48443,1,0,0:0:0:0:
256,192,48443,1,0,0:0:0:0:
256,192,48599,1,4,0:0:0:0:
153,192,48599,1,0,0:0:0:0:
51,192,48599,128,0,48912:0:0:0:0:
358,192,48599,1,0,0:0:0:0:
358,192,48912,1,0,0:0:0:0:
460,192,48912,1,0,0:0:0:0:
256,192,49068,1,0,0:0:0:0:
153,192,49068,1,8,0:0:0:0:
51,192,49068,1,0,0:0:0:0:
358,192,49224,1,0,0:0:0:0:
460,192,49381,1,0,0:0:0:0:
256,192,49381,1,0,0:0:0:0:
51,192,49537,1,0,0:0:0:0:
358,192,49537,1,0,0:0:0:0:
153,192,49537,1,8,0:0:0:0:
256,192,49693,1,0,0:0:0:0:
460,192,49693,1,0,0:0:0:0:
153,192,49849,1,8,0:0:0:0:
51,192,49849,1,0,0:0:0:0:
256,192,49927,1,0,0:0:0:0:
358,192,50006,128,0,51256:0:0:0:0:
153,192,50006,1,4,0:0:0:0:
460,192,50006,1,0,0:0:0:0:
51,192,50006,1,0,0:0:0:0:
256,192,50162,1,0,0:0:0:0:
153,192,50318,1,8,0:0:0:0:
51,192,50318,1,0,0:0:0:0:
460,192,50318,1,0,0:0:0:0:
256,192,50474,1,0,0:0:0:0:
153,192,50631,1,0,0:0:0:0:
460,192,50631,1,0,0:0:0:0:
51,192,50787,1,0,0:0:0:0:
153,192,50943,1,0,0:0:0:0:
256,192,50943,1,8,0:0:0:0:
460,192,50943,1,0,0:0:0:0:
51,192,51099,1,0,0:0:0:0:
153,192,51099,1,0,0:0:0:0:
256,192,51256,128,0,52349:0:0:0:0:
460,192,51256,1,0,0:0:0:0:
51,192,51412,1,0,0:0:0:0:
153,192,51412,1,0,0:0:0:0:
153,192,51568,1,0,0:0:0:0:
358,192,51568,1,8,0:0:0:0:
460,192,51568,1,0,0:0:0:0:
51,192,51724,1,0,0:0:0:0:
460,192,51881,1,0,0:0:0:0:
358,192,51881,1,0,0:0:0:0:
51,192,52037,1,0,0:0:0:0:
153,192,52037,1,0,0:0:0:0:
153,192,52193,1,0,0:0:0:0:
358,192,52193,1,8,0:0:0:0:
460,192,52193,1,0,0:0:0:0:
460,192,52349,128,0,53756:0:0:0:0:
358,192,52349,1,0,0:0:0:0:
153,192,52349,1,4,0:0:0:0:
51,192,52349,1,0,0:0:0:0:
256,192,52506,1,0,0:0:0:0:
153,192,52662,1,0,0:0:0:0:
358,192,52662,1,0,0:0:0:0:
256,192,52818,1,0,0:0:0:0:
153,192,52818,1,8,0:0:0:0:
51,192,52818,1,0,0:0:0:0:
358,192,52974,1,0,0:0:0:0:
153,192,53131,1,0,0:0:0:0:
51,192,53131,1,0,0:0:0:0:
256,192,53287,1,0,0:0:0:0:
358,192,53443,1,8,0:0:0:0:
153,192,53443,1,0,0:0:0:0:
51,192,53443,1,0,0:0:0:0:
256,192,53599,1,0,0:0:0:0:
153,192,53756,1,0,0:0:0:0:
51,192,53756,1,0,0:0:0:0:
256,192,53912,1,0,0:0:0:0:
358,192,54068,1,8,0:0:0:0:
460,192,54068,1,0,0:0:0:0:
51,192,54068,1,0,0:0:0:0:
256,192,54224,1,0,0:0:0:0:
153,192,54224,1,0,0:0:0:0:
358,192,54381,1,0,0:0:0:0:
460,192,54381,1,0,0:0:0:0:
153,192,54537,1,8,0:0:0:0:
51,192,54537,1,0,0:0:0:0:
358,192,54615,1,0,0:0:0:0:
256,192,54615,1,8,0:0:0:0:
153,192,54693,1,8,0:0:0:0:
51,192,54693,1,0,0:0:0:0:
358,192,54771,1,0,0:0:0:0:
460,192,54771,1,8,0:0:0:0:
153,192,54849,1,8,0:0:0:0:
51,192,54849,1,0,0:0:0:0:
358,192,54927,1,0,0:0:0:0:
460,192,54927,1,8,0:0:0:0:
51,192,55006,128,0,56881:0:0:0:0:
153,192,55006,128,0,55318:0:0:0:0:
256,192,55006,1,4,0:0:0:0:
460,192,55318,1,0,0:0:0:0:
153,192,55474,128,4,56724:0:0:0:0:
256,192,55474,128,0,55787:0:0:0:0:
460,192,55787,1,0,0:0:0:0:
256,192,55943,128,4,57193:0:0:0:0:
358,192,55943,128,0,56256:0:0:0:0:
358,192,56412,128,4,57193:0:0:0:0:
460,192,56412,128,0,56724:0:0:0:0:
460,192,56881,128,0,57193:0:0:0:40:LR4_RevCyCV6.wav
153,192,56881,128,4,57193:0:0:0:0:
153,192,57506,1,4,0:0:0:0:
51,192,57506,1,0,0:0:0:0:
358,192,57506,1,0,0:0:0:0:
460,192,57506,128,0,58599:0:0:0:0:
256,192,57662,1,0,0:0:0:0:
153,192,57818,1,8,0:0:0:0:
358,192,57818,1,0,0:0:0:0:
51,192,57818,1,0,0:0:0:0:
256,192,57974,1,0,0:0:0:0:
153,192,58131,1,0,0:0:0:0:
51,192,58131,1,0,0:0:0:0:
358,192,58287,1,0,0:0:0:0:
256,192,58443,1,0,0:0:0:0:
153,192,58443,1,8,0:0:0:0:
51,192,58443,1,0,0:0:0:0:
358,192,58599,128,0,60006:0:0:0:0:
153,192,58599,1,0,0:0:0:0:
256,192,58599,1,4,0:0:0:0:
51,192,58756,1,0,0:0:0:0:
256,192,58912,1,0,0:0:0:0:
460,192,58912,1,0,0:0:0:0:
153,192,59068,1,8,0:0:0:0:
51,192,59068,1,0,0:0:0:0:
460,192,59068,1,0,0:0:0:0:
256,192,59224,1,0,0:0:0:0:
153,192,59381,1,0,0:0:0:0:
51,192,59381,1,0,0:0:0:0:
256,192,59537,1,0,0:0:0:0:
460,192,59693,1,0,0:0:0:0:
51,192,59693,1,0,0:0:0:0:
256,192,59693,1,8,0:0:0:0:
153,192,59849,1,0,0:0:0:0:
153,192,60006,128,0,61099:0:0:0:0:
51,192,60006,1,0,0:0:0:0:
256,192,60006,1,4,0:0:0:0:
460,192,60006,1,0,0:0:0:0:
358,192,60162,1,0,0:0:0:0:
460,192,60318,1,0,0:0:0:0:
256,192,60318,1,8,0:0:0:0:
51,192,60318,1,0,0:0:0:0:
358,192,60474,1,0,0:0:0:0:
51,192,60631,1,0,0:0:0:0:
460,192,60631,1,0,0:0:0:0:
256,192,60787,1,0,0:0:0:0:
358,192,60943,1,8,0:0:0:0:
460,192,60943,1,0,0:0:0:0:
51,192,60943,1,0,0:0:0:0:
51,192,61099,128,0,61881:0:0:0:0:
256,192,61099,1,4,0:0:0:0:
358,192,61099,1,0,0:0:0:0:
460,192,61099,1,0,0:0:0:0:
153,192,61256,1,0,0:0:0:0:
256,192,61412,1,0,0:0:0:0:
460,192,61412,1,0,0:0:0:0:
153,192,61568,1,0,0:0:0:0:
358,192,61568,1,8,0:0:0:0:
460,192,61568,1,0,0:0:0:0:
256,192,61724,1,0,0:0:0:0:
358,192,61881,1,0,0:0:0:0:
460,192,61881,1,0,0:0:0:0:
51,192,62037,1,0,0:0:0:0:
256,192,62037,1,0,0:0:0:0:
358,192,62037,1,8,0:0:0:0:
51,192,62193,1,0,0:0:0:0:
358,192,62193,1,8,0:0:0:0:
460,192,62193,1,0,0:0:0:0:
256,192,62349,128,0,63599:0:0:0:0:
153,192,62349,1,4,0:0:0:0:
358,192,62349,1,0,0:0:0:0:
460,192,62349,1,0,0:0:0:0:
51,192,62506,1,0,0:0:0:0:
153,192,62662,1,0,0:0:0:0:
358,192,62662,1,0,0:0:0:0:
460,192,62818,1,0,0:0:0:0:
51,192,62818,1,0,0:0:0:0:
153,192,62818,1,8,0:0:0:0:
358,192,62974,1,0,0:0:0:0:
51,192,63131,1,0,0:0:0:0:
153,192,63131,1,0,0:0:0:0:
460,192,63287,1,0,0:0:0:0:
358,192,63443,1,8,0:0:0:0:
51,192,63443,1,0,0:0:0:0:
153,192,63443,1,0,0:0:0:0:
460,192,63599,128,0,65006:0:0:0:0:
153,192,63599,1,4,0:0:0:0:
358,192,63599,1,0,0:0:0:0:
51,192,63599,1,0,0:0:0:0:
256,192,63756,1,0,0:0:0:0:
153,192,63912,1,0,0:0:0:0:
51,192,63912,1,0,0:0:0:0:
358,192,64068,1,8,0:0:0:0:
153,192,64068,1,0,0:0:0:0:
256,192,64068,1,0,0:0:0:0:
51,192,64224,1,0,0:0:0:0:
256,192,64381,1,0,0:0:0:0:
358,192,64381,1,0,0:0:0:0:
51,192,64537,1,0,0:0:0:0:
153,192,64693,1,8,0:0:0:0:
256,192,64693,1,0,0:0:0:0:
358,192,64693,1,0,0:0:0:0:
358,192,64849,1,0,0:0:0:0:
51,192,65006,128,0,66099:0:0:0:0:
153,192,65006,1,0,0:0:0:0:
256,192,65006,1,4,0:0:0:0:
358,192,65162,1,0,0:0:0:0:
460,192,65318,1,0,0:0:0:0:
256,192,65318,1,0,0:0:0:0:
153,192,65318,1,8,0:0:0:0:
358,192,65474,1,0,0:0:0:0:
256,192,65631,1,4,0:0:0:0:
460,192,65631,1,0,0:0:0:0:
153,192,65631,1,0,0:0:0:0:
256,192,65787,1,0,0:0:0:0:
358,192,65943,1,0,0:0:0:0:
460,192,65943,1,0,0:0:0:0:
153,192,65943,1,8,0:0:0:0:
256,192,66099,128,0,66881:0:0:0:0:
153,192,66099,1,0,0:0:0:0:
358,192,66099,1,4,0:0:0:0:
460,192,66099,1,0,0:0:0:0:
51,192,66256,1,0,0:0:0:0:
460,192,66412,1,0,0:0:0:0:
358,192,66412,1,0,0:0:0:0:
153,192,66490,1,0,0:0:0:0:
460,192,66568,1,0,0:0:0:0:
358,192,66568,1,0,0:0:0:0:
51,192,66724,1,0,0:0:0:0:
460,192,66802,1,0,0:0:0:0:
358,192,66881,128,0,67193:0:0:0:0:
51,192,66881,1,0,0:0:0:0:
153,192,67037,1,0,0:0:0:0:
256,192,67037,1,0,0:0:0:0:
51,192,67193,1,0,0:0:0:0:
460,192,67193,1,0,0:0:0:0:
358,192,67271,1,0,0:0:0:0:
51,192,67349,1,0,0:0:0:0:
256,192,67349,1,4,0:0:0:0:
153,192,67349,128,0,68599:0:0:0:0:
358,192,67506,1,0,0:0:0:0:
460,192,67662,1,0,0:0:0:0:
256,192,67662,1,0,0:0:0:0:
358,192,67818,1,8,0:0:0:0:
51,192,67818,1,0,0:0:0:0:
460,192,67818,1,0,0:0:0:0:
256,192,67974,1,0,0:0:0:0:
358,192,68131,1,0,0:0:0:0:
460,192,68131,1,0,0:0:0:0:
51,192,68287,1,0,0:0:0:0:
256,192,68443,1,0,0:0:0:0:
358,192,68443,1,8,0:0:0:0:
460,192,68443,1,0,0:0:0:0:
51,192,68599,1,4,0:0:0:0:
358,192,68599,1,0,0:0:0:0:
256,192,68599,128,0,70006:0:0:0:0:
460,192,68599,1,0,0:0:0:0:
153,192,68756,1,0,0:0:0:0:
358,192,68912,1,0,0:0:0:0:
51,192,68912,1,0,0:0:0:0:
51,192,69068,1,0,0:0:0:0:
460,192,69068,1,0,0:0:0:0:
153,192,69068,1,8,0:0:0:0:
358,192,69224,1,0,0:0:0:0:
153,192,69381,1,0,0:0:0:0:
460,192,69381,1,0,0:0:0:0:
51,192,69537,1,0,0:0:0:0:
153,192,69693,1,0,0:0:0:0:
51,192,69693,1,8,0:0:0:0:
460,192,69693,1,0,0:0:0:0:
358,192,69849,1,0,0:0:0:0:
51,192,70006,128,0,70631:0:0:0:0:
153,192,70006,1,0,0:0:0:0:
460,192,70006,1,0,0:0:0:0:
358,192,70006,1,4,0:0:0:0:
256,192,70162,1,0,0:0:0:0:
153,192,70318,1,0,0:0:0:0:
358,192,70318,1,8,0:0:0:0:
460,192,70318,1,0,0:0:0:0:
256,192,70474,1,0,0:0:0:0:
460,192,70631,128,0,71256:0:0:0:0:
358,192,70631,1,0,0:0:0:0:
153,192,70631,1,0,0:0:0:0:
256,192,70631,1,4,0:0:0:0:
358,192,70787,1,0,0:0:0:0:
51,192,70943,1,0,0:0:0:0:
153,192,70943,1,8,0:0:0:0:
256,192,70943,1,0,0:0:0:0:
358,192,71099,1,0,0:0:0:0:
256,192,71256,128,0,72506:0:0:0:0:
153,192,71256,1,4,0:0:0:0:
51,192,71256,1,0,0:0:0:0:
358,192,71256,1,0,0:0:0:0:
460,192,71412,1,0,0:0:0:0:
358,192,71568,1,8,0:0:0:0:
153,192,71568,1,0,0:0:0:0:
51,192,71568,1,0,0:0:0:0:
460,192,71724,1,0,0:0:0:0:
153,192,71724,1,0,0:0:0:0:
51,192,71881,1,0,0:0:0:0:
460,192,71959,1,0,0:0:0:0:
358,192,71959,1,8,0:0:0:0:
153,192,72037,1,8,0:0:0:0:
51,192,72037,1,0,0:0:0:0:
460,192,72115,1,8,0:0:0:0:
358,192,72193,1,8,0:0:0:0:
153,192,72193,1,0,0:0:0:0:
51,192,72271,1,8,0:0:0:0:
153,192,72349,1,8,0:0:0:0:
358,192,72427,1,8,0:0:0:0:
460,192,72506,1,4,0:0:0:0:
51,192,72506,1,0,0:0:0:0:
153,192,72506,128,0,72662:0:0:0:0:
256,192,72662,128,0,72818:0:0:0:0:
358,192,72818,128,0,72974:0:0:0:0:
51,192,72818,1,8,0:0:0:0:
460,192,72818,1,0,0:0:0:0:
153,192,72974,128,0,73131:0:0:0:0:
256,192,72974,1,0,0:0:0:0:
256,192,73131,128,0,73287:0:0:0:0:
51,192,73131,1,0,0:0:0:0:
358,192,73287,128,0,73443:0:0:0:0:
153,192,73287,1,0,0:0:0:0:
153,192,73443,128,0,73599:0:0:0:0:
51,192,73443,1,4,0:0:0:0:
460,192,73443,1,8,0:0:0:0:
256,192,73599,128,0,73756:0:0:0:0:
358,192,73756,128,0,73912:0:0:0:0:
153,192,73756,1,0,0:0:0:0:
256,192,73912,128,0,74068:0:0:0:0:
153,192,74068,128,0,74224:0:0:0:0:
460,192,74068,1,0,0:0:0:0:
51,192,74068,1,8,0:0:0:0:
358,192,74224,128,0,74381:0:0:0:0:
256,192,74381,128,0,74537:0:0:0:0:
51,192,74381,1,0,0:0:0:0:
153,192,74537,128,0,74693:0:0:0:0:
358,192,74693,128,0,74849:0:0:0:0:
460,192,74693,1,0,0:0:0:0:
51,192,74693,1,0,0:0:0:0:
256,192,74849,128,0,75006:0:0:0:0:
153,192,75006,128,0,76256:0:0:0:0:
51,192,75006,128,0,76256:0:0:0:0:
358,192,75006,1,4,0:0:0:0:
460,192,75162,1,0,0:0:0:0:
256,192,75318,1,0,0:0:0:0:
358,192,75474,1,0,0:0:0:0:
460,192,75631,1,0,0:0:0:0:
256,192,75787,1,0,0:0:0:0:
358,192,75943,1,0,0:0:0:0:
460,192,76099,1,0,0:0:0:0:
358,192,76256,128,0,77506:0:0:0:0:
460,192,76256,128,0,77506:0:0:0:0:
256,192,76256,1,4,0:0:0:0:
51,192,76412,1,0,0:0:0:0:
153,192,76412,1,8,0:0:0:0:
256,192,76490,1,8,0:0:0:0:
153,192,76568,1,8,0:0:0:0:
51,192,76724,1,0,0:0:0:0:
256,192,76724,1,8,0:0:0:0:
153,192,76881,1,8,0:0:0:0:
51,192,77037,1,8,0:0:0:0:
153,192,77115,1,8,0:0:0:0:
256,192,77193,1,8,0:0:0:0:
51,192,77349,1,0,0:0:0:0:
153,192,77349,1,8,0:0:0:0:
51,192,77506,1,0,0:0:0:0:
153,192,77506,1,0,0:0:0:0:
256,192,77506,1,4,0:0:0:0:
358,192,77662,1,0,0:0:0:0:
256,192,77818,1,0,0:0:0:0:
51,192,77974,1,0,0:0:0:0:
358,192,77974,1,0,0:0:0:0:
153,192,78131,1,0,0:0:0:0:
460,192,78131,1,0,0:0:0:0:
256,192,78131,1,8,0:0:0:0:
358,192,78287,1,0,0:0:0:0:
256,192,78443,1,0,0:0:0:0:
51,192,78443,1,0,0:0:0:0:
460,192,78599,1,0,0:0:0:0:
358,192,78677,1,8,0:0:0:0:
153,192,78677,1,0,0:0:0:0:
51,192,78756,1,0,0:0:0:0:
256,192,78756,1,8,0:0:0:0:
153,192,78912,1,0,0:0:0:0:
358,192,79068,1,0,0:0:0:40:LR4_RevCyCV6.wav
153,192,79146,1,8,0:0:0:0:
460,192,79146,1,0,0:0:0:0:
358,192,79224,1,0,0:0:0:0:
51,192,79224,1,0,0:0:0:0:
51,192,79381,1,0,0:0:0:0:
153,192,79381,1,8,0:0:0:0:
460,192,79381,1,0,0:0:0:0:
358,192,79537,1,8,0:0:0:0:
460,192,79537,1,0,0:0:0:0:
51,192,79537,1,0,0:0:0:0:
153,192,80006,1,4,0:0:0:0:
51,192,80006,1,0,0:0:0:0:
358,192,80006,1,0,0:0:0:0:
460,192,80006,1,0,0:0:0:0:
256,192,80162,1,0,0:0:0:0:
358,192,80318,128,0,80474:0:0:0:0:
460,192,80318,128,0,80631:0:0:0:0:
153,192,80318,1,8,0:0:0:0:
51,192,80474,1,0,0:0:0:0:
51,192,80631,128,0,80943:0:0:0:0:
153,192,80631,1,0,0:0:0:0:
256,192,80787,128,0,80943:0:0:0:0:
358,192,80787,1,0,0:0:0:0:
460,192,80943,1,0,0:0:0:0:
153,192,80943,1,8,0:0:0:0:
256,192,81099,128,0,81256:0:0:0:0:
358,192,81099,128,0,81568:0:0:0:0:
51,192,81099,1,4,0:0:0:0:
153,192,81256,1,0,0:0:0:0:
256,192,81412,1,0,0:0:0:0:
153,192,81568,128,0,82193:0:0:0:0:
460,192,81568,1,8,0:0:0:0:
51,192,81568,1,0,0:0:0:0:
358,192,81724,1,0,0:0:0:0:
51,192,81881,1,0,0:0:0:0:
460,192,81881,1,0,0:0:0:0:
358,192,82037,128,0,82193:0:0:0:0:
256,192,82037,1,0,0:0:0:0:
51,192,82193,1,0,0:0:0:0:
460,192,82193,1,8,0:0:0:0:
358,192,82349,128,0,82506:0:0:0:0:
51,192,82349,128,0,84381:0:0:0:0:
153,192,82349,1,4,0:0:0:0:
256,192,82349,1,0,0:0:0:0:
460,192,82506,1,0,0:0:0:0:
358,192,82662,1,0,0:0:0:0:
153,192,82662,1,0,0:0:0:0:
256,192,82818,1,8,0:0:0:0:
460,192,82818,1,0,0:0:0:0:
358,192,82818,1,0,0:0:0:0:
153,192,82974,1,0,0:0:0:0:
358,192,83131,1,0,0:0:0:0:
256,192,83131,1,0,0:0:0:0:
460,192,83287,1,0,0:0:0:0:
358,192,83443,1,0,0:0:0:0:
256,192,83443,1,8,0:0:0:0:
153,192,83443,1,0,0:0:0:0:
460,192,83599,1,0,0:0:0:0:
153,192,83756,1,0,0:0:0:0:
256,192,83756,1,0,0:0:0:0:
358,192,83912,1,0,0:0:0:0:
256,192,84068,1,8,0:0:0:0:
460,192,84068,1,0,0:0:0:0:
153,192,84068,1,0,0:0:0:0:
358,192,84224,1,0,0:0:0:0:
153,192,84381,1,0,0:0:0:0:
256,192,84381,1,8,0:0:0:0:
460,192,84381,1,0,0:0:0:0:
153,192,84537,1,0,0:0:0:0:
256,192,84537,1,8,0:0:0:0:
460,192,84537,1,0,0:0:0:0:
51,192,84849,1,0,0:0:0:0:
153,192,84849,1,4,0:0:0:0:
358,192,84849,1,0,0:0:0:0:
460,192,84849,1,0,0:0:0:0:
256,192,85006,1,0,0:0:0:0:
358,192,85162,1,0,0:0:0:0:
153,192,85162,1,0,0:0:0:0:
460,192,85318,128,0,85631:0:0:0:0:
256,192,85318,128,0,85474:0:0:0:0:
153,192,85318,1,8,0:0:0:0:
51,192,85318,1,0,0:0:0:0:
358,192,85474,1,0,0:0:0:0:
153,192,85631,128,0,85943:0:0:0:0:
51,192,85631,1,0,0:0:0:0:
256,192,85787,128,0,85943:0:0:0:0:
358,192,85787,1,0,0:0:0:0:
460,192,85943,1,8,0:0:0:0:
51,192,85943,1,0,0:0:0:0:
358,192,86099,128,0,86256:0:0:0:0:
256,192,86099,128,0,86568:0:0:0:0:
153,192,86099,1,4,0:0:0:0:
51,192,86256,1,0,0:0:0:0:
153,192,86412,1,0,0:0:0:0:
460,192,86412,1,0,0:0:0:0:
460,192,86568,128,0,87193:0:0:0:0:
358,192,86568,1,8,0:0:0:0:
51,192,86568,1,0,0:0:0:0:
256,192,86724,1,0,0:0:0:0:
51,192,86881,1,0,0:0:0:0:
153,192,86881,1,0,0:0:0:0:
358,192,87037,128,0,87193:0:0:0:0:
256,192,87037,1,0,0:0:0:0:
153,192,87193,1,0,0:0:0:0:
51,192,87193,1,8,0:0:0:0:
358,192,87349,128,0,87818:0:0:0:0:
460,192,87349,1,0,0:0:0:0:
51,192,87349,1,0,0:0:0:0:
256,192,87349,1,4,0:0:0:0:
153,192,87506,1,0,0:0:0:0:
51,192,87662,128,0,87818:0:0:0:0:
256,192,87662,1,0,0:0:0:0:
256,192,87818,128,0,89381:0:0:0:0:
153,192,87818,1,0,0:0:0:0:
460,192,87818,1,8,0:0:0:0:
51,192,87974,1,0,0:0:0:0:
153,192,88131,1,0,0:0:0:0:
358,192,88131,1,0,0:0:0:0:
460,192,88287,1,0,0:0:0:0:
51,192,88443,1,0,0:0:0:0:
153,192,88443,1,8,0:0:0:0:
358,192,88443,1,0,0:0:0:0:
460,192,88599,1,0,0:0:0:0:
358,192,88756,1,0,0:0:0:0:
153,192,88756,1,0,0:0:0:0:
153,192,88912,1,0,0:0:0:0:
51,192,89068,1,0,0:0:0:0:
358,192,89068,1,8,0:0:0:0:
460,192,89068,1,0,0:0:0:0:
153,192,89224,1,0,0:0:0:0:
358,192,89224,1,0,0:0:0:0:
51,192,89381,1,0,0:0:0:0:
153,192,89381,1,8,0:0:0:0:
460,192,89381,1,0,0:0:0:0:
51,192,89537,1,0,0:0:0:0:
358,192,89537,1,8,0:0:0:0:
460,192,89537,1,0,0:0:0:0:
153,192,89849,1,4,0:0:0:0:
256,192,89849,1,0,0:0:0:0:
358,192,89849,1,0,0:0:0:0:
51,192,89849,1,0,0:0:0:0:
460,192,90006,1,0,0:0:0:0:
256,192,90162,1,0,0:0:0:0:
358,192,90318,128,0,90631:0:0:0:0:
460,192,90318,128,0,90474:0:0:0:0:
51,192,90318,1,0,0:0:0:0:
153,192,90318,1,8,0:0:0:0:
256,192,90474,1,0,0:0:0:0:
51,192,90631,128,0,90943:0:0:0:0:
460,192,90631,1,0,0:0:0:0:
153,192,90787,128,0,90943:0:0:0:0:
358,192,90787,1,0,0:0:0:0:
256,192,90943,1,8,0:0:0:0:
460,192,90943,1,0,0:0:0:0:
153,192,91099,128,0,91568:0:0:0:0:
358,192,91099,128,0,91256:0:0:0:0:
256,192,91099,1,4,0:0:0:0:
460,192,91256,1,0,0:0:0:0:
358,192,91412,1,0,0:0:0:0:
256,192,91412,1,0,0:0:0:0:
460,192,91568,128,0,92193:0:0:0:0:
256,192,91568,1,8,0:0:0:0:
51,192,91568,1,0,0:0:0:0:
358,192,91724,1,0,0:0:0:0:
51,192,91881,1,0,0:0:0:0:
256,192,91881,1,0,0:0:0:0:
153,192,92037,128,0,92193:0:0:0:0:
358,192,92037,1,0,0:0:0:0:
51,192,92193,1,8,0:0:0:0:
256,192,92193,1,0,0:0:0:0:
51,192,92349,128,0,94693:0:0:0:0:
153,192,92349,128,0,92506:0:0:0:0:
358,192,92349,1,4,0:0:0:0:
460,192,92349,1,0,0:0:0:0:
256,192,92506,1,0,0:0:0:0:
358,192,92662,1,0,0:0:0:0:
460,192,92662,1,0,0:0:0:0:
153,192,92818,1,0,0:0:0:0:
256,192,92818,1,8,0:0:0:0:
358,192,92818,1,0,0:0:0:0:
256,192,92974,1,0,0:0:0:0:
358,192,93131,1,0,0:0:0:0:
460,192,93131,1,0,0:0:0:0:
153,192,93287,1,0,0:0:0:0:
256,192,93443,1,0,0:0:0:0:
358,192,93443,1,8,0:0:0:0:
460,192,93443,1,0,0:0:0:0:
153,192,93599,1,0,0:0:0:0:
256,192,93599,1,0,0:0:0:0:
358,192,93756,1,0,0:0:0:0:
460,192,93756,1,0,0:0:0:0:
256,192,93912,1,0,0:0:0:0:
153,192,93912,1,0,0:0:0:0:
256,192,94068,1,0,0:0:0:0:
460,192,94068,1,0,0:0:0:0:
358,192,94068,1,8,0:0:0:0:
153,192,94224,1,0,0:0:0:0:
256,192,94381,1,0,0:0:0:0:
460,192,94381,1,0,0:0:0:0:
358,192,94537,1,0,0:0:0:0:
256,192,94693,1,0,0:0:0:0:
460,192,94693,1,8,0:0:0:0:
153,192,94693,128,0,94849:0:0:0:0:
51,192,94849,128,0,95006:0:0:0:0:
153,192,95006,128,0,95631:0:0:0:0:
256,192,95006,1,4,0:0:0:0:
358,192,95006,1,0,0:0:0:0:
460,192,95006,1,0,0:0:0:0:
51,192,95162,1,0,0:0:0:0:
358,192,95318,1,8,0:0:0:0:
460,192,95318,1,0,0:0:0:0:
256,192,95318,1,0,0:0:0:0:
51,192,95474,1,0,0:0:0:0:
358,192,95474,1,0,0:0:0:0:
256,192,95631,128,0,96256:0:0:0:0:
460,192,95631,1,0,0:0:0:0:
51,192,95787,1,0,0:0:0:0:
153,192,95787,1,0,0:0:0:0:
51,192,95943,1,0,0:0:0:0:
358,192,95943,1,8,0:0:0:0:
460,192,95943,1,0,0:0:0:0:
153,192,96099,1,0,0:0:0:0:
358,192,96256,128,0,97193:0:0:0:0:
51,192,96256,1,0,0:0:0:0:
460,192,96256,1,0,0:0:0:0:
153,192,96412,1,0,0:0:0:0:
256,192,96568,1,8,0:0:0:0:
51,192,96568,1,0,0:0:0:0:
460,192,96568,1,0,0:0:0:0:
256,192,96724,1,0,0:0:0:0:
153,192,96881,128,0,97193:0:0:0:0:
51,192,96881,1,0,0:0:0:0:
460,192,96881,1,0,0:0:0:0:
256,192,97037,1,0,0:0:0:0:
51,192,97193,1,0,0:0:0:0:
256,192,97193,1,8,0:0:0:0:
460,192,97193,1,0,0:0:0:0:
256,192,97349,128,0,100006:0:0:0:0:
51,192,97349,1,4,0:0:0:0:
460,192,97349,1,0,0:0:0:0:
358,192,97349,1,0,0:0:0:0:
153,192,97506,1,0,0:0:0:0:
51,192,97662,1,0,0:0:0:0:
358,192,97662,1,0,0:0:0:0:
51,192,97818,1,0,0:0:0:0:
153,192,97818,1,8,0:0:0:0:
460,192,97818,1,0,0:0:0:0:
358,192,97974,1,0,0:0:0:0:
51,192,98131,1,0,0:0:0:0:
460,192,98131,1,0,0:0:0:0:
358,192,98287,1,0,0:0:0:0:
51,192,98443,1,0,0:0:0:0:
153,192,98443,1,8,0:0:0:0:
460,192,98443,1,0,0:0:0:0:
51,192,98599,1,0,0:0:0:0:
358,192,98599,1,0,0:0:0:0:
153,192,98756,1,8,0:0:0:0:
460,192,98756,1,0,0:0:0:0:
51,192,98912,1,0,0:0:0:0:
358,192,98912,1,0,0:0:0:0:
460,192,99068,1,0,0:0:0:0:
153,192,99068,1,8,0:0:0:0:
51,192,99146,1,8,0:0:0:0:
358,192,99224,1,8,0:0:0:0:
51,192,99302,1,0,0:0:0:0:
153,192,99302,1,8,0:0:0:0:
358,192,99381,1,8,0:0:0:0:
460,192,99381,1,0,0:0:0:0:
153,192,99537,1,0,0:0:0:0:
358,192,99537,1,0,0:0:0:0:
51,192,99693,1,0,0:0:0:0:
460,192,99693,1,8,0:0:0:0:
358,192,99771,1,8,0:0:0:0:
153,192,99849,1,8,0:0:0:0:
51,192,99927,1,8,0:0:0:0:
460,192,100006,1,0,0:0:0:0:
153,192,100006,1,0,0:0:0:0:
358,192,100006,128,4,100474:0:0:0:0:
460,192,100162,128,0,100474:0:0:0:0:
153,192,100318,128,0,100474:0:0:0:0:
256,192,100474,128,0,100943:0:0:0:0:
460,192,100631,128,0,100943:0:0:0:0:
51,192,100787,128,0,100943:0:0:0:0:
153,192,100943,128,0,101412:0:0:0:0:
358,192,101099,1,0,0:0:0:0:
51,192,101099,1,0,0:0:0:0:
460,192,101099,128,4,101412:0:0:0:0:
256,192,101256,128,0,101412:0:0:0:0:
358,192,101412,128,0,101881:0:0:0:0:
460,192,101568,128,0,101881:0:0:0:0:
51,192,101724,128,0,101881:0:0:0:0:
153,192,101881,128,0,102349:0:0:0:0:
460,192,102037,128,0,102349:0:0:0:0:
51,192,102193,128,0,102349:0:0:0:0:
256,192,102349,128,0,102818:0:0:0:0:
51,192,102506,1,0,0:0:0:0:
153,192,102506,1,4,0:0:0:0:
358,192,102506,128,0,102818:0:0:0:0:
460,192,102662,128,0,102818:0:0:0:0:
51,192,102818,128,0,103287:0:0:0:0:
256,192,102974,128,0,103287:0:0:0:0:
460,192,103131,128,0,103287:0:0:0:0:
153,192,103287,128,0,103599:0:0:0:0:
256,192,103443,1,4,0:0:0:0:
51,192,103443,1,0,0:0:0:0:
358,192,103443,128,0,103599:0:0:0:0:
256,192,103599,1,4,0:0:0:0:
51,192,103599,1,0,0:0:0:0:
460,192,103599,128,0,103756:0:0:0:0:
358,192,103756,128,0,103912:0:0:0:0:
153,192,103912,128,0,104224:0:0:0:0:
460,192,104068,128,0,104224:0:0:0:0:
51,192,104224,128,0,104693:0:0:0:0:
256,192,104381,128,0,104693:0:0:0:0:
460,192,104537,128,0,104693:0:0:0:0:
153,192,104693,128,0,104849:0:0:0:0:
358,192,104849,128,0,105006:0:0:0:0:
51,192,105006,1,0,0:0:0:0:
153,192,105006,1,0,0:0:0:0:
460,192,105006,1,0,0:0:0:0:
256,192,105006,1,4,0:0:0:0:
51,192,105162,1,0,0:0:0:0:
256,192,105162,1,4,0:0:0:0:
358,192,105162,1,0,0:0:0:0:
460,192,105162,1,0,0:0:0:0:
51,192,105474,1,0,0:0:0:0:
256,192,105474,1,4,0:0:0:0:
358,192,105474,1,0,0:0:0:0:
460,192,105474,1,0,0:0:0:0:
51,192,105631,1,0,0:0:0:0:
153,192,105631,1,0,0:0:0:0:
256,192,105631,1,4,0:0:0:0:
460,192,105631,1,0,0:0:0:0:
51,192,105943,1,0,0:0:0:0:
256,192,105943,1,4,0:0:0:0:
153,192,105943,1,0,0:0:0:0:
358,192,105943,1,0,0:0:0:0:
153,192,106099,1,0,0:0:0:0:
256,192,106099,1,4,0:0:0:0:
358,192,106099,1,0,0:0:0:0:
460,192,106099,1,0,0:0:0:0:
153,192,106412,1,0,0:0:0:0:
256,192,106412,1,4,0:0:0:0:
358,192,106412,1,0,0:0:0:0:
460,192,106412,1,0,0:0:0:0:
51,192,106568,1,0,0:0:0:0:
256,192,106568,1,4,0:0:0:0:
153,192,106568,1,0,0:0:0:0:
358,192,106568,1,0,0:0:0:0:
358,192,106881,1,4,0:0:0:0:
51,192,106881,1,0,0:0:0:0:
153,192,106881,1,0,0:0:0:0:
460,192,106881,1,0,0:0:0:0:
153,192,107037,1,4,0:0:0:0:
358,192,107037,1,0,0:0:0:0:
51,192,107037,1,0,0:0:0:0:
460,192,107037,1,0,0:0:0:0:
153,192,107193,128,4,109302:0:0:0:0:
51,192,107193,128,0,109302:0:0:0:0:
358,192,107193,128,0,109302:0:0:0:0:
460,192,107193,128,0,109302:0:0:0:0:
153,192,109381,128,0,117506:0:0:0:0:
358,192,109381,128,0,117506:0:0:0:0:
256,192,109381,128,4,117506:0:0:0:0:
