osu file format v6

[General]
AudioFilename: Endless Tears....mp3
AudioLeadIn: 0
PreviewTime: 57157
Countdown: 0
SampleSet: Normal
StackLeniency: 0.4
Mode: 0
LetterboxInBreaks: 1

[Editor]
Bookmarks: 4970,9970,19970,24970,34970,44970,57158,67470,79970,89814,99970,109345
DistanceSpacing: 0.75
BeatDivisor: 4
GridSize: 16

[Metadata]
Title:Endless Tears...
Artist:Ayane
Creator:DJPop
Version:Normal
Source:11eyes CrossOver
Tags:Lass 5pb.Games

[Difficulty]
HPDrainRate:3
CircleSize:3
OverallDifficulty:4
SliderMultiplier:1.28
SliderTickRate:2

[Events]
//Background and Video events
0,0,"Endless Tears....png"
Video,-510,"Endless Tears....avi"
//Break Periods
//Storyboard Layer 0 (Background)
//Storyboard Layer 1 (Fail)
//Storyboard Layer 2 (Pass)
//Storyboard Layer 3 (Foreground)
Sprite,Foreground,Centre,"star2.png",320,240 F,0,118436,118748,0
//Storyboard Sound Samples
//Background Colour Transformations
3,100,0,0,0

[TimingPoints]
3720,312.5,4,1,1,50,1,0
4970,-200,4,1,1,50,0,0
9032,-200,4,1,1,60,0,0
9657,-200,4,1,1,75,0,0
9970,-100,4,1,1,75,0,0
54813,-100,4,1,2,75,0,0
56610,-100,4,2,2,75,0,0
57157,-100,4,1,1,75,0,0
57470,-100,4,1,1,75,0,1
79032,-100,4,2,2,75,0,1
79735,-100,4,1,1,75,0,0
104970,-100,4,1,1,75,0,1

[Colours]
Combo1 : 227,219,225
Combo2 : 191,0,0
Combo3 : 247,202,136
Combo4 : 175,207,194

[HitObjects]
32,192,4970,5,4
480,192,6220,5,4
256,32,7470,5,4
256,32,7626,1,4
256,352,8720,5,4
256,192,9345,1,0
256,32,9970,5,4
96,32,10438,1,0
64,128,10751,1,0
32,288,11220,2,0,C|128:352|256:302|384:352|480:288,1,512
480,128,12938,5,0
448,32,13251,1,0
288,32,13720,2,0,C|32:32,2,256,0|0|4
384,160,15438,5,0
352,256,15751,1,0
480,352,16220,2,0,B|344:352|160:384|352:160|168:192|30:192,1,512,0|0
32,32,17938,5,0
128,32,18251,1,0
288,32,18720,2,0,B|464:32|480:162,1,256,4|0
480,352,19970,6,0,C|32:352,1,448,4|4
32,192,21532,1,0
32,192,22001,1,0
32,32,22470,6,0,C|480:32,1,448,0|4
480,192,24032,1,0
480,192,24345,1,0
480,192,24657,1,0
480,192,24970,6,0,C|32:192,1,448,4|4
32,288,26376,2,2,C|32:352,1,64,2|2
128,352,26845,2,2,C|128:288,1,64,2|2
224,288,27313,1,2
368,352,27782,6,0,B|416:368|480:368|496:304|480:256,1,192,0|0
480,160,28563,1,4
448,64,28876,1,0
352,32,29188,1,0
256,32,29501,2,0,C|64:32,1,192
32,192,30438,5,0
64,352,30907,2,0,C|320:352,2,256
96,256,32470,6,0,C|96:128,7,128,0|4|0|4|0|4|0|4
32,32,34970,6,0,C|480:32,1,448,4|4
480,128,36376,2,2,C|480:192,1,64,2|2
480,288,36845,2,2,C|480:352,1,64,2|2
384,352,37313,1,2
384,192,37782,6,0,C|192:192,1,192
96,192,38563,1,4
32,272,38876,1,0
96,352,39188,1,0
192,352,39501,2,0,C|384:352,1,192
480,224,40438,5,0
384,96,40907,2,0,C|128:96,2,256
384,192,42470,6,0,B|384:232|344:248|304:232|304:191,1,128,0|4
208,192,43095,2,0,B|208:232|168:248|128:232|128:191,1,128,0|4
32,192,43720,1,4
464,32,44970,5,4
368,32,45282,2,0,C|112:32,1,256,0|0
40,96,46220,2,0,C|40:288,2,192,0|0|0
136,120,47470,5,4
136,264,47938,1,0
198,192,48251,1,0
288,192,48563,2,0,C|480:192,3,192,4|0|0|4
480,288,50282,5,0
400,336,50595,1,0
256,352,51063,2,0,C|64:352,1,192
32,264,51845,1,0
64,128,52313,6,0,C|256:128,3,192,4|0|0|0
288,32,54032,1,0
320,128,54345,2,0,C|448:128,1,128
480,224,54970,5,6
368,336,55438,1,6
256,224,55907,1,6
144,336,56376,1,6
32,224,56845,1,6
32,32,57470,5,4
128,32,57782,2,0,C|448:32,1,320,0|4
480,192,59032,1,0
384,192,59345,1,0
288,192,59657,1,0
256,96,59970,6,0,B|128:80|160:208|31:192,1,256,4|0
32,352,61063,2,0,B|64:272|160:243|256:272|288:352,1,320,4|0
384,352,62157,1,0
480,352,62470,5,4
480,160,63095,2,0,B|496:96|477:32|383:32,1,192,0|4
224,32,64032,1,0
128,64,64345,1,0
32,96,64657,1,0
32,192,64970,6,0,C|32:320,2,128,4|0|4
192,192,66063,2,0,B|256:160|352:160|320:288|416:288|480:256,1,320,4|0
480,352,67157,1,0
384,352,67470,5,4
192,352,68095,2,0,B|128:382|64:352|32:287,1,192,0|4
32,128,69032,1,0
128,96,69345,1,0
224,64,69657,1,0
320,32,69970,6,0,B|400:32|424:112|400:112|376:112|400:192|480:192,2,256,4|0|0
320,192,71688,2,0,B|360:216|387:270|360:328|318:352,1,192
224,352,72470,6,0,C|32:352,4,192,4|0|0|0|0
224,256,74657,1,0
128,256,74970,2,0,B|96:64|256:33|416:64|384:259,1,512,4|0
256,192,76845,5,0
384,352,77470,6,0,C|128:352,2,256,4|0|0
256,192,79345,1,2
256,192,79501,1,2
256,32,79970,5,4
160,32,80282,1,0
64,32,80595,1,0
32,192,81063,2,0,B|49:306|128:352,1,192
224,352,81845,1,0
384,352,82313,6,0,B|466:303|480:192,1,192,4|0
480,96,83095,1,0
400,32,83407,1,0
320,96,83720,2,0,B|384:112|399:160|384:208|318:224,1,192
256,304,84501,1,0
192,224,84813,6,0,B|128:208|113:160|128:112|194:96,1,192,4|0
112,32,85595,1,0
32,160,86063,2,0,C|32:352,1,192
128,352,86845,1,0
256,256,87313,1,4
384,352,87782,6,0,B|457:365|480:288,3,128
352,192,89188,1,0
256,192,89501,1,0
160,192,89813,1,4
32,96,90282,5,0
128,32,90595,1,0
288,32,91063,2,0,C|480:32,1,192,0|0
480,128,91845,1,0
352,224,92313,1,4
480,320,92782,5,0
384,352,93095,1,0
288,320,93407,1,0
192,352,93720,1,0
96,320,94032,1,0
64,224,94345,1,0
96,128,94657,1,0
192,96,94970,6,0,B|200:32|256:23|312:32|320:97,5,192,4|0|0|0|0|4
352,224,97782,6,0,C|352:352,2,128
256,224,98720,2,0,C|256:352,1,128,4|0
160,352,99345,2,0,C|160:224,1,128
64,192,99970,5,4
448,192,101063,5,4
256,32,102470,5,4
256,352,103407,5,4
256,352,103563,1,4
448,160,104970,6,12,C|448:224,1,64,14|14
352,160,105438,2,12,C|352:224,1,64,14|14
256,160,105907,2,12,C|256:224,1,64,14|14
160,160,106376,2,14,C|160:224,1,64
64,160,106845,2,8,C|64:224,2,64,14|10|14
256,192,107313,12,4,109345
