osu file format v6

[General]
AudioFilename: Endless Tears....mp3
AudioLeadIn: 0
PreviewTime: 57157
Countdown: 0
SampleSet: Normal
StackLeniency: 0.3
Mode: 0
LetterboxInBreaks: 1

[Editor]
Bookmarks: 4970,9970,19970,24970,34970,44970,57158,67470,79970,89814,99970,109345
DistanceSpacing: 1.5
BeatDivisor: 4
GridSize: 16

[Metadata]
Title:Endless Tears...
Artist:Ayane
Creator:DJPop
Version:Insane
Source:11eyes CrossOver
Tags:Lass 5pb.Games

[Difficulty]
HPDrainRate:5
CircleSize:5
OverallDifficulty:8
SliderMultiplier:1.9
SliderTickRate:2

[Events]
//Background and Video events
0,0,"Endless Tears....png"
Video,-510,"Endless Tears....avi"
//Break Periods
//Storyboard Layer 0 (Background)
//Storyboard Layer 1 (Fail)
//Storyboard Layer 2 (Pass)
//Storyboard Layer 3 (Foreground)
Sprite,Foreground,Centre,"star2.png",320,240 F,0,118436,118748,0
//Storyboard Sound Samples
//Background Colour Transformations
3,100,0,0,0

[TimingPoints]
3720,312.5,4,1,1,50,1,0
4970,-200,4,1,1,50,0,0
9423,-200,4,2,1,55,0,0
9657,-200,4,2,1,60,0,0
9813,-200,4,2,1,65,0,0
9970,-100,4,1,1,75,0,0
9970,-100,4,1,1,75,0,0
18329,-100,4,2,1,75,0,0
18954,-100,4,1,1,75,0,0
34735,-100,4,2,1,75,0,0
35048,-100,4,1,1,75,0,0
43954,-100,4,2,1,45,0,0
44188,-100,4,2,1,50,0,0
44345,-100,4,2,1,55,0,0
44501,-100,4,2,1,60,0,0
44657,-100,4,2,1,65,0,0
44813,-100,4,2,1,70,0,0
44970,-100,4,1,1,75,0,0
54891,-100,4,1,2,75,0,0
56766,-100,4,2,2,75,0,0
56845,1250,4,2,2,75,1,0
57158,312.5,4,2,2,0,1,0
57314,-100,4,1,1,75,0,0
57470,-100,4,1,1,75,0,1
72079,-100,4,2,1,75,0,1
72548,-100,4,1,1,75,0,1
77079,-100,4,2,1,75,0,1
77392,-100,4,1,1,75,0,1
78486,-100,4,1,2,75,0,1
78954,-100,4,2,1,75,0,1
79267,-100,4,2,2,75,0,1
79658,-100,4,1,1,75,0,0
82314,-200,4,1,1,75,0,0
82626,-100,4,1,1,75,0,0
84814,-200,4,1,1,75,0,0
85126,-100,4,1,1,75,0,0
89814,-200,4,1,1,75,0,0
90126,-100,4,1,1,75,0,0
99579,-100,4,2,1,75,0,0
100048,-100,4,1,1,75,0,0
104970,-100,4,1,1,75,0,1

[Colours]
Combo1 : 227,219,225
Combo2 : 191,0,0
Combo3 : 247,202,136
Combo4 : 175,207,194

[HitObjects]
256,192,4970,5,4
256,32,5438,1,0
144,80,5751,1,0
32,128,6063,1,0
32,192,6220,2,0,B|32:279|128:320|256:320,1,285,4|0
256,256,7313,1,0
256,192,7470,5,4
256,128,7626,1,4
352,32,7938,1,0
448,128,8251,1,0
448,256,8563,1,0
416,320,8720,2,0,B|393:369|336:352,1,95,4|0
272,336,9188,2,2,C|224:320,1,47.5,2|0
160,304,9501,1,0
124,298,9579,1,0
90,284,9657,1,0
60,263,9735,1,0
41,232,9813,1,0
34,197,9891,1,0
32,160,9970,1,4
128,32,10282,5,8
192,32,10438,2,0,C|288:32,1,95
320,96,10751,2,0,C|224:96,1,95,0|8
160,96,11063,1,0
192,160,11220,2,0,C|384:160,1,190,0|8
384,96,11688,2,0,B|440:104|467:160|440:216|383:224,1,190
384,288,12157,1,8
448,320,12313,1,0
384,352,12470,1,0
256,256,12782,5,8
192,256,12938,2,0,C|96:256,1,95
64,192,13251,2,0,C|160:192,1,95,0|8
224,192,13563,1,0
192,128,13720,2,0,C|96:128,1,95
32,128,14032,1,8
160,32,14345,1,0
192,32,14423,1,0
224,32,14501,1,0
256,96,14657,1,8
288,32,14813,1,0
352,32,14970,1,4
448,160,15282,5,8
448,224,15438,2,0,C|448:320,1,95
384,352,15751,2,0,C|384:256,1,95,0|8
384,192,16063,1,0
320,224,16220,2,0,B|312:280|256:307|200:280|192:222,1,190,0|8
128,224,16688,2,0,C|128:32,1,190
64,32,17157,1,8
32,96,17313,1,0
32,160,17470,1,0
32,224,17626,5,0
32,288,17782,1,8
64,352,17938,2,0,C|256:352,1,190
320,352,18407,1,8
336,352,18485,1,8
352,352,18563,1,8
368,352,18641,1,8
384,352,18720,2,0,B|448:336|460:288|448:240|383:224,1,190,4|8
320,224,19188,1,0
256,240,19345,1,0
192,256,19501,1,8
128,240,19657,1,8
96,224,19735,1,8
80,192,19813,1,8
96,160,19891,1,8
128,144,19970,1,4
224,32,20282,6,0,C|320:32,1,95,8|0
288,96,20595,2,0,C|384:96,1,95
416,32,20907,1,8
480,32,21063,1,4
480,192,21376,1,0
480,256,21532,2,0,C|480:352,1,95,8|0
416,352,21845,1,0
352,320,22001,1,8
416,288,22157,1,0
352,256,22313,1,8
416,224,22470,6,0,C|416:128,1,95
352,96,22782,1,12
192,96,23095,2,0,C|96:96,1,95,0|0
64,32,23407,1,8
32,96,23563,1,4
32,256,23876,1,0
96,256,24032,2,0,C|96:352,1,95,8|0
160,352,24345,1,0
224,352,24501,2,0,C|224:256,1,95,8|0
288,256,24813,1,8
352,256,24970,5,4
352,320,25126,1,0
416,352,25282,2,0,B|466:341|480:288,1,95,8|0
480,224,25595,1,0
480,160,25751,2,0,B|467:108|416:96,1,95,0|8
416,32,26063,1,0
256,32,26376,1,2
256,96,26532,2,0,B|243:148|192:160,1,95,10|0
160,96,26845,1,2
128,160,27001,2,0,B|78:149|64:96,1,95,2|8
64,32,27313,1,2
32,192,27626,5,0
32,256,27782,2,0,B|48:311|96:320,1,95,8|0
144,272,28095,1,0
192,224,28251,2,0,B|244:237|256:288,1,95,0|8
256,352,28563,1,4
416,352,28876,2,0,B|467:340|480:288,1,95,0|8
480,224,29188,1,0
352,128,29501,2,0,C|352:32,2,95,0|8|0
352,192,29970,5,0
192,192,30282,1,8
192,128,30438,2,0,C|192:32,1,95
128,32,30751,1,0
64,32,30907,2,0,C|64:128,1,95,8|0
64,192,31220,2,0,C|64:288,1,95
64,352,31532,1,8
128,352,31688,2,0,C|224:352,1,95
288,352,32001,1,0
352,352,32157,1,8
416,352,32313,1,0
416,288,32470,6,0,C|416:192,1,95
416,128,32782,1,12
288,32,33095,2,0,C|288:128,1,95
288,192,33407,1,12
160,288,33720,2,0,C|160:192,1,95
160,128,34032,1,12
32,32,34345,2,2,C|32:128,1,95,2|0
32,192,34657,1,12
32,256,34813,1,8
48,288,34891,1,8
64,320,34970,1,4
128,352,35126,5,0
192,352,35282,2,0,C|288:352,1,95,8|0
320,288,35595,1,0
352,352,35751,2,0,C|448:352,1,95,0|8
480,288,36063,2,0,C|480:192,1,95
416,160,36376,1,2
480,128,36532,2,0,C|480:32,1,95,10|0
416,32,36845,1,2
352,32,37001,2,0,C|352:128,1,95,2|8
288,128,37313,2,0,C|288:224,1,95,2|0
224,224,37626,5,0
224,288,37782,2,0,C|128:288,1,95,8|0
64,288,38095,1,0
64,224,38251,2,0,C|160:224,1,95,0|8
192,160,38563,1,4
64,64,38876,2,0,B|87:15|144:32,1,95,0|8
208,31,39188,2,0,B|268:15|288:64,1,95
352,96,39501,1,0
416,128,39657,1,8
448,192,39813,1,0
480,256,39970,6,0,C|480:352,1,95
416,352,40282,1,8
352,352,40438,2,0,C|352:256,1,95
288,256,40751,1,0
256,192,40907,2,0,C|256:96,2,95,8|0|0
224,256,41376,1,0
160,256,41532,2,0,C|160:352,1,95,8|0
96,352,41845,1,0
32,352,42001,2,0,C|32:256,1,95,0|8
32,192,42313,1,0
64,128,42470,5,0
96,64,42626,1,0
32,32,42782,1,12
192,32,43095,1,0
160,96,43251,1,0
224,128,43407,1,12
288,160,43563,1,0
320,96,43720,2,0,B|332:45|384:32,1,95,4|0
448,64,44032,2,8,C|488:104,1,47.5
448,112,44188,2,8,C|488:152,1,47.5
448,160,44345,2,8,C|488:200,1,47.5
448,208,44501,2,8,C|488:248,1,47.5
448,256,44657,2,8,C|488:296,1,47.5
448,304,44813,2,8,C|488:344,1,47.5
448,352,44970,1,4
288,352,45282,5,8
224,352,45438,2,0,C|128:352,2,95
224,288,45907,2,0,C|224:192,1,95,8|0
256,128,46220,1,0
288,192,46376,2,0,C|288:288,1,95,0|8
288,352,46688,2,0,C|384:352,2,95
224,352,47157,1,8
96,272,47470,5,4
96,112,47782,1,8
32,80,47938,2,0,B|32:40|62:21|96:32,1,95
160,32,48251,2,0,C|256:32,1,95,0|8
320,32,48563,2,2,B|416:0|384:128|480:96,1,190,6|2
480,160,49032,1,14
480,224,49188,1,0
448,288,49345,1,2
384,320,49501,1,0
320,288,49657,1,10
288,224,49813,1,10
288,160,49970,1,4
128,160,50282,5,8
64,192,50438,1,0
32,256,50595,1,0
64,320,50751,2,0,B|85:369|144:352,1,95,0|8
208,352,51063,2,0,B|240:336|275:296|240:256|192:240|192:192,1,190
192,128,51532,2,0,C|192:32,1,95,8|0
256,32,51845,1,0
320,32,52001,2,0,C|320:128,1,95,0|8
256,128,52313,1,4
384,192,52626,5,0
352,256,52782,2,0,C|352:352,1,95,8|0
288,256,53095,2,0,C|288:352,1,95
224,256,53407,2,0,C|224:352,1,95,8|0
160,256,53720,2,0,C|160:352,1,95
96,256,54032,1,8
64,320,54188,1,0
32,256,54345,1,0
32,192,54501,1,0
32,128,54657,1,8
32,64,54813,1,0
96,32,54970,5,6
176,192,55282,1,8
176,192,55438,1,6
256,32,55751,1,0
256,32,55907,1,14
336,192,56220,1,0
336,192,56376,1,6
416,32,56688,1,0
416,32,56845,2,0,C|464:32,1,47.5,6|0
480,192,57470,5,4
480,352,57783,1,8
416,352,57939,2,0,C|320:352,2,95
448,288,58408,1,8
416,224,58564,1,4
288,128,58876,1,0
224,160,59033,2,0,C|224:256,1,95,8|0
160,192,59345,2,0,C|160:288,1,95
96,224,59658,2,0,C|96:320,1,95,8|0
32,256,59970,6,0,C|32:64,1,190,4|8
96,32,60439,1,0
160,32,60595,2,0,C|256:32,1,95
320,32,60908,1,8
384,32,61064,1,4
480,160,61376,2,0,C|384:160,1,95,0|8
320,192,61689,1,0
384,224,61845,2,0,C|480:224,1,95
480,288,62158,1,8
480,352,62314,1,0
416,352,62470,6,0,C|224:352,1,190,4|8
96,288,63095,1,0
160,288,63251,2,0,C|256:288,1,95,0|8
320,288,63564,1,4
384,160,63876,1,0
384,96,64033,2,0,B|371:44|320:32,1,95,8|0
256,48,64345,2,0,C|256:144,1,95
192,160,64658,2,0,B|140:147|128:96,1,95,8|0
128,32,64970,5,4
32,192,65283,1,8
128,352,65595,1,4
320,352,65908,1,8
384,352,66064,2,0,B|424:352|456:344|473:304|456:264|424:256|382:256,1,190,4|0
320,256,66533,1,8
256,256,66689,1,0
192,256,66845,2,0,B|141:244|128:192,1,95
128,128,67158,1,8
128,64,67314,1,0
192,32,67470,6,0,B|244:45|256:96,1,95,4|0
272,160,67783,1,8
336,160,67939,1,0
352,96,68095,2,0,B|365:44|416:32,1,95
448,96,68408,1,8
480,32,68564,1,4
480,192,68876,1,0
416,224,69033,2,0,C|320:224,1,95,8|0
352,288,69345,2,0,C|448:288,1,95
480,352,69658,2,0,C|384:352,1,95,8|0
320,352,69970,6,0,B|224:384|256:256|160:288,1,190,4|8
96,320,70439,1,0
32,288,70595,2,0,C|32:192,1,95
96,160,70908,2,0,C|96:256,1,95,8|0
160,224,71220,2,0,C|160:128,1,95
96,96,71533,1,8
160,64,71689,2,0,C|256:64,1,95
288,48,71923,1,8
320,32,72001,1,0
384,32,72158,1,8
416,48,72236,1,8
448,64,72314,1,8
464,96,72392,1,8
480,128,72470,6,0,C|480:224,2,95,4|0|8
416,160,72939,2,0,C|416:256,2,95
352,192,73408,2,0,C|352:288,2,95,12|0|0
288,224,73876,2,0,C|288:320,2,95,0|8|0
224,256,74345,2,0,C|224:352,1,95
160,288,74658,1,8
128,128,74970,6,0,B|128:48|184:8|256:1|328:8|384:48|384:129,2,380,4|0|8
160,192,76376,1,0
176,192,76454,1,8
192,192,76533,1,0
224,128,76689,1,8
256,192,76845,1,0
288,128,77001,1,8
320,192,77158,1,8
336,192,77236,1,8
352,192,77314,1,0
352,256,77470,6,0,B|160:256,3,190,4|8|0|8
160,320,78564,1,0
176,336,78642,1,8
192,352,78720,1,0
256,352,78876,1,0
320,352,79033,1,8
336,336,79111,1,8
352,320,79189,1,0
288,288,79345,1,2
224,288,79501,1,2
256,32,79970,5,4
256,192,80283,1,8
128,112,80595,1,0
128,48,80751,2,0,B|32:48,1,95,0|8
32,112,81064,2,0,B|0:216|96:168|64:289,1,190
64,352,81533,1,8
224,352,81845,1,0
224,288,82001,2,0,B|200:288|180:255|200:224|225:224,1,95,0|8
288,224,82314,6,0,B|312:224|332:257|312:288|287:288,1,95,4|0
288,352,82783,1,8
448,352,83095,2,0,B|448:256,1,95
448,192,83408,1,8
416,32,83720,2,0,B|320:32,1,95,0|0
288,96,84033,1,8
224,96,84189,2,0,B|128:96,1,95,0|8
96,32,84501,1,0
32,160,84814,6,0,B|56:160|76:193|56:224|31:224,1,95,4|0
32,224,85283,1,8
128,352,85595,1,0
128,288,85751,2,0,B|224:288,1,95,0|8
256,352,86064,2,0,B|352:384|320:256|416:288,1,190
480,288,86533,1,8
480,128,86845,1,0
416,128,87001,2,0,B|416:32,1,95,0|8
480,32,87314,1,4
320,64,87626,5,0
256,96,87783,2,0,B|256:288,3,190,8|0|8|0
96,352,89033,1,8
64,288,89189,2,0,B|64:192,1,95,0|8
32,128,89501,1,0
160,32,89814,6,0,B|160:56|193:76|224:56|224:31,1,95,4|0
288,32,90283,2,0,B|288:56|321:76|352:56|352:31,1,95,8|0
416,32,90595,1,0
480,32,90751,2,0,B|480:128,1,95,0|8
416,160,91064,2,0,B|384:256|512:224|480:320,1,190
416,352,91533,2,0,B|320:352,1,95,8|0
256,336,91845,1,0
192,320,92001,2,0,B|96:320,1,95,0|8
32,304,92314,1,4
32,128,92626,5,0
32,128,92783,2,0,B|32:32,1,95,8|0
96,128,93095,2,0,B|96:32,1,95
160,128,93408,2,0,B|160:32,1,95,8|0
224,128,93720,2,0,B|224:32,1,95
288,128,94033,2,0,B|288:32,1,95,8|0
352,128,94345,2,0,B|352:32,1,95
416,128,94658,2,0,B|416:32,1,95,8|0
480,128,94970,6,0,B|466:256|366:256,1,190,4|8
336,312,95439,2,0,B|328:336|304:352|256:365|208:352|184:336|176:311,1,190
143,255,95908,2,0,B|41:256|32:127,1,190,8|0
160,32,96533,1,8
256,160,96845,1,0
256,224,97001,1,0
256,288,97158,1,8
256,352,97314,1,4
416,352,97626,5,0
480,352,97783,2,0,B|480:256,1,95,8|0
416,224,98095,2,0,B|416:128,1,95
480,128,98408,1,8
480,64,98564,1,0
416,32,98720,2,0,B|224:32,1,190,4|8
160,32,99189,1,0
128,48,99267,1,8
96,64,99345,1,0
32,96,99501,1,0
96,128,99658,1,8
128,144,99736,1,8
144,176,99814,1,8
128,208,99892,1,8
96,224,99970,1,4
32,256,100126,5,0
32,320,100283,1,0
96,352,100439,1,0
96,288,100595,1,0
160,256,100751,1,0
160,320,100908,1,0
224,352,101064,1,4
224,288,101220,1,0
288,256,101376,1,0
288,320,101533,1,0
352,352,101689,1,0
352,288,101845,1,0
416,320,102001,1,0
480,352,102158,1,0
480,288,102314,1,0
416,256,102470,5,4
480,224,102626,1,0
480,160,102783,1,0
416,128,102939,1,0
480,96,103095,1,0
480,32,103251,1,0
416,64,103408,1,4
352,32,103564,1,4
352,96,103720,1,0
288,128,103876,1,0
352,160,104033,1,0
416,192,104189,1,0
352,224,104345,1,0
288,192,104501,1,0
224,160,104658,1,0
224,96,104814,1,0
256,32,104970,5,14
256,32,105126,1,14
96,192,105439,1,14
96,192,105595,1,14
256,352,105908,1,14
256,352,106064,1,14
416,192,106376,1,14
416,192,106533,1,14
256,192,106845,1,14
256,192,107001,1,10
256,192,107158,1,14
256,192,107236,12,4,109345
