osu file format v6

[General]
AudioFilename: Endless Tears....mp3
AudioLeadIn: 0
PreviewTime: 57157
Countdown: 0
SampleSet: Normal
StackLeniency: 0.2
Mode: 0
LetterboxInBreaks: 1

[Editor]
Bookmarks: 4970,9970,19970,24970,34970,44970,57158,67470,79970,89814,99970,109345
DistanceSpacing: 0.800000011920929
BeatDivisor: 4
GridSize: 32

[Metadata]
Title:Endless Tears...
Artist:Ayane
Creator:DJPop
Version:Hard
Source:11eyes CrossOver
Tags:Lass 5pb.Games

[Difficulty]
HPDrainRate:4
CircleSize:4
OverallDifficulty:6
SliderMultiplier:1.6
SliderTickRate:2

[Events]
//Background and Video events
0,0,"Endless Tears....png"
Video,-510,"Endless Tears....avi"
//Break Periods
//Storyboard Layer 0 (Background)
//Storyboard Layer 1 (Fail)
//Storyboard Layer 2 (Pass)
//Storyboard Layer 3 (Foreground)
Sprite,Foreground,Centre,"star2.png",320,240 F,0,118436,118748,0
//Storyboard Sound Samples
//Background Colour Transformations
3,100,0,0,0

[TimingPoints]
3720,312.5,4,1,1,50,1,0
4970,-200,4,1,1,50,0,0
9188,-200,4,1,1,60,0,0
9813,-200,4,1,1,75,0,0
9970,-100,4,1,1,75,0,0
54891,-100,4,1,2,75,0,0
56766,-100,4,2,2,75,0,0
56845,-200,4,2,2,75,0,0
57158,-100,4,2,2,0,0,0
57313,-100,4,1,1,75,0,0
57469,-100,4,1,1,75,0,1
78876,-100,4,1,2,75,0,1
79188,-100,4,2,2,75,0,1
79657,-100,4,1,1,75,0,0
104970,-100,4,1,1,75,0,1

[Colours]
Combo1 : 227,219,225
Combo2 : 191,0,0
Combo3 : 247,202,136
Combo4 : 175,207,194

[HitObjects]
256,192,4970,5,4
256,352,5438,1,0
368,288,5751,1,0
480,224,6063,1,0
480,160,6220,2,0,B|448:72|368:52|288:72|256:128,1,280,4|0
256,192,7470,5,4
256,256,7626,1,4
160,352,7938,1,0
64,256,8251,1,0
64,128,8563,1,0
96,64,8720,2,0,B|104:32|132:26|160:32,1,80,4|0
288,32,9345,2,2,B|316:26|344:32|352:64,1,80
416,192,9970,5,4
416,320,10282,1,0
352,352,10438,1,0
224,352,10751,1,0
96,352,11063,1,0
64,288,11220,2,0,B|24:272|12:225|24:176|66:160,3,160,0|8|0|8
96,96,12313,1,0
128,32,12470,1,0
256,32,12782,5,0
320,64,12938,1,0
448,128,13251,1,0
320,192,13563,1,0
256,192,13720,2,0,B|200:200|184:240|200:280|258:288,1,160,0|8
384,256,14345,2,0,B|440:264|456:304|440:344|382:352,1,160,0|8
256,352,14970,5,4
128,352,15282,1,0
64,320,15438,1,0
32,192,15751,1,0
64,64,16063,1,0
128,32,16220,2,0,C|288:32,3,160,0|8|0|8
352,64,17313,1,0
416,96,17470,1,0
480,224,17782,5,0
416,224,17938,2,0,B|390:320|480:352,2,160
384,160,18720,2,0,C|224:160,1,160,4|8
288,288,19345,2,0,C|128:288,1,160,0|8
64,160,19970,6,0,B|24:144|11:96|24:48|65:32,3,160,4|8|0|8
128,32,21063,1,4
256,32,21376,1,0
256,96,21532,1,8
384,96,21845,2,0,C|464:96,3,80,0|8|0|8
480,160,22470,6,0,B|512:224|384:224|416:288,3,160,0|12|0|8
448,352,23563,1,4
320,352,23876,1,0
256,352,24032,1,8
224,224,24345,2,0,B|269:208|256:160,3,80,0|8|0|8
224,96,24970,5,4
160,64,25126,1,0
96,32,25282,1,0
32,160,25595,1,0
96,192,25751,1,0
32,320,26063,1,0
160,352,26376,1,2
192,288,26532,1,2
320,224,26845,1,2
352,160,27001,1,2
224,96,27313,1,2
352,32,27626,5,0
416,64,27782,1,0
480,192,28095,1,0
416,224,28251,1,0
480,352,28563,1,4
352,352,28876,1,0
224,352,29188,1,0
96,352,29501,2,0,B|32:320|18:256|32:192|98:160,1,240
224,192,30282,5,0
288,224,30438,1,0
416,192,30751,1,0
384,128,30907,2,0,B|368:80|393:28|456:48|480:64,2,160
320,160,31688,2,0,B|247:126|192:64,1,160
128,32,32157,1,0
64,64,32313,1,0
32,128,32470,6,0,C|32:288,1,160,0|4
144,352,33095,2,0,C|144:192,1,160,0|4
256,128,33720,2,0,C|256:288,1,160,0|4
368,352,34345,2,2,C|368:192,1,160,2|4
480,128,34970,5,4
480,192,35126,1,0
416,160,35282,1,0
384,32,35595,1,0
320,32,35751,1,0
256,160,36063,1,0
192,32,36376,1,2
128,32,36532,1,2
32,160,36845,1,2
32,224,37001,1,2
160,192,37313,1,2
288,224,37626,5,0
352,256,37782,1,0
480,320,38095,1,0
416,352,38251,1,0
288,352,38563,1,4
160,352,38876,1,0
32,352,39188,1,0
32,224,39501,1,0
96,192,39657,1,0
96,128,39813,1,0
32,96,39970,5,0
160,32,40282,1,0
192,96,40438,1,0
320,96,40751,1,0
352,32,40907,1,0
416,32,41063,2,0,B|507:66|480:160,1,160
481,224,41532,2,0,B|507:319|416:352,1,160
352,352,42001,2,0,B|320:344|313:314|320:288,2,80
384,288,42470,5,0
416,224,42626,1,0
384,160,42782,1,4
256,160,43095,1,0
224,224,43251,1,0
256,288,43407,1,4
128,352,43720,1,4
64,320,43876,1,0
32,256,44032,1,0
32,128,44345,1,0
64,64,44501,1,0
128,32,44657,1,0
192,32,44813,1,0
256,32,44970,1,4
384,64,45282,5,0
448,96,45438,2,0,C|448:256,1,160
384,288,45907,1,0
256,320,46220,1,0
192,352,46376,1,0
64,352,46688,2,0,B|24:336|11:288|24:240|65:224,1,160
128,192,47157,1,0
256,192,47470,5,4
384,192,47782,1,0
448,192,47938,1,0
464,64,48251,1,0
336,32,48563,2,0,C|176:32,1,160,4|0
176,96,49032,2,0,C|336:96,3,160,0|0|0|4
352,224,50282,5,0
384,288,50438,1,0
352,352,50595,1,0
320,288,50751,1,0
192,288,51063,2,0,C|32:288,1,160
32,352,51532,1,0
32,224,51845,1,0
32,160,52001,1,0
32,32,52313,1,4
160,64,52626,5,0
192,128,52782,2,0,B|192:224|224:192|224:286,2,160
320,128,53720,2,0,B|320:224|288:192|288:285,2,160
352,64,54501,1,0
416,64,54657,1,0
448,128,54813,1,0
448,192,54970,5,6
352,272,55282,1,0
352,272,55438,1,6
256,352,55751,1,0
256,352,55907,1,6
160,272,56220,1,0
160,272,56376,1,6
64,192,56688,1,0
64,192,56845,2,0,C|64:112,1,80,6|0
160,32,57470,5,4
288,32,57782,1,8
352,32,57938,2,0,B|440:32|465:96|440:160|350:160,1,240,0|8
288,160,58563,1,4
96,96,59032,1,8
96,224,59345,1,0
96,352,59657,1,8
224,352,59970,6,0,C|384:352,1,160,4|8
448,320,60438,1,0
480,256,60595,1,0
480,128,60907,1,8
448,64,61063,2,0,B|408:32|336:7|264:32|224:65,1,240,4|8
192,128,61688,1,0
160,192,61845,1,0
288,192,62157,1,8
256,256,62313,1,0
224,320,62470,6,0,B|208:360|160:372|112:360|96:318,1,160,4|8
96,192,63095,2,0,C|96:32,1,160,0|8
32,32,63563,1,4
224,32,64032,1,8
352,32,64345,1,0
480,32,64657,1,8
384,112,64970,5,4
480,192,65282,1,8
384,272,65595,1,4
480,352,65907,1,8
416,352,66063,2,0,C|256:352,1,160,4|0
192,352,66532,1,8
128,352,66688,1,0
64,352,66845,1,0
32,224,67157,1,8
96,224,67313,1,0
160,224,67470,6,0,B|192:208|232:208|232:272|272:272|304:256,1,160,4|8
272,128,68095,2,0,B|304:112|344:112|344:176|384:176|416:160,1,160,0|8
480,160,68563,1,4
320,32,69032,1,8
192,32,69345,1,0
64,32,69657,1,8
32,160,69970,6,0,C|32:320,3,160,4|8|0|8
160,352,71220,1,0
288,320,71532,1,8
352,288,71688,2,0,B|416:256|431:192|416:128|351:96,1,240,0|8
224,32,72470,6,0,C|64:32,1,160,4|8
64,96,72938,2,0,C|224:96,1,160
224,160,73407,2,0,C|64:160,2,160,12|0|8
224,288,74345,1,0
352,352,74657,1,8
480,320,74970,6,0,B|400:288|392:232|400:224|464:192|400:160|392:152|400:96|482:64,2,320,4|0|0
480,192,76532,1,0
352,192,76845,1,0
288,192,77001,1,0
192,96,77313,1,0
128,64,77470,6,0,B|48:96|21:192|48:288|129:320,2,320,4|0|0
128,192,79032,1,0
256,192,79345,1,2
256,192,79501,1,2
480,192,79970,5,4
448,64,80282,1,0
320,32,80595,1,0
256,32,80751,1,0
128,32,81063,2,0,B|32:18|32:128,1,160
32,192,81532,1,0
32,320,81845,1,0
96,352,82001,1,0
224,352,82313,6,0,B|333:271|448:352,1,240,4|8
480,224,83095,1,0
352,160,83407,1,8
224,224,83720,1,0
96,160,84032,1,8
32,192,84188,1,0
32,64,84501,1,0
160,32,84813,6,0,B|416:32,1,240,4|0
480,128,85595,1,0
480,192,85751,1,0
352,192,86063,2,0,B|392:208|402:256|392:304|349:320,1,160
288,352,86532,1,0
160,352,86845,1,0
96,320,87001,1,0
32,192,87313,1,4
112,64,87626,5,0
176,64,87782,2,0,C|336:64,3,160,8|0|8|0
416,192,89032,1,8
480,192,89188,1,0
416,320,89501,1,0
352,192,89813,1,4
256,352,90282,5,0
160,256,90595,1,0
224,224,90751,1,0
256,96,91063,2,0,B|233:11|128:32,1,160
64,32,91532,1,0
32,160,91845,1,0
32,224,92001,1,0
32,352,92313,1,4
160,192,92782,5,8
288,128,93095,1,0
416,64,93407,1,8
480,192,93720,1,0
416,320,94032,1,8
288,256,94345,1,0
160,192,94657,1,8
96,80,94970,6,0,B|16:192|97:304,3,240,4|0|0|0
96,304,96532,1,0
224,352,96845,1,0
288,352,97001,1,0
352,352,97157,1,0
416,352,97313,6,0,B|507:318|480:224,1,160,4|0
481,159,97782,2,0,B|507:65|416:32,2,160,8|0|8
352,192,98720,2,0,C|192:192,1,160,4|8
64,192,99345,1,0
64,192,99501,1,0
64,192,99657,1,8
160,112,99970,5,4
224,112,100126,2,0,C|224:32,2,80
288,112,100595,2,0,C|288:32,2,80
352,112,101063,2,0,C|352:32,2,80,4|0|0
400,160,101532,2,0,C|480:160,2,80
400,224,102001,2,0,C|480:224,2,80
352,272,102470,5,4
288,272,102626,2,0,C|288:352,2,80
224,272,103095,2,0,C|224:352,2,80,0|0|4
160,272,103563,2,0,C|160:352,2,80,4|0|0
112,224,104032,2,0,C|32:224,2,80
112,160,104501,2,0,C|32:160,2,80
160,112,104970,5,14
160,112,105126,1,14
256,32,105438,1,14
256,32,105595,1,14
352,112,105907,1,14
352,112,106063,1,14
256,192,106376,1,14
256,192,106532,1,14
256,320,106845,1,14
256,320,107001,1,10
256,320,107157,1,14
256,192,107235,12,4,109345
