osu file format v14

[General]
AudioFilename: op.mp3
AudioLeadIn: 0
PreviewTime: 45825
Countdown: 0
SampleSet: None
StackLeniency: 0.7
Mode: 0
LetterboxInBreaks: 0
WidescreenStoryboard: 1

[Editor]
DistanceSpacing: 1
BeatDivisor: 4
GridSize: 16
TimelineZoom: 1

[Metadata]
Title:Eienno Memories
TitleUnicode:永遠のメモリーズ
Artist:Ayane
ArtistUnicode:彩音
Creator:Phantom Boy
Version:Normal
Source:Memories Off 1st
Tags:KID 5pb. Yue Imasaka Ayaka Memories Off opening
BeatmapID:629265
BeatmapSetID:277729

[Difficulty]
HPDrainRate:4
CircleSize:4
OverallDifficulty:4
ApproachRate:5
SliderMultiplier:1.4
SliderTickRate:1

[Events]
//Background and Video events
Video,0,"op.avi"
0,0,"2.jpg",0,0
//Break Periods
//Storyboard Layer 0 (Background)
//Storyboard Layer 1 (Fail)
//Storyboard Layer 2 (Pass)
//Storyboard Layer 3 (Foreground)
//Storyboard Sound Samples

[TimingPoints]
415,410.958904109589,4,1,0,100,1,0
45825,-100,4,1,0,100,0,1
72127,-100,4,1,0,100,0,0
98634,666.666666666667,4,1,0,100,1,0

[HitObjects]
96,240,1647,22,0,P|224:64|304:176,1,420,0|0,0:0|0:0,0:0:0:0:
192,192,3291,2,0,P|384:256|368:96,1,420
240,64,4935,2,0,B|96:64|96:64|96:208,1,280,0|0,0:0|0:0,0:0:0:0:
160,288,6579,2,0,B|336:288|336:288|336:176,1,280
272,80,7812,1,0,0:0:0:0:
144,48,8223,2,0,B|48:128|48:128|144:208|144:208|32:352,1,420,0|0,0:0|0:0,0:0:0:0:
160,352,9867,2,0,B|272:336|320:288|272:128|448:48,1,420
256,192,11510,12,0,14798,0:0:0:0:
16,64,16031,5,0,0:0:0:0:
64,112,16236,1,0,0:0:0:0:
16,176,16442,2,4,P|96:192|144:144,1,140
137,158,17058,1,0,0:0:0:0:
320,64,17469,1,0,0:0:0:0:
288,192,17880,1,0,0:0:0:0:
464,192,18086,2,0,P|416:272|176:288,1,350
96,288,19319,2,0,P|48:240|48:208,1,70
48,176,19730,2,0,P|48:128|80:96,1,70
128,112,20141,2,0,P|143:142|139:177,1,70
160,239,20552,2,0,P|190:221|208:192,1,70
320,272,21168,6,0,P|272:192|368:160,1,210
368,224,21990,1,0,0:0:0:0:
448,208,22195,2,0,P|480:160|416:96,1,140
304,48,22812,2,0,P|272:16|192:32,1,105
160,64,23223,1,0,0:0:0:0:
96,112,23634,2,0,P|32:144|48:176,1,105
80,208,24147,1,0,0:0:0:0:
176,160,24456,1,0,0:0:0:0:
192,240,24661,38,0,P|272:320|400:208,1,315,0|0,0:0|0:0,0:0:0:0:
352,128,25894,5,0,0:0:0:0:
240,128,26099,1,0,0:0:0:0:
464,64,27538,1,0,0:0:0:0:
448,128,27743,2,0,B|416:192|464:208|448:256,3,105
384,240,28771,6,0,B|320:192|336:128|208:48|224:80,1,210
192,128,29593,2,0,B|128:80|96:64|48:96,1,140
0,128,30209,1,0,0:0:0:0:
48,208,30414,1,0,0:0:0:0:
96,272,30620,2,0,L|224:208,1,140
221,209,31339,2,0,L|256:208,1,35
255,208,31545,2,0,L|383:288,1,140
432,240,32058,1,0,0:0:0:0:
384,112,32469,1,0,0:0:0:0:
272,32,32880,6,0,P|192:32|160:64,1,105
144,112,33291,1,0,0:0:0:0:
128,176,33497,1,0,0:0:0:0:
128,240,33702,2,0,P|96:288|32:224,1,175
17,161,34319,2,0,P|0:113|16:64,1,105
16,63,34730,1,0,0:0:0:0:
80,64,34935,2,0,P|192:192|400:208,1,385
464,176,36271,6,0,B|448:144|384:128,1,70
408,135,36579,2,0,P|368:96|320:112,1,105
256,112,36990,1,0,0:0:0:0:
176,144,37195,2,0,P|144:176|160:208,1,70
148,196,37504,2,0,P|144:256|192:288,1,105
336,320,38223,2,0,P|416:208|384:80,1,245
288,80,39147,5,0,0:0:0:0:
176,80,39456,2,0,L|64:80,1,105
32,160,40072,1,0,0:0:0:0:
0,240,40483,1,0,0:0:0:0:
48,304,40894,1,0,0:0:0:0:
112,304,41099,2,0,L|272:304,1,140
288,304,41613,2,0,L|448:304,1,140
464,288,42127,2,0,P|496:224|480:176,1,105
448,112,42538,2,0,P|320:112|224:0,2,280
336,176,44387,6,0,L|416:224,1,70
368,272,44798,2,0,L|288:224,1,70
80,304,45825,1,0,0:0:0:0:
144,304,46031,2,0,P|208:288|240:224,1,140
176,192,46647,1,0,0:0:0:0:
112,192,46853,22,0,P|96:96|144:80,1,140
188,80,47469,1,0,0:0:0:0:
256,80,47675,2,0,P|320:128|208:224,1,245
192,288,48599,5,0,0:0:0:0:
304,288,48908,2,0,L|400:288,1,70
416,224,49319,2,0,P|480:192|416:80,1,210
368,96,50141,2,0,L|288:32,1,70
240,0,50654,2,0,L|112:32|112:32,1,105
112,96,51168,1,0,0:0:0:0:
48,128,51373,2,0,P|16:176|144:272,1,245
208,272,52401,2,0,L|272:297,1,35
320,256,52709,6,0,B|352:240|368:208,1,70
368,207,53017,1,0,0:0:0:0:
368,207,53223,1,0,0:0:0:0:
352,64,53634,2,0,L|256:48,1,70
144,48,54045,1,0,0:0:0:0:
128,128,54456,2,0,L|43:173,1,70
96,224,54867,2,0,L|176:352,1,140
272,256,55688,2,0,L|336:320,1,70
464,288,56305,1,0,0:0:0:0:
496,224,56510,2,0,P|496:192|448:176,1,70
416,128,56921,1,0,0:0:0:0:
304,48,57332,2,0,L|80:48,1,210
112,112,58154,2,0,L|256:112,1,140
176,224,58873,5,0,0:0:0:0:
64,256,59182,2,0,P|128:320|288:256,1,280
416,288,60414,1,0,0:0:0:0:
496,240,60620,2,0,B|512:176|464:144,1,105
448,80,61031,2,0,P|400:48|240:32,1,210
208,64,61853,5,0,0:0:0:0:
160,112,62058,2,0,P|96:176|144:304,1,210
224,304,62983,2,0,L|240:352,1,35
320,320,63291,2,0,P|384:288|448:176,1,175
416,144,63908,2,0,P|400:64|288:48,2,175
272,112,65346,2,0,L|224:144,1,35
352,128,65757,6,0,B|352:256|352:256|240:208,1,245
176,240,66784,2,0,B|128:176|128:176|208:160,1,140
256,144,67401,2,0,P|320:160|400:160,1,140
448,112,68017,6,0,P|416:16|320:16,1,210
176,64,69045,2,0,P|224:144|80:336,2,350
256,32,71510,2,0,L|320:160,1,140
416,80,72332,5,0,0:0:0:0:
496,192,72743,1,0,0:0:0:0:
448,240,72949,1,0,0:0:0:0:
400,288,73154,2,0,B|320:288|288:256,1,105
256,240,73565,1,0,0:0:0:0:
192,224,73771,1,0,0:0:0:0:
128,288,73976,1,0,0:0:0:0:
32,192,74387,1,0,0:0:0:0:
128,80,74798,2,0,B|224:48|224:48|208:80|208:80|272:64,1,175
352,64,75620,1,0,0:0:0:0:
368,128,75825,2,0,B|352:160|352:160|384:176|384:176|384:272,1,140
256,224,76442,5,0,0:0:0:0:
208,272,76647,2,0,B|176:320|176:320|112:256,1,140
64,208,77161,2,0,B|64:112|160:16|192:16,1,210
256,48,77880,2,0,L|304:48,1,35
416,64,78908,6,0,L|464:176,1,105
457,160,79319,1,0,0:0:0:0:
448,256,79524,1,0,0:0:0:0:
384,304,79730,2,0,L|304:176,1,140
202,185,80346,2,0,L|128:304,1,140
64,256,80860,1,0,0:0:0:0:
112,160,81168,1,0,0:0:0:0:
208,128,81373,2,0,B|256:96|304:128,1,70
274,114,81682,2,0,P|335:111|383:143,1,105
240,208,82195,6,0,B|272:272|272:272|384:224,1,175
368,144,82812,1,0,0:0:0:0:
320,32,83325,1,0,0:0:0:0:
144,48,83839,2,0,P|64:96|144:240,1,280
64,272,84867,2,0,L|16:320,1,35
64,320,85072,2,0,L|96:272,1,35
112,304,85278,2,0,L|92:350,1,35
224,368,85483,2,0,B|177:165|496:224|544:64|448:32,1,490
336,32,87230,6,0,P|257:67|172:50,1,175
144,112,87949,2,0,P|248:188|346:103,3,280
416,48,91236,2,0,P|472:104|419:164,1,175
384,272,92058,5,0,0:0:0:0:
288,320,92367,2,0,P|272:320|192:256,1,105
128,256,92880,1,0,0:0:0:0:
64,208,93086,2,0,P|48:176|96:96,1,105
160,64,93702,1,0,0:0:0:0:
256,80,94010,2,0,B|256:32|256:32|320:32,1,105
384,48,94524,2,0,B|288:208|480:192|512:368,2,350
288,48,96784,2,0,P|192:64|192:128,1,175
176,112,99300,6,0,P|208:96|288:160,1,140
176,160,100467,2,0,P|224:224|272:176,1,140
352,208,101634,2,0,L|352:96,1,105
448,128,102634,2,0,P|368:32|64:112,1,455
80,192,105300,2,0,P|128:256|400:160,1,420
