osu file format v14

[General]
AudioFilename: MO2_PSP_OP.mp3
AudioLeadIn: 2000
PreviewTime: 44302
Countdown: 0
SampleSet: Soft
StackLeniency: 0.7
Mode: 0
LetterboxInBreaks: 0
WidescreenStoryboard: 0

[Editor]
Bookmarks: 329,15124,28275,44713,97316
DistanceSpacing: 1.4
BeatDivisor: 4
GridSize: 4
TimelineZoom: 1.7

[Metadata]
Title:Eien no Memories
TitleUnicode:永遠のメモリーズ
Artist:Ayane
ArtistUnicode:彩音
Creator:Shad0w1and
Version:ZZHBOY's Advanced
Source:メモリーズオフセカンド
Tags:Off 2nd Elephant Notes ZZHBOY
BeatmapID:853964
BeatmapSetID:381390

[Difficulty]
HPDrainRate:4
CircleSize:3
OverallDifficulty:4
ApproachRate:5
SliderMultiplier:1.2
SliderTickRate:1

[Events]
//Background and Video events
0,0,"BG3.jpg",0,0
Video,-1340,"optc.flv"
//Break Periods
//Storyboard Layer 0 (Background)
//Storyboard Layer 1 (Fail)
//Storyboard Layer 2 (Pass)
//Storyboard Layer 3 (Foreground)
//Storyboard Sound Samples

[TimingPoints]
-1314,410.958904109589,4,2,1,30,1,0
15124,-100,4,2,1,30,0,0
28275,-100,4,2,1,60,0,0
44713,-100,4,2,1,60,0,1
67727,-100,4,2,1,60,0,0
71014,-100,4,2,1,60,0,1
95672,-100,4,2,1,60,0,0
98232,461.538461538462,4,2,1,40,1,0
98693,534.283170080142,4,2,1,40,1,0
99227,504.201680672269,4,2,1,40,1,0
99731,514.579759862779,4,2,1,40,1,0
100245,576.923076923077,4,2,1,40,1,0
100821,647.948164146868,4,2,1,40,1,0
101469,821.917808219178,4,2,1,40,1,0
102290,789.473684210526,4,2,1,40,1,0
103079,414.364640883978,4,2,1,40,1,0
103493,1000,4,2,1,40,1,0

[Colours]
Combo1 : 247,224,134
Combo2 : 51,103,189
Combo3 : 57,216,249
Combo4 : 184,103,50

[HitObjects]
197,250,15124,5,6,0:0:0:0:
197,250,16768,5,2,0:0:0:0:
197,250,18001,5,0,3:0:0:0:
197,334,18206,1,0,3:0:0:0:
271,293,18412,2,0,P|347:307|385:354,1,120,6|8,0:0|0:0,0:0:0:0:
459,341,19028,2,0,L|457:211,1,120,0|0,0:0|0:0,0:0:0:0:
427,142,19644,1,8,0:0:0:0:
446,59,19850,1,0,0:0:0:0:
365,82,20055,6,0,L|289:95,1,60,2|0,0:0|0:0,0:0:0:0:
239,39,20466,2,0,L|173:39,1,60,8|0,0:0|0:0,0:0:0:0:
116,95,20877,1,0,0:0:0:0:
43,52,21083,1,0,0:0:0:0:
38,135,21288,2,0,L|48:224,1,60,8|0,0:0|0:0,0:0:0:0:
63,276,21699,6,0,P|145:289|221:259,1,120,6|8,0:0|0:0,0:0:0:0:
238,220,22316,1,0,0:0:0:0:
260,300,22521,2,0,L|261:375,1,60,0|0,0:0|0:0,0:0:0:0:
343,373,22932,1,8,0:0:0:0:
416,332,23138,1,0,0:0:0:0:
427,248,23343,6,0,P|425:170|432:100,1,120,2|8,0:0|0:0,0:0:0:0:
453,47,23959,1,0,0:0:0:0:
370,65,24165,2,0,L|294:60,1,60,0|0,0:0|0:0,0:0:0:0:
229,35,24576,1,8,0:0:0:0:
245,117,24781,1,0,0:0:0:0:
266,198,24987,6,0,P|255:262|257:317,1,120,6|8,0:0|0:0,0:0:0:0:
194,372,25603,1,0,0:0:0:0:
121,328,25809,2,0,L|35:347,1,60,0|0,0:0|0:0,0:0:0:0:
6,278,26220,1,8,0:0:0:0:
85,252,26425,1,0,0:0:0:0:
21,196,26631,6,0,L|25:115,1,60,2|0,0:3|0:0,0:0:0:0:
72,66,27042,2,0,P|120:75|165:66,1,60,2|2,0:3|0:3,0:0:0:0:
205,35,27453,2,0,P|276:31|374:44,1,120,2|2,0:3|0:3,0:0:0:0:
388,226,28275,6,0,P|317:230|219:217,1,120,6|8,0:0|0:0,0:0:0:0:
187,202,28891,1,0,0:0:0:0:
149,127,29096,2,0,L|155:37,2,90,2|0|0,0:0|0:0|0:0,0:0:0:0:
104,198,29918,2,0,L|14:191,2,90,2|0|0,0:0|0:0|0:0,0:0:0:0:
128,278,30740,2,0,L|208:269,1,60,2|0,0:0|0:0,0:0:0:0:
227,345,31151,1,8,0:0:0:0:
392,341,31562,6,0,P|402:246|390:180,1,120,2|8,0:0|0:0,0:0:0:0:
479,194,32179,2,0,P|476:134|486:75,1,120,2|0,0:0|0:0,0:0:0:0:
419,24,32795,1,8,0:0:0:0:
368,91,33001,2,0,P|286:93|200:79,1,120,6|0,0:0|0:0,0:0:0:0:
262,172,33617,2,0,L|263:256,1,60,8|0,0:0|0:0,0:0:0:0:
219,304,34028,1,2,0:0:0:0:
136,318,34233,1,0,0:0:0:0:
59,282,34439,2,0,L|53:183,1,60,8|0,0:0|0:0,0:0:0:0:
65,138,34850,6,0,P|164:134|233:145,1,120,2|8,0:0|0:0,0:0:0:0:
263,284,35672,1,2,0:0:0:0:
344,301,35877,2,0,P|390:297|436:288,1,60,0|8,0:0|0:0,0:0:0:0:
470,243,36288,2,0,P|468:179|450:86,1,120,0|0,0:0|0:0,0:0:0:0:
397,66,36905,2,0,L|311:59,1,60,8|0,0:0|0:0,0:0:0:0:
255,39,37316,1,0,0:0:0:0:
272,122,37521,1,0,0:0:0:0:
191,94,37727,2,0,L|124:97,1,60,8|0,0:0|0:0,0:0:0:0:
82,165,38138,5,6,0:0:0:0:
98,247,38343,2,0,L|120:347,1,60,0|8,0:0|0:0,0:0:0:0:
185,344,38754,2,0,P|257:335|315:294,1,120,0|0,0:0|0:0,0:0:0:0:
339,238,39370,1,8,0:0:0:0:
412,279,39576,1,0,0:0:0:0:
462,211,39781,6,0,P|462:123|452:45,1,120,2|8,0:0|0:0,0:0:0:0:
379,62,40398,2,0,L|213:74,1,120,0|0,0:0|0:0,0:0:0:0:
176,88,41014,1,8,0:0:0:0:
91,88,41220,1,0,0:0:0:0:
13,121,41425,6,0,L|27:193,1,60,2|2,0:3|0:3,0:0:0:0:
98,219,41836,1,2,0:3:0:0:
86,302,42042,1,2,0:3:0:0:
253,307,42453,2,0,L|251:375,2,60,2|2|2,0:3|0:3|0:3,0:0:0:0:
325,264,43069,5,6,0:3:0:0:
277,194,43275,1,6,0:3:0:0:
323,124,43480,1,6,0:3:0:0:
404,143,43686,1,6,0:3:0:0:
83,75,44507,1,0,0:0:0:0:
58,155,44713,6,0,L|55:231,1,60,6|0,0:0|0:0,0:0:0:0:
130,252,45124,2,0,L|108:338,1,60,2|0,0:3|0:0,0:0:0:0:
183,358,45535,2,0,P|262:370|337:355,1,120,2|2,0:0|0:3,0:0:0:0:
377,330,46151,6,0,L|366:197,1,120,2|0,0:0|0:0,0:0:0:0:
415,140,46768,1,2,0:3:0:0:
380,63,46973,1,0,0:0:0:0:
333,133,47179,2,0,L|244:155,1,60,2|0,0:0|0:0,0:0:0:0:
254,65,47590,2,0,L|169:65,1,60,2|0,0:3|0:0,0:0:0:0:
118,98,48001,6,0,P|45:108|-12:99,1,120,2|2,0:0|0:3,0:0:0:0:
5,193,48617,1,0,0:0:0:0:
73,241,48822,2,0,L|79:323,1,60,2|0,0:0|0:0,0:0:0:0:
151,341,49233,1,2,0:3:0:0:
211,282,49439,6,0,P|294:285|354:303,1,120,2|0,0:0|0:0,0:0:0:0:
385,356,50055,1,2,0:3:0:0:
461,320,50261,1,0,0:0:0:0:
406,256,50466,2,0,L|399:182,1,60,2|0,0:0|0:0,0:0:0:0:
460,136,50877,2,0,L|473:65,1,60,2|2,0:3|0:3,0:0:0:0:
388,57,51288,6,0,P|310:70|226:53,1,120,6|2,0:0|0:3,0:0:0:0:
188,42,51905,1,0,0:0:0:0:
208,123,52110,2,0,L|206:198,2,60,2|0|2,0:0|0:0|0:3,0:0:0:0:
124,107,52727,6,0,P|123:213|128:269,1,120,2|0,0:0|0:0,0:0:0:0:
157,303,53343,2,0,L|147:369,1,60,2|0,0:3|0:0,0:0:0:0:
231,351,53754,2,0,P|266:348|299:352,1,60,2|0,0:0|0:0,0:0:0:0:
373,364,54165,1,2,0:3:0:0:
444,320,54370,1,0,0:0:0:0:
403,246,54576,6,0,P|398:170|410:106,1,120,2|2,0:0|0:3,0:0:0:0:
478,167,55192,2,0,P|485:107|479:47,1,120,0|0,0:0|0:0,0:0:0:0:
394,41,55809,1,2,0:3:0:0:
325,89,56014,1,0,0:0:0:0:
248,54,56220,6,0,L|165:75,1,60,6|6,0:3|0:3,0:0:0:0:
24,98,56836,1,6,0:3:0:0:
182,154,57247,2,0,L|180:219,1,60,6|0,0:3|0:0,0:0:0:0:
153,293,57658,1,0,0:0:0:0:
235,275,57864,6,0,L|310:280,1,60,6|0,0:0|0:0,0:0:0:0:
343,347,58275,2,0,L|423:337,1,60,2|0,0:3|0:0,0:0:0:0:
478,304,58685,2,0,P|467:208|478:147,1,120,2|2,0:0|0:3,0:0:0:0:
497,105,59302,6,0,L|352:113,1,120,2|0,0:0|0:0,0:0:0:0:
294,97,59918,1,2,0:3:0:0:
327,174,60124,1,0,0:0:0:0:
243,166,60329,2,0,L|136:178,1,60,2|0,0:0|0:0,0:0:0:0:
140,99,60740,2,0,L|52:94,1,60,2|0,0:3|0:0,0:0:0:0:
36,167,61151,6,0,P|36:260|52:331,1,120,2|2,0:0|0:3,0:0:0:0:
110,333,61768,1,0,0:0:0:0:
184,295,61973,2,0,L|243:304,1,60,2|0,0:0|0:0,0:0:0:0:
308,357,62384,1,2,0:3:0:0:
391,348,62590,6,0,P|393:265|382:194,1,120,2|0,0:0|0:0,0:0:0:0:
310,196,63206,2,0,L|231:209,1,60,2|0,0:3|0:0,0:0:0:0:
172,236,63617,1,2,0:0:0:0:
92,209,63822,1,0,0:0:0:0:
53,133,64028,2,0,L|58:66,1,60,2|0,0:3|0:0,0:0:0:0:
122,20,64439,6,0,P|191:38|258:24,1,120,6|2,0:0|0:3,0:0:0:0:
277,106,65055,2,0,P|336:100|393:117,1,120,0|0,0:0|0:0,0:0:0:0:
431,193,65672,1,2,0:3:0:0:
480,125,65877,1,0,0:0:0:0:
511,203,66083,6,0,P|507:262|496:321,1,120,6|2,0:0|0:3,0:0:0:0:
420,358,66699,1,0,0:0:0:0:
335,354,66905,2,0,P|322:275|323:188,1,120,2|2,0:0|0:3,0:0:0:0:
334,152,67521,1,0,0:0:0:0:
366,74,67727,6,0,L|299:38,1,60,6|0,0:0|0:0,0:0:0:0:
260,111,68138,2,0,L|185:123,1,60,0|2,0:0|0:3,0:0:0:0:
34,146,68754,2,0,L|26:86,2,60,0|2|0,0:0|0:0|0:0,0:0:0:0:
63,224,69370,5,2,0:0:0:0:
46,306,69576,1,0,0:0:0:0:
127,287,69781,2,0,L|222:266,1,60,2|0,0:0|0:0,0:0:0:0:
267,252,70192,1,2,0:3:0:0:
245,333,70398,1,2,0:3:0:0:
370,114,71014,6,0,L|383:9,2,90,6|0|0,0:0|0:0|0:0,0:0:0:0:
423,178,71836,2,0,L|528:191,2,90,2|0|0,0:0|0:0|0:0,0:0:0:0:
347,214,72658,2,0,L|334:319,2,90,2|0|0,0:0|0:0|0:0,0:0:0:0:
294,150,73480,2,0,L|153:129,1,120,2|2,0:0|0:3,0:0:0:0:
180,300,74302,6,0,P|121:287|96:250,2,90,2|0|0,0:0|0:0|0:0,0:0:0:0:
171,216,75124,2,0,P|211:171|256:168,2,90,2|0|0,0:0|0:0|0:0,0:0:0:0:
247,251,75946,2,0,P|265:308|245:348,2,90,2|0|0,0:0|0:0|0:0,0:0:0:0:
315,201,76768,1,2,0:0:0:0:
360,271,76973,2,0,P|429:266|469:231,1,120,0|0,0:0|0:0,0:0:0:0:
483,151,77590,6,0,L|496:35,2,90,6|0|0,0:0|0:0|0:0,0:0:0:0:
398,147,78412,2,0,L|396:40,2,90,2|0|0,0:0|0:0|0:0,0:0:0:0:
316,167,79233,2,0,L|296:54,2,90,2|0|0,0:0|0:0|0:0,0:0:0:0:
249,219,80055,2,0,L|193:84,1,120,2|2,0:0|0:3,0:0:0:0:
123,137,80672,1,0,0:0:0:0:
47,174,80877,6,0,P|43:241|56:319,1,120,2|2,0:0|0:3,0:0:0:0:
108,354,81494,1,0,0:0:0:0:
176,305,81699,1,2,0:0:0:0:
240,359,81905,2,0,L|367:350,1,120,0|0,0:0|0:0,0:0:0:0:
431,307,82521,6,0,P|437:258|430:227,1,60,2|2,0:3|0:3,0:0:0:0:
357,217,82932,2,0,P|355:187|361:157,1,60,2|2,0:3|0:3,0:0:0:0:
427,104,83343,1,2,0:3:0:0:
364,47,83549,1,2,0:3:0:0:
299,100,83754,2,0,L|232:124,1,60,2|2,0:3|0:3,0:0:0:0:
160,140,84165,6,0,P|128:84|128:40,2,90,6|0|0,0:0|0:0|0:0,0:0:0:0:
188,219,84987,2,0,P|132:251|88:251,2,90,2|0|0,0:0|0:0|0:0,0:0:0:0:
270,201,85809,2,0,P|302:257|302:301,2,90,2|0|0,0:0|0:0|0:0,0:0:0:0:
256,192,86631,12,2,89096,0:0:0:0:
310,221,90740,6,0,P|342:277|342:321,2,90,6|0|0,0:0|0:0|0:0,0:0:0:0:
282,142,91562,2,0,P|338:110|382:110,2,90,2|0|0,0:0|0:0|0:0,0:0:0:0:
200,160,92384,2,0,P|168:104|168:60,2,90,2|0|0,0:0|0:0|0:0,0:0:0:0:
256,192,93206,12,2,95672,0:0:0:0:
255,255,97316,5,6,0:0:0:0:
255,255,98232,2,0,L|387:263,1,120,0|0,0:0|0:0,0:0:0:0:
506,142,99227,2,0,P|433:154|374:134,1,120
272,50,100245,2,0,P|215:40|154:53,1,120
189,182,101469,6,0,P|190:242|173:314,1,120,0|0,0:0|0:0,0:0:0:0:
253,336,102684,2,0,P|298:332|321:324,1,60,0|0,0:0|0:0,0:0:0:0:
349,260,103493,2,0,L|424:262,1,60,0|0,0:0|0:0,0:0:0:0:
