osu file format v14

[General]
AudioFilename: MO2_PSP_OP.mp3
AudioLeadIn: 2000
PreviewTime: 44302
Countdown: 0
SampleSet: Soft
StackLeniency: 0.7
Mode: 0
LetterboxInBreaks: 0
WidescreenStoryboard: 0

[Editor]
Bookmarks: 329,15124,28275,44713,97316
DistanceSpacing: 1.6
BeatDivisor: 4
GridSize: 32
TimelineZoom: 2

[Metadata]
Title:Eien no Memories
TitleUnicode:永遠のメモリーズ
Artist:Ayane
ArtistUnicode:彩音
Creator:Shad0w1and
Version:Insane
Source:メモリーズオフセカンド
Tags:Off 2nd Elephant Notes ZZHBOY
BeatmapID:834354
BeatmapSetID:381390

[Difficulty]
HPDrainRate:7
CircleSize:4
OverallDifficulty:7.5
ApproachRate:8.3
SliderMultiplier:1.5
SliderTickRate:1

[Events]
//Background and Video events
0,0,"BG1.jpg",0,0
Video,-1340,"optc.flv"
//Break Periods
//Storyboard Layer 0 (Background)
//Storyboard Layer 1 (Fail)
//Storyboard Layer 2 (Pass)
//Storyboard Layer 3 (Foreground)
//Storyboard Sound Samples

[TimingPoints]
-1314,410.958904109589,4,2,1,30,1,0
329,-105.263157894737,4,2,1,30,0,0
3617,-117.64705882353,4,2,1,30,0,0
5261,-133.333333333334,4,2,1,30,0,0
6083,-181.818181818182,4,2,1,30,0,0
6905,-133.333333333333,4,2,1,30,0,0
7727,-153.846153846154,4,2,1,30,0,0
8549,-166.666666666667,4,2,1,30,0,0
15124,-100,4,2,1,40,0,0
28275,-83.3333333333333,4,2,1,60,0,0
44713,-74.0740740740741,4,2,1,60,0,1
67727,-74.0740740740741,4,2,1,60,0,0
71014,-74.0740740740741,4,2,1,60,0,1
95672,-74.0740740740741,4,2,1,60,0,0
98232,461.538461538462,4,2,1,40,1,0
98693,534.283170080142,4,2,1,40,1,0
99227,504.201680672269,4,2,1,40,1,0
99731,514.579759862779,4,2,1,40,1,0
100245,576.923076923077,4,2,1,40,1,0
100821,647.948164146868,4,2,1,40,1,0
101469,821.917808219178,4,2,1,40,1,0
102290,789.473684210526,4,2,1,40,1,0
103079,414.364640883978,4,2,1,40,1,0
103493,1000,4,2,1,40,1,0

[Colours]
Combo1 : 247,224,134
Combo2 : 51,103,189
Combo3 : 57,216,249
Combo4 : 184,103,50

[HitObjects]
68,175,329,6,0,B|106:191|106:191|144:161|201:166,1,142.49999619484,2|0,0:0|0:0,0:0:0:0:
316,280,946,2,0,B|280:278|280:278|255:261|255:261|220:277|163:269,1,142.49999619484
325,169,1562,1,2,0:0:0:0:
447,292,1973,6,0,P|367:262|291:302,1,142.49999619484,2|0,0:0|0:0,0:0:0:0:
232,340,2590,2,0,P|188:340|136:332,1,71.2499980974198,0|2,0:0|0:0,0:0:0:0:
105,110,3206,2,0,P|144:116|201:134,1,71.2499980974198
330,152,3617,6,0,P|323:238|311:297,1,127.50000243187,2|0,0:0|0:0,0:0:0:0:
146,334,4233,1,0,0:0:0:0:
146,334,4439,2,0,P|180:256|220:196,1,127.50000243187,2|0,0:0|0:0,0:0:0:0:
480,232,5261,6,0,P|404:256|352:256,1,112.500004291535,2|0,0:0|0:0,0:0:0:0:
312,64,6083,2,0,P|352:91|380:124,2,82.5000025177003,2|2|2,0:0|0:0|0:0,0:0:0:0:
95,94,7316,6,0,P|128:97|161:91,1,56.2500021457673
176,188,7727,2,0,P|118:211|84:248,1,97.4999955368044,2|0,0:0|0:0,0:0:0:0:
229,347,8549,6,0,B|287:338|320:292|320:292|342:338|342:338|380:340,1,179.999994506836,2|0,0:0|0:0,0:0:0:0:
361,339,10192,6,0,B|348:272|376:224|376:224|348:196|348:196|324:220,1,179.999994506836,2|2,0:0|0:0,0:0:0:0:
205,239,11836,6,0,B|272:226|320:254|320:254|348:226|348:226|324:202,1,179.999994506836,2|2,0:0|0:0,0:0:0:0:
256,192,13069,12,0,14713,0:0:0:0:
256,192,15124,5,6,0:0:0:0:
256,192,16768,5,2,0:0:0:0:
166,75,18001,1,0,3:0:0:0:
166,75,18103,1,0,3:0:0:0:
166,75,18206,1,0,3:0:0:0:
67,144,18412,6,0,L|73:239,1,75,6|0,0:0|0:0,0:0:0:0:
178,273,18822,2,0,L|196:180,1,75,8|0,0:0|0:0,0:0:0:0:
203,169,19439,1,0,0:0:0:0:
203,169,19644,2,0,P|251:173|307:169,1,75,8|0,0:0|0:0,0:0:0:0:
412,53,20055,6,0,P|363:52|317:57,1,75,2|0,0:0|0:0,0:0:0:0:
390,161,20466,2,0,L|403:234,1,75,8|0,0:0|0:0,0:0:0:0:
344,340,20877,1,0,0:0:0:0:
271,243,21083,2,0,L|179:243,1,75,0|8,0:0|0:0,0:0:0:0:
110,327,21494,1,0,0:0:0:0:
170,223,21699,6,0,P|170:178|151:122,1,75,6|0,0:0|0:0,0:0:0:0:
11,130,22110,2,0,P|28:164|53:192,1,75,8|0,0:0|0:0,0:0:0:0:
241,157,22521,1,0,0:0:0:0:
140,79,22727,1,0,0:0:0:0:
170,223,22932,2,0,L|167:311,1,75,8|0,0:0|0:0,0:0:0:0:
313,217,23343,6,0,P|384:207|493:201,1,150,2|8,0:0|0:0,0:0:0:0:
462,201,23959,1,0,0:0:0:0:
263,100,24370,1,0,0:0:0:0:
179,186,24576,2,0,L|179:294,1,75,8|0,0:0|0:0,0:0:0:0:
75,352,24987,6,0,P|21:358|-16:355,1,75,6|0,0:0|0:0,0:0:0:0:
179,261,25398,1,8,0:0:0:0:
213,382,25603,1,0,0:0:0:0:
302,256,25809,1,0,0:0:0:0:
164,128,26014,1,0,0:0:0:0:
179,261,26220,1,8,0:0:0:0:
271,133,26425,1,0,0:0:0:0:
76,109,26631,6,0,P|80:157|108:207,1,75,2|0,0:3|0:0,0:0:0:0:
227,273,27042,1,2,0:3:0:0:
249,276,27144,1,2,0:3:0:0:
271,278,27247,1,2,0:3:0:0:
293,277,27350,1,2,0:3:0:0:
315,275,27453,1,2,0:3:0:0:
432,176,27658,1,2,0:3:0:0:
328,81,27864,1,2,0:3:0:0:
328,81,27966,1,2,0:3:0:0:
328,81,28069,1,2,0:3:0:0:
178,187,28275,6,0,B|140:193|113:181|113:181|58:199|-3:187,1,179.999994506836,6|8,0:0|0:0,0:0:0:0:
155,97,28891,1,0,0:0:0:0:
159,281,29096,2,0,P|198:314|258:339,1,89.999997253418,2|0,0:0|0:0,0:0:0:0:
334,331,29405,1,0,0:0:0:0:
334,331,29507,2,0,L|449:301,1,89.9999972534181,8|0,0:0|0:0,0:0:0:0:
489,115,29918,6,0,L|384:142,1,89.999997253418,2|0,0:0|0:0,0:0:0:0:
310,120,30227,1,0,0:0:0:0:
310,120,30329,2,0,L|208:110,1,89.9999972534181,8|0,0:0|0:0,0:0:0:0:
371,232,30740,1,2,0:0:0:0:
406,45,30946,1,0,0:0:0:0:
220,111,31151,1,8,0:0:0:0:
188,119,31562,6,0,P|106:139|9:94,1,179.999994506836,2|8,0:0|0:0,0:0:0:0:
74,286,32179,2,0,P|187:277|265:324,1,179.999994506836,2|0,0:0|0:0,0:0:0:0:
407,317,32795,1,8,0:0:0:0:
443,76,33001,1,6,0:0:0:0:
443,76,33412,5,0,0:0:0:0:
330,150,33617,2,0,L|325:239,1,89.9999972534181,8|0,0:0|0:0,0:0:0:0:
487,307,34028,2,0,L|467:185,1,89.9999972534181,2|0,0:0|0:0,0:0:0:0:
432,79,34439,1,8,0:0:0:0:
303,137,34644,1,0,0:0:0:0:
303,137,34747,1,0,0:0:0:0:
303,137,34850,6,0,B|274:196|298:260|298:260|242:239,1,179.999994506836,2|8,0:0|0:0,0:0:0:0:
428,207,35466,1,0,0:0:0:0:
491,336,35672,2,0,P|441:352|386:350,1,89.9999972534181,2|0,0:0|0:0,0:0:0:0:
302,264,36083,5,8,0:0:0:0:
184,346,36288,2,0,L|68:339,1,89.9999972534181
10,222,36699,2,0,P|6:179|22:116,1,89.9999972534181,0|8,0:0|0:0,0:0:0:0:
142,65,37110,1,0,0:0:0:0:
225,182,37316,2,0,L|213:298,1,89.9999972534181
380,202,37727,2,0,L|366:84,1,89.9999972534181,8|0,0:0|0:0,0:0:0:0:
108,241,38138,6,0,B|167:251|167:251|221:237|221:237|283:246,1,179.999994506836,6|8,0:0|0:0,0:0:0:0:
234,349,38754,1,0,0:0:0:0:
159,149,38959,2,0,P|151:98|164:31,1,89.999997253418
294,98,39370,2,0,L|384:94,1,89.9999972534181,8|0,0:0|0:0,0:0:0:0:
512,154,39781,5,2,0:0:0:0:
456,34,39987,1,0,0:0:0:0:
331,187,40192,1,8,0:0:0:0:
457,232,40398,1,0,0:0:0:0:
384,95,40603,2,0,P|331:81|276:95,1,89.9999972534181
121,278,41014,2,0,P|165:292|232:266,1,89.9999972534181,8|0,0:0|0:0,0:0:0:0:
384,95,41425,5,2,0:3:0:0:
288,232,41631,1,2,0:3:0:0:
216,32,41836,1,2,0:3:0:0:
433,265,42042,1,2,0:3:0:0:
63,233,42453,6,0,B|41:208|40:173|40:173|9:156,2,89.9999972534181,2|2|2,0:3|0:3|0:3,0:3:0:0:
239,340,43069,1,6,0:3:0:0:
327,58,43275,1,6,0:3:0:0:
416,277,43480,1,6,0:3:0:0:
50,61,43686,1,6,0:3:0:0:
50,61,44507,5,0,0:0:0:0:
50,61,44713,2,0,P|106:54|165:61,1,101.250000386238,6|0,0:0|0:0,0:0:0:0:
227,189,45124,2,0,P|180:197|124:192,1,101.250000386238,2|0,0:3|0:0,0:0:0:0:
351,73,45535,2,0,L|349:174,1,101.250000386238,2|0,0:0|0:0,0:0:0:0:
345,315,45946,1,2,0:3:0:0:
486,97,46151,1,2,0:0:0:0:
509,72,46562,5,0,0:0:0:0:
374,142,46768,2,0,B|372:249,1,101.250000386238,2|0,0:3|0:0,0:0:0:0:
510,149,47179,1,2,0:0:0:0:
447,30,47384,2,0,B|416:12|416:12|321:12,1,101.250000386238,0|2,0:0|0:3,0:0:0:0:
217,86,47795,1,0,0:0:0:0:
156,225,48001,6,0,P|88:241|33:223,1,101.250000386238,2|0,0:0|0:0,0:0:0:0:
0,91,48412,2,0,P|46:89|108:126,1,101.250000386238,2|0,0:3|0:0,0:0:0:0:
322,258,48822,1,2,0:0:0:0:
236,77,49028,1,0,0:0:0:0:
156,225,49233,1,2,0:3:0:0:
439,88,49439,1,2,0:0:0:0:
439,88,49850,5,0,0:0:0:0:
420,245,50055,2,0,B|390:258|390:258|317:258,1,101.250000386238,2|0,0:3|0:0,0:0:0:0:
70,334,50466,1,2,0:0:0:0:
149,197,50672,1,0,0:0:0:0:
236,367,50877,1,2,0:3:0:0:
268,367,50980,1,2,0:3:0:0:
301,366,51083,1,2,0:3:0:0:
334,365,51186,1,2,0:3:0:0:
367,364,51288,6,0,B|414:326|414:326|428:283,1,101.250000386238,6|0,0:0|0:0,0:0:0:0:
407,102,51699,1,2,0:3:0:0:
316,204,51905,1,0,0:0:0:0:
185,131,52110,2,0,B|185:68|185:68|209:26,1,101.250000386238,2|0,0:0|0:0,0:0:0:0:
407,102,52521,1,2,0:3:0:0:
316,204,52727,1,2,0:0:0:0:
185,131,52932,5,0,0:0:0:0:
316,204,53138,1,0,0:0:0:0:
300,346,53343,1,2,0:3:0:0:
158,274,53549,2,0,P|106:267|53:278,1,101.250000386238,0|2,0:0|0:0,0:0:0:0:
0,126,53959,2,0,P|52:134|115:115,1,101.250000386238,0|2,0:0|0:3,0:0:0:0:
246,54,54370,1,0,0:0:0:0:
319,282,54576,1,2,0:0:0:0:
319,282,54987,6,0,P|388:293|463:279,1,101.250000386238,2|0,0:3|0:0,0:0:0:0:
256,182,55398,1,2,0:0:0:0:
221,335,55603,1,0,0:0:0:0:
11,268,55809,1,2,0:3:0:0:
160,244,56014,1,0,0:0:0:0:
65,137,56220,5,6,0:3:0:0:
132,364,56425,1,6,0:3:0:0:
477,186,56836,1,6,0:3:0:0:
125,24,57247,1,6,0:3:0:0:
125,24,57658,5,0,0:0:0:0:
198,137,57864,2,0,L|179:256,1,101.250000386238,6|0,0:0|0:0,0:0:0:0:
55,350,58275,2,0,L|44:224,1,101.250000386238,2|0,0:3|0:0,0:0:0:0:
0,124,58685,2,0,B|57:137|57:137|98:127|98:127|140:144|200:137,1,202.500000772476,2|2,0:0|0:3,0:0:0:0:
360,12,59302,1,2,0:0:0:0:
360,12,59713,5,0,0:0:0:0:
287,145,59918,2,0,B|271:193|271:193|286:256,1,101.250000386238,2|0,0:3|0:0,0:0:0:0:
405,332,60329,1,2,0:0:0:0:
511,222,60535,1,0,0:0:0:0:
363,185,60740,1,2,0:3:0:0:
405,332,60946,1,0,0:0:0:0:
511,222,61151,6,0,P|513:186|500:112,1,101.250000386238,2|0,0:0|0:0,0:0:0:0:
363,185,61562,2,0,P|308:195|244:192,1,101.250000386238,2|0,0:3|0:0,0:0:0:0:
105,187,61973,1,2,0:0:0:0:
246,115,62179,1,0,0:0:0:0:
218,275,62384,1,2,0:3:0:0:
93,55,62590,1,2,0:0:0:0:
93,55,63001,5,0,0:0:0:0:
195,166,63206,2,0,L|329:153,1,101.250000386238,2|0,0:3|0:0,0:0:0:0:
107,252,63617,2,0,L|6:263,1,101.250000386238,2|0,0:0|0:0,0:0:0:0:
85,132,64028,1,2,0:3:0:0:
214,291,64233,1,0,0:0:0:0:
395,234,64439,6,0,B|395:165|395:165|356:115|356:115|356:44,1,202.500000772476,6|2,0:0|0:3,0:0:0:0:
469,77,65055,1,0,0:0:0:0:
279,203,65261,2,0,B|163:205,1,101.250000386238,2|0,0:0|0:0,0:0:0:0:
23,287,65672,1,2,0:3:0:0:
55,116,65877,1,0,0:0:0:0:
201,321,66083,5,6,0:0:0:0:
205,110,66288,1,0,0:0:0:0:
390,313,66494,5,2,0:3:0:0:
353,84,66699,1,0,0:0:0:0:
507,185,66905,5,2,0:0:0:0:
235,194,67110,1,0,0:0:0:0:
396,28,67316,1,2,0:3:0:0:
390,313,67521,1,0,0:0:0:0:
116,316,67727,6,0,B|92:248|40:204|40:204|52:128|52:128,1,202.500000772476,6|0,0:0|0:0,0:0:0:0:
217,22,68343,1,2,0:3:0:0:
217,22,68754,1,0,0:0:0:0:
337,130,68959,2,0,L|455:112,1,101.250000386238,2|0,0:0|0:0,0:0:0:0:
503,288,69370,6,0,L|400:278,1,101.250000386238,2|0,0:0|0:0,0:0:0:0:
243,242,69781,1,2,0:0:0:0:
243,242,70192,5,2,0:3:0:0:
0,344,70398,1,2,0:3:0:0:
40,66,71014,6,0,B|91:61|136:86|136:86|227:71,1,151.875000579357,6|0,0:0|0:0,0:0:0:0:
299,95,71425,2,0,B|291:137|266:161|266:161|213:175,1,101.250000386238,2|0,0:3|0:0,0:0:0:0:
62,178,71836,2,0,B|55:298|55:298|107:270,1,151.875000579357,2|0,0:0|0:0,0:0:0:0:
171,237,72247,1,2,0:3:0:0:
344,147,72453,1,0,0:0:0:0:
380,357,72658,6,0,B|324:365|324:365|228:314,1,151.875000579357,2|0,0:0|0:0,0:0:0:0:
171,237,73069,2,0,P|165:197|175:135,1,101.250000386238,2|0,0:3|0:0,0:0:0:0:
311,203,73480,2,0,B|352:212|390:199|390:199|438:228|519:222,1,202.500000772476,2|2,0:0|0:3,0:0:0:0:
474,75,74096,1,0,0:0:0:0:
300,52,74302,6,0,P|301:114|318:238,1,151.875000579357,2|0,0:0|0:0,0:0:0:0:
402,240,74713,2,0,P|408:290|401:348,1,101.250000386238,2|0,0:3|0:0,0:0:0:0:
256,297,75124,2,0,B|199:294|152:308|152:308|109:273,1,151.875000579357,2|0,0:0|0:0,0:0:0:0:
45,207,75535,1,2,0:3:0:0:
182,81,75740,1,0,0:0:0:0:
298,224,75946,6,0,B|297:263|297:263|335:314|395:311,1,151.875000579357,2|0,0:0|0:0,0:0:0:0:
499,289,76357,2,0,L|498:175,1,101.250000386238,2|0,0:3|0:0,0:0:0:0:
435,37,76768,1,2,0:0:0:0:
394,211,76973,1,4,0:0:0:0:
274,86,77179,1,2,0:3:0:0:
101,116,77384,5,0,0:0:0:0:
101,116,77487,1,0,0:0:0:0:
100,117,77590,2,0,B|76:161|76:161|95:281,1,151.875000579357,6|0,0:0|0:0,0:0:0:0:
196,292,78001,2,0,B|183:219|183:219|219:228,1,101.250000386238,2|0,0:3|0:0,0:0:0:0:
355,324,78412,2,0,P|428:313|471:240,1,151.875000579357,2|0,0:0|0:0,0:0:0:0:
478,152,78822,1,2,0:3:0:0:
307,50,79028,5,0,0:0:0:0:
307,50,79131,1,0,0:0:0:0:
307,50,79233,2,0,B|273:66|273:66|253:128|290:188,1,151.875000579357,2|0,0:0|0:0,0:0:0:0:
381,152,79644,2,0,P|383:206|363:248,1,101.250000386238,2|0,0:3|0:0,0:0:0:0:
124,180,80055,2,0,P|52:177|-14:183,1,101.250000386238,2|0,0:0|0:0,0:0:0:0:
186,301,80466,1,2,0:3:0:0:
215,91,80672,1,0,0:0:0:0:
371,232,80877,6,0,B|447:258|517:238|517:238|457:203,1,202.500000772476,2|2,0:0|0:3,0:0:0:0:
157,184,81494,1,0,0:0:0:0:
278,298,81699,1,2,0:0:0:0:
329,136,81905,2,0,B|335:69|335:69|320:35,1,101.250000386238,0|2,0:0|0:3,0:0:0:0:
159,29,82316,1,0,0:0:0:0:
157,184,82521,5,2,0:3:0:0:
157,184,82624,1,2,0:3:0:0:
157,184,82727,1,2,0:3:0:0:
299,272,82932,1,2,0:3:0:0:
299,272,83035,1,2,0:3:0:0:
299,272,83138,1,2,0:3:0:0:
277,45,83343,1,2,0:3:0:0:
91,161,83549,5,2,0:3:0:0:
91,161,83651,1,2,0:3:0:0:
91,161,83754,2,0,P|82:193|75:241,1,50.6250001931191,2|0,0:3|0:0,0:0:0:0:
200,137,83959,2,0,P|199:116|188:69,1,50.6250001931191,2|0,0:3|0:0,0:0:0:0:
181,232,84165,6,0,P|246:259|337:223,1,151.875000579357,6|0,0:0|0:0,0:0:0:0:
396,196,84576,2,0,L|401:298,1,101.250000386238,2|0,0:3|0:0,0:0:0:0:
183,384,84987,2,0,B|181:227,1,151.875000579357,2|0,0:0|0:0,0:0:0:0:
200,137,85398,1,2,0:3:0:0:
48,80,85603,1,0,0:0:0:0:
31,241,85809,6,0,B|84:242|84:242|127:229|127:229|215:233,1,151.875000579357,2|0,0:0|0:0,0:0:0:0:
253,321,86220,2,0,L|133:317,1,101.250000386238,2|0,0:3|0:0,0:0:0:0:
200,137,86631,2,0,L|304:141,1,101.250000386238,2|0,0:0|0:0,0:0:0:0:
455,192,87042,1,2,0:3:0:0:
426,32,87247,1,0,0:0:0:0:
301,140,87453,6,0,B|277:216|306:288|306:288|349:243,1,202.500000772476,2|2,0:0|0:3,0:0:0:0:
125,263,88069,1,0,0:0:0:0:
125,263,88172,1,0,0:0:0:0:
125,263,88275,2,0,L|113:347,2,50.625000193119,2|0|0,0:0|0:0|0:0,0:0:0:0:
108,12,88686,1,2,0:3:0:0:
0,169,88891,1,0,0:0:0:0:
200,116,89096,6,0,L|322:111,1,101.250000386238,2|0,0:0|0:0,0:0:0:0:
453,247,89507,1,2,0:3:0:0:
421,243,89610,1,2,0:3:0:0:
389,239,89713,1,2,0:3:0:0:
357,235,89816,1,2,0:3:0:0:
325,231,89918,1,6,0:3:0:0:
182,300,90124,1,6,0:3:0:0:
348,117,90329,1,6,0:3:0:0:
407,357,90535,1,6,0:3:0:0:
192,192,90740,6,0,B|93:165|93:165|24:176,1,151.875000579357,6|0,0:0|0:0,0:0:0:0:
82,275,91151,1,2,0:3:0:0:
179,79,91357,1,0,0:0:0:0:
301,269,91562,2,0,P|350:281|418:268,1,101.250000386238,2|0,0:0|0:0,0:0:0:0:
365,114,91973,1,2,0:3:0:0:
240,316,92179,1,0,0:0:0:0:
494,324,92384,6,0,B|524:217|524:217|484:233,1,151.875000579357,2|0,0:0|0:0,0:0:0:0:
399,274,92795,1,2,0:3:0:0:
255,155,93001,1,0,0:0:0:0:
468,79,93206,1,2,0:0:0:0:
414,200,93412,1,0,0:0:0:0:
257,36,93617,2,0,L|119:24,1,101.250000386238,2|0,0:3|0:0,0:0:0:0:
279,233,94028,6,0,B|348:222|348:222|388:234|388:234|452:214|501:231,1,202.500000772476,2|2,0:0|0:3,0:0:0:0:
394,127,94644,1,0,0:0:0:0:
160,344,95055,1,0,0:0:0:0:
104,204,95261,2,0,B|40:190|40:190|-25:210,1,101.250000386238,2|0,0:3|0:0,0:0:0:0:
341,324,95672,5,2,0:0:0:0:
341,324,95775,1,0,0:0:0:0:
341,324,95877,2,0,P|355:268|361:194,1,101.250000386238,0|2,0:0|0:3,0:0:0:0:
395,28,96288,1,2,0:0:0:0:
395,28,96391,1,0,0:0:0:0:
395,28,96494,2,0,P|319:40|251:36,1,101.250000386238,0|2,0:0|0:3,0:0:0:0:
72,220,96905,1,2,0:0:0:0:
103,212,97007,1,0,0:0:0:0:
134,205,97110,1,0,0:0:0:0:
165,198,97213,1,0,0:0:0:0:
192,192,97316,1,6,0:0:0:0:
459,151,98232,6,0,P|367:143|294:122,1,150
149,83,99227,2,0,P|157:187|169:239,1,150
311,197,100245,6,0,P|375:201|488:219,1,150
347,348,101469,2,0,P|301:333|247:322,1,75
66,250,102290,6,0,P|68:291|76:354,2,75
171,150,103493,2,0,L|271:159,1,75
