osu file format v14

[General]
AudioFilename: MO2_PSP_OP.mp3
AudioLeadIn: 2000
PreviewTime: 44302
Countdown: 0
SampleSet: Soft
StackLeniency: 0.7
Mode: 0
LetterboxInBreaks: 0
WidescreenStoryboard: 0

[Editor]
Bookmarks: 329,15124,28275,44713,97316
DistanceSpacing: 1.6
BeatDivisor: 2
GridSize: 4
TimelineZoom: 1.7

[Metadata]
Title:Eien no Memories
TitleUnicode:永遠のメモリーズ
Artist:Ayane
ArtistUnicode:彩音
Creator:Shad0w1and
Version:Hard
Source:メモリーズオフセカンド
Tags:Off 2nd Elephant Notes ZZHBOY
BeatmapID:834353
BeatmapSetID:381390

[Difficulty]
HPDrainRate:5
CircleSize:3.5
OverallDifficulty:6
ApproachRate:7
SliderMultiplier:1.3
SliderTickRate:1

[Events]
//Background and Video events
Video,-1340,"optc.flv"
0,0,"BG2.jpg",0,0
//Break Periods
2,12857,13813
//Storyboard Layer 0 (Background)
//Storyboard Layer 1 (Fail)
//Storyboard Layer 2 (Pass)
//Storyboard Layer 3 (Foreground)
//Storyboard Sound Samples

[TimingPoints]
-1314,410.958904109589,4,2,1,60,1,0
329,-181.818181818182,4,2,1,30,0,0
14713,-100,4,2,1,60,0,0
15124,-100,4,2,1,30,0,0
28275,-83.3333333333333,4,2,1,60,0,0
44713,-74.0740740740741,4,2,1,60,0,1
67727,-74.0740740740741,4,2,1,60,0,0
71014,-74.0740740740741,4,2,1,60,0,1
95672,-74.0740740740741,4,2,1,60,0,0
98232,461.538461538462,4,2,1,40,1,0
98693,534.283170080142,4,2,1,40,1,0
99227,504.201680672269,4,2,1,40,1,0
99731,514.579759862779,4,2,1,40,1,0
100245,576.923076923077,4,2,1,40,1,0
100821,647.948164146868,4,2,1,40,1,0
101469,821.917808219178,4,2,1,40,1,0
102290,789.473684210526,4,2,1,40,1,0
103079,414.364640883978,4,2,1,40,1,0
103493,1000,4,2,1,40,1,0

[Colours]
Combo1 : 247,224,134
Combo2 : 51,103,189
Combo3 : 57,216,249
Combo4 : 184,103,50

[HitObjects]
177,113,329,5,2,0:0:0:0:
177,113,1562,1,2,0:0:0:0:
109,205,1973,6,0,P|182:226|257:195,1,143.000004364014,2|2,0:0|0:0,0:0:0:0:
439,86,3617,5,2,0:0:0:0:
267,96,4439,1,2,0:0:0:0:
376,296,5261,1,2,0:0:0:0:
170,195,6083,2,0,L|93:206,2,71.5000021820069,2|2|2,0:0|0:0|0:0,0:0:0:0:
396,159,7727,1,2,0:0:0:0:
264,346,8549,6,0,B|247:292|264:247|264:247|246:177|246:177|284:150,1,214.500006546021,2|0,0:0|0:0,0:0:0:0:
396,159,10192,6,0,B|396:202|407:234|407:234|385:269|385:269|368:249,1,143.000004364014,2|2,0:0|0:0,0:0:0:0:
157,159,11836,6,0,B|157:202|146:234|146:234|168:269|168:269|185:249,1,143.000004364014,2|2,0:0|0:0,0:0:0:0:
0,124,14713,6,0,P|49:119|87:109,1,65,0|0,0:0|0:0,0:0:0:0:
192,29,15124,6,0,P|176:110|158:186,1,130,6|0,0:0|0:0,0:0:0:0:
133,277,15740,2,0,P|223:265|271:289,2,130,0|0|0,0:0|0:0|0:0,0:0:0:0:
42,330,16768,1,2,0:0:0:0:
461,208,18001,6,0,P|434:186|388:166,1,65,0|0,3:0|3:0,0:0:0:0:
374,285,18412,6,0,P|296:296|232:272,1,130,6|8,0:0|0:0,0:0:0:0:
148,200,19028,1,0,0:0:0:0:
368,88,19439,1,0,0:0:0:0:
368,88,19644,2,0,P|411:83|452:60,1,65,8|0,0:0|0:0,0:0:0:0:
255,35,20055,6,0,P|272:124|264:192,1,130,2|8,0:0|0:0,0:0:0:0:
236,288,20672,1,0,0:0:0:0:
152,198,20877,2,0,L|56:198,1,65,0|0,0:0|0:0,0:0:0:0:
19,105,21288,1,8,0:0:0:0:
0,280,21494,1,0,0:0:0:0:
152,198,21699,6,0,P|173:164|204:82,2,97.5,6|0|0,0:0|0:0|0:0,0:0:0:0:
284,200,22521,2,0,L|436:188,1,130,0|8,0:0|0:0,0:0:0:0:
504,284,23138,1,0,0:0:0:0:
396,356,23343,6,0,P|306:378|241:370,1,130,2|8,0:0|0:0,0:0:0:0:
188,276,23959,1,0,0:0:0:0:
189,244,24370,5,0,0:0:0:0:
189,244,24576,2,0,L|282:246,1,65,8|0,0:0|0:0,0:0:0:0:
382,160,24987,1,6,0:0:0:0:
376,125,25398,6,0,P|328:129|284:117,1,65,8|0,0:0|0:0,0:0:0:0:
200,184,25809,2,0,P|168:154|146:110,1,65,0|0,0:0|0:0,0:0:0:0:
300,4,26220,1,8,0:0:0:0:
312,127,26425,1,0,0:0:0:0:
200,184,26631,6,0,P|184:264|192:336,1,130,2|2,0:3|0:3,0:0:0:0:
387,165,27453,1,2,0:3:0:0:
224,20,27864,1,2,0:3:0:0:
28,188,28275,6,0,P|116:180|207:142,1,155.999995239258,6|8,0:0|0:0,0:0:0:0:
324,96,28891,1,0,0:0:0:0:
324,96,29096,2,0,P|316:188|316:248,2,116.999996429443,2|0|0,0:0|0:0|0:0,0:0:0:0:
470,210,29918,6,0,P|398:218|302:210,1,155.999995239258,2|8,0:0|0:0,0:0:0:0:
192,140,30535,1,0,0:0:0:0:
324,96,30740,1,2,0:0:0:0:
282,342,31151,1,8,0:0:0:0:
452,175,31562,6,0,P|368:107|288:95,1,155.999995239258,2|8,0:0|0:0,0:0:0:0:
316,236,32179,2,0,P|244:272|148:268,1,155.999995239258,2|0,0:0|0:0,0:0:0:0:
64,184,32795,1,8,0:0:0:0:
192,128,33001,6,0,P|244:228|256:296,1,155.999995239258,6|0,0:0|0:0,0:0:0:0:
448,312,33617,2,0,P|405:289|369:249,1,77.999997619629,8|0,0:0|0:0,0:0:0:0:
384,128,34028,2,0,P|378:96|386:26,1,77.999997619629,2|0,0:0|0:0,0:0:0:0:
512,12,34439,1,8,0:0:0:0:
480,164,34644,5,0,0:0:0:0:
480,164,34747,1,0,0:0:0:0:
480,164,34850,2,0,P|404:168|308:136,1,155.999995239258,2|8,0:0|0:0,0:0:0:0:
236,64,35466,1,0,0:0:0:0:
120,20,35672,2,0,P|72:28|40:52,1,77.999997619629,2|0,0:0|0:0,0:0:0:0:
128,140,36083,2,0,L|136:244,1,77.999997619629,8|0,0:0|0:0,0:0:0:0:
144,116,36699,5,0,0:0:0:0:
144,116,36905,2,0,P|231:125|328:108,1,155.999995239258,8|0,0:0|0:0,0:0:0:0:
408,180,37521,1,0,0:0:0:0:
332,280,37727,2,0,P|279:267|230:266,1,77.999997619629,8|0,0:0|0:0,0:0:0:0:
132,260,38138,5,6,0:0:0:0:
249,142,38343,1,0,0:0:0:0:
249,142,38754,2,0,P|212:112|192:52,1,77.999997619629,0|0,0:0|0:0,0:0:0:0:
360,56,39165,2,0,P|388:92|404:152,2,77.999997619629,0|8|0,0:0|0:0|0:0,0:0:0:0:
296,240,39781,6,0,P|387:260|472:264,1,155.999995239258,2|8,0:0|0:0,0:0:0:0:
311,131,40398,1,0,0:0:0:0:
184,252,40603,1,0,0:0:0:0:
296,240,40809,1,0,0:0:0:0:
170,131,41014,1,8,0:0:0:0:
59,240,41220,1,0,0:0:0:0:
165,362,41425,6,0,L|268:368,1,77.999997619629,2|2,0:3|0:3,0:0:0:0:
448,276,41836,2,0,L|349:268,1,77.999997619629,2|2,0:3|0:3,0:0:0:0:
134,158,42453,5,2,0:3:0:0:
52,64,42658,1,2,0:3:0:0:
172,28,42864,1,2,0:3:0:0:
176,152,43069,2,0,L|180:256,1,77.999997619629,6|6,0:3|0:3,0:0:0:0:
376,272,43480,2,0,L|394:172,1,77.999997619629,6|6,0:3|0:3,0:0:0:0:
17,299,44507,5,0,0:0:0:0:
17,299,44713,2,0,L|128:312,1,87.7500003347397,6|0,0:0|0:0,0:0:0:0:
232,180,45124,2,0,L|121:191,1,87.7500003347397,2|0,0:3|0:0,0:0:0:0:
324,280,45535,2,0,P|367:193|384:96,1,175.500000669479,2|2,0:0|0:3,0:0:0:0:
236,152,46151,6,0,P|116:164|36:152,1,175.500000669479,2|0,0:0|0:0,0:0:0:0:
88,332,46768,2,0,P|143:310|193:303,1,87.7500003347397,2|0,0:3|0:0,0:0:0:0:
300,364,47179,1,2,0:0:0:0:
424,300,47384,2,0,L|432:193,1,87.7500003347397,0|2,0:0|0:3,0:0:0:0:
376,80,47795,1,0,0:0:0:0:
288,192,48001,6,0,P|244:196|180:188,1,87.7500003347397,2|0,0:0|0:0,0:0:0:0:
65,154,48412,2,0,P|67:110|77:62,1,87.7500003347397,2|0,0:3|0:0,0:0:0:0:
273,31,48822,1,2,0:0:0:0:
150,122,49028,1,0,0:0:0:0:
162,17,49233,1,2,0:3:0:0:
315,152,49439,1,2,0:0:0:0:
316,179,49850,5,0,0:0:0:0:
190,240,50055,2,0,L|71:227,1,87.7500003347397,2|0,0:3|0:0,0:0:0:0:
40,356,50466,2,0,L|148:349,1,87.7500003347397,2|0,0:0|0:0,0:0:0:0:
287,345,50877,1,2,0:3:0:0:
287,345,50980,1,2,0:3:0:0:
287,345,51083,1,2,0:3:0:0:
287,345,51186,1,2,0:3:0:0:
287,345,51288,6,0,L|279:238,1,87.7500003347397,6|0,0:0|0:0,0:0:0:0:
386,165,51699,1,2,0:3:0:0:
411,303,51905,1,0,0:0:0:0:
248,297,52110,2,0,L|242:176,1,87.7500003347397,2|0,0:0|0:0,0:0:0:0:
356,70,52521,2,0,L|357:168,1,87.7500003347397,2|2,0:3|0:0,0:0:0:0:
238,81,52932,5,0,0:0:0:0:
139,181,53138,2,0,L|35:189,1,87.7500003347397,0|2,0:0|0:3,0:0:0:0:
12,52,53549,2,0,L|108:55,1,87.7500003347397,0|2,0:0|0:0,0:0:0:0:
238,81,53959,1,0,0:0:0:0:
139,181,54165,1,2,0:3:0:0:
99,54,54370,1,0,0:0:0:0:
238,81,54576,6,0,P|334:74|407:12,1,175.500000669479,2|2,0:0|0:3,0:0:0:0:
411,205,55192,2,0,P|317:224|255:293,1,175.500000669479,0|0,0:0|0:0,0:0:0:0:
149,363,55809,1,2,0:3:0:0:
132,223,56014,1,0,0:0:0:0:
262,278,56220,5,6,0:3:0:0:
149,363,56425,1,6,0:3:0:0:
120,83,56836,1,6,0:3:0:0:
390,158,57247,1,6,0:3:0:0:
388,125,57658,5,0,0:0:0:0:
388,125,57864,2,0,P|333:118|277:105,1,87.7500003347397,6|0,0:0|0:0,0:0:0:0:
260,253,58275,2,0,P|300:249|355:246,1,87.7500003347397,2|0,0:3|0:0,0:0:0:0:
177,368,58685,2,0,P|138:311|131:199,1,175.500000669479,2|2,0:0|0:3,0:0:0:0:
218,77,59302,1,2,0:0:0:0:
218,105,59713,5,0,0:0:0:0:
218,105,59918,2,0,P|263:115|334:109,1,87.7500003347397,2|0,0:3|0:0,0:0:0:0:
445,109,60329,2,0,P|454:68|456:21,1,87.7500003347397,2|0,0:0|0:0,0:0:0:0:
304,114,60740,2,0,L|321:210,1,87.7500003347397,2|0,0:3|0:0,0:0:0:0:
423,339,61151,6,0,B|366:322|366:322|246:337,1,175.500000669479,2|2,0:0|0:3,0:0:0:0:
112,366,61768,1,0,0:0:0:0:
159,234,61973,2,0,P|159:187|143:122,1,87.7500003347397,2|0,0:0|0:0,0:0:0:0:
21,200,62384,1,2,0:3:0:0:
158,270,62590,6,0,B|219:276|219:276|273:262|273:262|341:267,1,175.500000669479,2|0,0:0|0:0,0:0:0:0:
507,296,63206,1,2,0:3:0:0:
470,292,63617,6,0,L|462:203,1,87.7500003347397,2|0,0:0|0:0,0:0:0:0:
339,80,64028,2,0,L|333:180,1,87.7500003347397,2|0,0:3|0:0,0:0:0:0:
223,299,64439,6,0,P|142:309|61:250,1,175.500000669479,6|2,0:0|0:3,0:0:0:0:
24,132,65055,2,0,L|121:108,1,87.7500003347397,0|2,0:0|0:0,0:0:0:0:
289,60,65466,1,0,0:0:0:0:
171,191,65672,1,2,0:3:0:0:
172,50,65877,1,0,0:0:0:0:
289,181,66083,6,0,L|405:177,1,87.7500003347397,6|0,0:0|0:0,0:0:0:0:
407,315,66494,2,0,L|305:304,1,87.7500003347397,2|0,0:3|0:0,0:0:0:0:
179,319,66905,2,0,B|179:260|179:260|200:204|200:204|201:135,1,175.500000669479,2|2,0:0|0:3,0:0:0:0:
66,105,67521,1,0,0:0:0:0:
227,244,67727,6,0,P|308:253|415:236,1,175.500000669479,6|0,0:0|0:0,0:0:0:0:
508,149,68343,1,2,0:3:0:0:
474,142,68754,5,0,0:0:0:0:
364,54,68959,2,0,P|318:43|246:46,1,87.7500003347397,2|0,0:0|0:0,0:0:0:0:
218,169,69370,2,0,P|172:174|109:166,1,87.7500003347397,2|0,0:0|0:0,0:0:0:0:
40,62,69781,1,2,0:0:0:0:
86,57,70192,5,2,0:3:0:0:
86,57,70398,1,2,0:3:0:0:
86,57,71014,6,0,P|89:141|74:206,2,131.62500050211,6|0|0,0:0|0:0|0:0,0:0:0:0:
206,129,71836,2,0,P|271:161|355:161,2,131.62500050211,2|0|0,0:0|0:0|0:0,0:0:0:0:
308,32,72658,5,2,0:0:0:0:
276,267,72966,1,0,0:0:0:0:
498,180,73275,1,0,0:0:0:0:
498,180,73480,2,0,P|418:156|312:166,1,175.500000669479,2|2,0:0|0:3,0:0:0:0:
198,219,74096,1,0,0:0:0:0:
57,221,74302,6,0,P|44:156|12:100,2,131.62500050211,2|0|0,0:0|0:0|0:0,0:0:0:0:
162,128,75124,2,0,P|213:108|328:122,2,131.62500050211,2|0|0,0:0|0:0|0:0,0:0:0:0:
248,238,75946,5,2,0:0:0:0:
192,12,76254,1,0,0:0:0:0:
16,166,76562,1,0,0:0:0:0:
16,166,76768,2,0,P|72:156|126:169,1,87.7500003347397,2|4,0:0|0:0,0:0:0:0:
84,300,77179,2,0,P|118:320|190:327,1,87.7500003347397,2|0,0:3|0:0,0:0:0:0:
304,320,77590,6,0,P|368:308|457:333,2,131.62500050211,6|0|0,0:0|0:0|0:0,0:0:0:0:
353,186,78412,2,0,P|387:118|383:45,2,131.62500050211,2|0|0,0:0|0:0|0:0,0:0:0:0:
261,95,79233,5,2,0:0:0:0:
498,123,79542,1,0,0:0:0:0:
368,321,79850,1,0,0:0:0:0:
251,242,80055,2,0,L|128:228,1,87.7500003347397,2|0,0:0|0:0,0:0:0:0:
67,367,80466,2,0,L|180:360,1,87.7500003347397,2|0,0:3|0:0,0:0:0:0:
326,352,80877,6,0,P|373:289|356:171,1,175.500000669479,2|2,0:0|0:3,0:0:0:0:
153,112,81494,2,0,P|174:188|278:245,1,175.500000669479,0|0,0:0|0:0,0:0:0:0:
370,196,82110,1,2,0:3:0:0:
420,64,82316,1,0,0:0:0:0:
290,116,82521,6,0,L|213:131,2,43.8750001673698,2|2|2,0:3|0:3|0:3,0:0:0:0:
170,41,82932,2,0,L|94:35,2,43.8750001673698,2|2|2,0:3|0:3|0:3,0:0:0:0:
47,109,83343,1,2,0:3:0:0:
165,185,83549,1,2,0:3:0:0:
165,185,83651,1,2,0:3:0:0:
165,185,83754,2,0,L|235:175,3,43.8750001673698,2|0|2|0,0:3|0:0|0:3|0:0,0:0:0:0:
165,185,84165,6,0,P|157:240|163:295,1,87.7500003347397,6|0,0:0|0:0,0:0:0:0:
296,242,84576,2,0,P|346:237|411:243,1,87.7500003347397,2|0,0:3|0:0,0:0:0:0:
507,171,84987,2,0,P|444:144|405:116,1,87.7500003347397,2|0,0:0|0:0,0:0:0:0:
314,50,85398,2,0,P|306:100|307:169,1,87.7500003347397,2|0,0:3|0:0,0:0:0:0:
200,231,85809,6,0,L|76:224,1,87.7500003347397,2|0,0:0|0:0,0:0:0:0:
32,110,86220,2,0,L|135:105,1,87.7500003347397,2|0,0:3|0:0,0:0:0:0:
259,94,86631,1,2,0:0:0:0:
257,53,87042,5,2,0:3:0:0:
122,15,87247,1,0,0:0:0:0:
93,182,87453,6,0,B|148:165|148:165|289:177,1,175.500000669479,2|2,0:0|0:3,0:0:0:0:
378,258,88069,1,0,0:0:0:0:
269,347,88275,2,0,L|157:339,1,87.7500003347397,2|0,0:0|0:0,0:0:0:0:
100,218,88686,2,0,L|212:226,1,87.7500003347397,2|0,0:3|0:0,0:0:0:0:
290,129,89096,1,2,0:0:0:0:
321,128,89507,5,2,0:3:0:0:
321,128,89610,1,2,0:3:0:0:
321,128,89713,2,0,L|335:79,2,43.8750001673698,2|2|6,0:3|0:3|0:3,0:0:0:0:
363,262,90124,2,0,L|461:217,2,87.7500003347397,6|6|6,0:3|0:3|0:3,0:0:0:0:
229,308,90740,6,0,P|165:296|76:321,2,131.62500050211,6|0|0,0:0|0:0|0:0,0:0:0:0:
159,186,91562,2,0,P|124:118|128:45,2,131.62500050211,2|0|0,0:0|0:0|0:0,0:0:0:0:
251,95,92384,5,2,0:0:0:0:
14,123,92692,1,0,0:0:0:0:
144,321,93001,1,0,0:0:0:0:
261,242,93206,2,0,P|308:242|384:228,1,87.7500003347397,2|0,0:0|0:0,0:0:0:0:
445,367,93617,2,0,P|401:360|332:360,1,87.7500003347397,2|0,0:3|0:0,0:0:0:0:
217,348,94028,6,0,P|223:276|221:165,1,175.500000669479,2|2,0:0|0:3,0:0:0:0:
205,32,94644,1,0,0:0:0:0:
241,32,95055,5,0,0:0:0:0:
241,32,95261,2,0,P|288:47|361:59,1,87.7500003347397,2|0,0:3|0:0,0:0:0:0:
465,71,95672,6,0,L|488:22,2,43.8750001673698,2|0|0,0:0|0:0|0:0,0:0:0:0:
456,211,96083,1,2,0:3:0:0:
327,155,96288,1,2,0:0:0:0:
327,155,96391,1,0,0:0:0:0:
327,155,96494,2,0,L|264:170,2,43.8750001673698,0|0|2,0:0|0:0|0:3,0:0:0:0:
230,257,96905,1,2,0:0:0:0:
230,257,97007,1,0,0:0:0:0:
230,257,97110,2,0,L|174:242,2,43.8750001673698,0|0|6,0:0|0:0|0:0,0:0:0:0:
230,257,98232,6,0,P|293:254|376:229,1,130,0|0,0:0|0:0,0:0:0:0:
436,62,99227,2,0,L|292:58,1,130,0|0,0:0|0:0,0:0:0:0:
144,72,100245,6,0,P|159:139|157:222,1,130,0|0,0:0|0:0,0:0:0:0:
285,268,101469,2,0,L|288:200,1,65,0|0,0:0|0:0,0:0:0:0:
355,137,102290,6,0,P|391:145|433:144,2,65,0|0|0,0:0|0:0|0:0,0:0:0:0:
330,65,103493,2,0,L|239:62,1,65,0|0,0:0|0:0,0:0:0:0:
