osu file format v12

[General]
AudioFilename: Ayane - Complex Image.mp3
AudioLeadIn: 0
PreviewTime: 63694
Countdown: 0
SampleSet: Normal
StackLeniency: 0.7
Mode: 3
LetterboxInBreaks: 0
SpecialStyle: 1
WidescreenStoryboard: 1

[Editor]
DistanceSpacing: 1.1
BeatDivisor: 8
GridSize: 8

[Metadata]
Title:Complex Image
TitleUnicode:Complex Image
Artist:Ayane
ArtistUnicode:Ayane
Creator:_S u w a k o_
Version:Lv.24
Source:Higurashi no Naku Koro ni Matsuri
Tags:_S_u_w_a_k_o_ victorica_db richardfeder
BeatmapID:352664
BeatmapSetID:141386

[Difficulty]
HPDrainRate:8
CircleSize:7
OverallDifficulty:8
ApproachRate:5
SliderMultiplier:1.4
SliderTickRate:1

[Events]
//Background and Video events
0,0,"higurashi-no-naku-koro-ni-157-wall1200.jpg",0,0
//Break Periods
//Storyboard Layer 0 (Background)
//Storyboard Layer 1 (Fail)
//Storyboard Layer 2 (Pass)
//Storyboard Layer 3 (Foreground)
//Storyboard Sound Samples
Sample,711,0,"����.mp3",85
Sample,711,0,"����.mp3",85
Sample,711,0,"����.mp3",85
Sample,711,0,"����.mp3",85
//Background Colour Transformations
3,100,163,162,255

[TimingPoints]
1067,437.956204379562,4,1,0,35,1,0
34351,-100,4,1,0,35,0,1
41358,-100,4,1,0,35,0,0
48366,-100,4,1,0,35,0,1
55373,-100,4,1,0,35,0,0
64132,-100,4,1,0,35,0,1
77271,-100,4,1,0,35,0,0
78147,-100,4,1,0,35,0,1
78247,-100,4,1,0,35,0,1
85182,-100,4,1,0,35,0,0
92161,-100,4,1,0,35,0,1
106285,-100,4,1,0,35,0,0

[HitObjects]
402,192,1067,1,0,0:0:0:70:crash.wav
475,192,1067,1,0,0:0:0:70:kick1.wav
36,192,1067,1,0,0:0:0:0:
182,192,1067,1,0,0:0:0:0:
256,192,1176,1,0,0:0:0:0:
109,192,1285,1,0,0:0:0:0:
182,192,1395,1,0,0:0:0:0:
36,192,1504,1,0,0:0:0:0:
402,192,1504,1,0,0:0:0:0:
256,192,1614,1,0,0:0:0:0:
109,192,1723,1,0,0:0:0:0:
182,192,1833,1,0,0:0:0:0:
36,192,1942,1,0,0:0:0:0:
256,192,2052,1,0,0:0:0:0:
109,192,2161,1,0,0:0:0:0:
256,192,2271,1,0,0:0:0:0:
402,192,2380,1,0,0:0:0:0:
36,192,2380,1,0,0:0:0:0:
182,192,2490,1,0,0:0:0:0:
329,192,2599,1,0,0:0:0:70:kick1.wav
109,192,2599,1,0,0:0:0:0:
36,192,2709,1,0,0:0:0:0:
109,192,2818,1,0,0:0:0:70:crash.wav
182,192,2818,1,0,0:0:0:70:kick1.wav
329,192,2818,1,0,0:0:0:0:
36,192,2928,1,0,0:0:0:0:
256,192,3037,1,0,0:0:0:0:
109,192,3147,1,0,0:0:0:0:
182,192,3256,1,0,0:0:0:0:
475,192,3256,1,0,0:0:0:0:
36,192,3366,1,0,0:0:0:0:
256,192,3475,1,0,0:0:0:0:
109,192,3585,1,0,0:0:0:0:
36,192,3694,1,0,0:0:0:0:
256,192,3694,1,0,0:0:0:0:
109,192,3804,1,0,0:0:0:0:
329,192,3804,1,0,0:0:0:0:
182,192,3913,1,0,0:0:0:70:kick1.wav
402,192,3913,1,0,0:0:0:0:
256,192,4023,1,0,0:0:0:70:kick1.wav
475,192,4023,1,0,0:0:0:0:
402,192,4132,1,0,0:0:0:70:kick1.wav
329,192,4132,1,0,0:0:0:0:
109,192,4132,1,0,0:0:0:0:
36,192,4132,1,0,0:0:0:0:
329,192,4570,1,0,0:0:0:70:kick1.wav
475,192,4570,1,0,0:0:0:0:
182,192,4570,1,0,0:0:0:0:
36,192,4789,1,0,0:0:0:0:
182,192,5008,1,0,0:0:0:70:kick1.wav
329,192,5008,1,0,0:0:0:0:
402,192,5008,1,0,0:0:0:0:
109,192,5227,1,0,0:0:0:0:
475,192,5227,1,0,0:0:0:0:
402,192,5337,1,0,0:0:0:0:
475,192,5446,1,0,0:0:0:70:kick1.wav
256,192,5446,1,0,0:0:0:0:
182,192,5446,1,0,0:0:0:0:
402,192,5665,1,0,0:0:0:0:
36,192,5665,1,0,0:0:0:0:
109,192,5884,1,0,0:0:0:70:kick1.wav
329,192,5884,1,0,0:0:0:0:
475,192,5884,1,0,0:0:0:0:
256,192,6103,1,0,0:0:0:0:
402,192,6103,1,0,0:0:0:0:
182,192,6322,1,0,0:0:0:70:kick1.wav
475,192,6322,1,0,0:0:0:0:
329,192,6541,1,0,0:0:0:0:
36,192,6541,1,0,0:0:0:0:
109,192,6760,1,0,0:0:0:70:kick1.wav
182,192,6760,1,0,0:0:0:0:
475,192,6760,1,0,0:0:0:0:
402,192,6979,1,0,0:0:0:0:
256,192,6979,1,0,0:0:0:0:
36,192,6979,1,0,0:0:0:0:
329,192,7088,1,0,0:0:0:0:
475,192,7198,1,0,0:0:0:70:kick1.wav
182,192,7198,1,0,0:0:0:0:
402,192,7198,1,0,0:0:0:0:
256,192,7417,1,0,0:0:0:0:
36,192,7417,1,0,0:0:0:0:
480,192,7637,1,0,0:0:0:70:kick1.wav
352,192,7637,1,0,0:0:0:0:
96,192,7637,1,0,0:0:0:0:
416,192,7856,1,0,0:0:0:0:
160,192,7856,1,0,0:0:0:0:
288,192,8075,1,0,0:0:0:70:kick1.wav
96,192,8075,1,0,0:0:0:0:
32,192,8075,1,0,0:0:0:0:
182,192,8294,1,0,0:0:0:0:
329,192,8294,1,0,0:0:0:0:
402,192,8513,1,0,0:0:0:70:kick1.wav
475,192,8513,1,0,0:0:0:0:
160,192,8732,1,0,0:0:0:0:
416,192,8951,1,0,0:0:0:70:kick1.wav
32,192,8951,1,0,0:0:0:0:
96,192,9060,1,0,0:0:0:0:
160,192,9170,1,0,0:0:0:0:
288,192,9279,1,0,0:0:0:0:
480,192,9388,1,0,0:0:0:70:kick1.wav
96,192,9388,1,0,0:0:0:0:
32,192,9388,1,0,0:0:0:0:
416,192,9498,1,0,0:0:0:0:
352,192,9607,1,0,0:0:0:0:
160,192,9717,1,0,0:0:0:0:
416,192,9826,1,0,0:0:0:70:kick1.wav
480,192,9826,1,0,0:0:0:0:
32,192,9826,1,0,0:0:0:0:
288,192,9826,1,0,0:0:0:0:
352,192,10264,1,0,0:0:0:70:kick1.wav
480,192,10264,1,0,0:0:0:0:
96,192,10264,1,0,0:0:0:0:
160,192,10264,1,0,0:0:0:0:
288,192,10702,1,0,0:0:0:70:kick1.wav
416,192,10702,1,0,0:0:0:0:
32,192,10702,1,0,0:0:0:0:
96,192,10702,1,0,0:0:0:0:
352,192,11140,1,0,0:0:0:70:kick1.wav
480,192,11140,1,0,0:0:0:0:
96,192,11140,1,0,0:0:0:0:
160,192,11140,1,0,0:0:0:0:
352,192,11359,1,0,0:0:0:0:
416,192,11578,1,0,0:0:0:70:kick1.wav
288,192,11578,1,0,0:0:0:0:
32,192,11578,1,0,0:0:0:0:
480,192,11797,1,0,0:0:0:0:
352,192,11797,1,0,0:0:0:0:
288,192,12016,1,0,0:0:0:70:kick1.wav
160,192,12016,1,0,0:0:0:0:
96,192,12016,1,0,0:0:0:0:
416,192,12235,1,0,0:0:0:0:
32,192,12235,1,0,0:0:0:0:
96,192,12345,1,0,0:0:0:0:
352,192,12454,1,0,0:0:0:70:kick1.wav
32,192,12454,1,0,0:0:0:0:
480,192,12673,1,0,0:0:0:0:
288,192,12673,1,0,0:0:0:0:
416,192,12892,1,0,0:0:0:70:kick1.wav
160,192,12892,1,0,0:0:0:0:
96,192,12892,1,0,0:0:0:0:
480,192,13111,1,0,0:0:0:0:
32,192,13111,1,0,0:0:0:0:
352,192,13330,1,0,0:0:0:70:kick1.wav
160,192,13330,1,0,0:0:0:0:
480,192,13549,1,0,0:0:0:0:
288,192,13549,1,0,0:0:0:0:
109,192,13767,1,0,0:0:0:70:kick1.wav
352,192,13768,1,0,0:0:0:0:
32,192,13768,1,0,0:0:0:0:
480,192,13987,1,0,0:0:0:0:
288,192,13987,1,0,0:0:0:0:
160,192,14097,1,0,0:0:0:0:
416,192,14206,1,0,0:0:0:70:kick1.wav
288,192,14206,1,0,0:0:0:0:
480,192,14425,1,0,0:0:0:0:
32,192,14425,1,0,0:0:0:0:
352,192,14644,1,0,0:0:0:70:kick1.wav
160,192,14644,1,0,0:0:0:0:
96,192,14644,1,0,0:0:0:0:
480,192,14863,1,0,0:0:0:0:
288,192,14863,1,0,0:0:0:0:
416,192,15082,1,0,0:0:0:70:kick1.wav
32,192,15082,1,0,0:0:0:0:
480,192,15301,1,0,0:0:0:0:
160,192,15301,1,0,0:0:0:0:
352,192,15520,1,0,0:0:0:70:kick1.wav
96,192,15520,1,0,0:0:0:0:
32,192,15520,1,0,0:0:0:0:
480,192,15739,1,0,0:0:0:0:
160,192,15739,1,0,0:0:0:0:
288,192,15958,1,0,0:0:0:70:kick1.wav
32,192,15958,1,0,0:0:0:0:
416,192,16177,1,0,0:0:0:0:
352,192,16177,1,0,0:0:0:0:
96,192,16177,1,0,0:0:0:0:
480,192,16396,1,0,0:0:0:70:kick1.wav
288,192,16396,1,0,0:0:0:0:
160,192,16396,1,0,0:0:0:0:
352,192,16615,1,0,0:0:0:0:
32,192,16615,1,0,0:0:0:0:
416,192,16834,1,0,0:0:0:70:kick1.wav
480,192,16834,1,0,0:0:0:70:crash.wav
96,192,16834,1,0,0:0:0:0:
160,192,16834,1,0,0:0:0:0:
288,192,17053,1,0,0:0:0:0:
352,192,17272,1,0,0:0:0:70:kick1.wav
416,192,17272,1,0,0:0:0:70:crash.wav
32,192,17272,1,0,0:0:0:0:
96,192,17272,1,0,0:0:0:0:
416,192,17491,1,0,0:0:0:0:
352,192,17491,1,0,0:0:0:0:
480,192,17710,128,0,18038:0:0:0:70:kick1.wav
288,192,17710,1,0,0:0:0:70:crash.wav
32,192,17710,1,0,0:0:0:0:
416,192,18148,1,0,0:0:0:70:kick1.wav
96,192,18148,1,0,0:0:0:70:crash.wav
352,192,18257,1,0,0:0:0:0:
160,192,18367,1,0,0:0:0:0:
109,192,18476,1,0,0:0:0:0:
402,192,18586,1,0,0:0:0:0:
475,192,18695,1,0,0:0:0:0:
329,192,18805,1,0,0:0:0:0:
402,192,18914,1,0,0:0:0:0:
256,192,19024,1,0,0:0:0:0:
329,192,19133,1,0,0:0:0:0:
182,192,19243,1,0,0:0:0:0:
256,192,19352,1,0,0:0:0:0:
109,192,19461,1,0,0:0:0:0:
182,192,19571,1,0,0:0:0:0:
36,192,19680,1,0,0:0:0:0:
109,192,19790,1,0,0:0:0:0:
480,192,19899,1,0,0:0:0:0:
288,192,19899,1,0,0:0:0:0:
32,192,19899,1,0,0:0:0:0:
96,192,20228,1,0,0:0:0:0:
416,192,20337,1,0,0:0:0:70:kick1.wav
32,192,20337,1,0,0:0:0:70:crash.wav
288,192,20556,1,0,0:0:0:0:
416,192,20775,1,0,0:0:0:70:kick1.wav
96,192,20775,1,0,0:0:0:0:
32,192,20775,1,0,0:0:0:0:
288,192,20885,1,0,0:0:0:0:
480,192,21213,1,0,0:0:0:70:kick1.wav
32,192,21213,1,0,0:0:0:0:
352,192,21542,1,0,0:0:0:0:
96,192,21651,1,0,0:0:0:70:kick1.wav
32,192,21651,1,0,0:0:0:0:
416,192,21870,1,0,0:0:0:0:
160,192,22089,1,0,0:0:0:70:kick1.wav
32,192,22089,1,0,0:0:0:0:
352,192,22308,1,0,0:0:0:0:
416,192,22527,1,0,0:0:0:70:kick1.wav
96,192,22527,1,0,0:0:0:0:
32,192,22527,1,0,0:0:0:0:
352,192,22637,1,0,0:0:0:0:
160,192,22637,1,0,0:0:0:0:
416,192,22746,1,0,0:0:0:0:
352,192,22856,1,0,0:0:0:0:
480,192,22965,1,0,0:0:0:70:kick1.wav
32,192,22965,1,0,0:0:0:0:
96,192,23075,1,0,0:0:0:0:
160,192,23184,1,0,0:0:0:0:
480,192,23294,1,0,0:0:0:0:
288,192,23294,1,0,0:0:0:0:
416,192,23403,1,0,0:0:0:70:kick1.wav
160,192,23403,1,0,0:0:0:0:
32,192,23403,1,0,0:0:0:0:
480,192,23622,1,0,0:0:0:0:
288,192,23841,1,0,0:0:0:70:kick1.wav
32,192,23841,1,0,0:0:0:0:
480,192,24060,1,0,0:0:0:0:
288,192,24279,1,0,0:0:0:70:kick1.wav
96,192,24279,1,0,0:0:0:0:
32,192,24279,1,0,0:0:0:0:
352,192,24388,1,0,0:0:0:0:
416,192,24717,1,0,0:0:0:70:kick1.wav
32,192,24717,1,0,0:0:0:0:
352,192,24936,1,0,0:0:0:0:
480,192,25045,1,0,0:0:0:0:
288,192,25155,1,0,0:0:0:70:kick1.wav
96,192,25155,1,0,0:0:0:0:
32,192,25155,1,0,0:0:0:0:
416,192,25374,1,0,0:0:0:0:
352,192,25593,1,0,0:0:0:70:kick1.wav
160,192,25593,1,0,0:0:0:0:
32,192,25593,1,0,0:0:0:0:
96,192,26031,1,0,0:0:0:70:kick1.wav
32,192,26031,1,0,0:0:0:0:
416,192,26250,1,0,0:0:0:0:
160,192,26250,1,0,0:0:0:0:
480,192,26469,1,0,0:0:0:70:kick1.wav
32,192,26469,1,0,0:0:0:0:
288,192,26907,1,0,0:0:0:70:kick1.wav
416,192,26907,1,0,0:0:0:0:
32,192,26907,1,0,0:0:0:0:
96,192,26907,1,0,0:0:0:0:
32,192,27126,1,0,0:0:0:70:kick1.wav
480,192,27345,1,0,0:0:0:70:crash.wav
96,192,27345,1,0,0:0:0:70:kick1.wav
32,192,27345,1,0,0:0:0:0:
288,192,27564,1,0,0:0:0:0:
480,192,27783,1,0,0:0:0:70:kick1.wav
416,192,27783,1,0,0:0:0:0:
96,192,27783,1,0,0:0:0:0:
288,192,27892,1,0,0:0:0:0:
480,192,28221,1,0,0:0:0:70:kick1.wav
32,192,28221,1,0,0:0:0:0:
160,192,28549,1,0,0:0:0:0:
480,192,28659,1,0,0:0:0:70:kick1.wav
416,192,28659,1,0,0:0:0:0:
96,192,28878,1,0,0:0:0:0:
480,192,29097,1,0,0:0:0:70:kick1.wav
352,192,29097,1,0,0:0:0:0:
160,192,29316,1,0,0:0:0:0:
480,192,29534,1,0,0:0:0:70:kick1.wav
416,192,29534,1,0,0:0:0:0:
96,192,29534,1,0,0:0:0:0:
352,192,29644,1,0,0:0:0:0:
160,192,29644,1,0,0:0:0:0:
96,192,29753,1,0,0:0:0:0:
160,192,29863,1,0,0:0:0:0:
480,192,29972,1,0,0:0:0:70:kick1.wav
32,192,29972,1,0,0:0:0:0:
416,192,30082,1,0,0:0:0:0:
352,192,30191,1,0,0:0:0:0:
288,192,30301,1,0,0:0:0:0:
32,192,30301,1,0,0:0:0:0:
480,192,30410,1,0,0:0:0:70:kick1.wav
352,192,30410,1,0,0:0:0:0:
96,192,30410,1,0,0:0:0:0:
32,192,30629,1,0,0:0:0:0:
480,192,30848,1,0,0:0:0:70:kick1.wav
288,192,30848,1,0,0:0:0:0:
32,192,31067,1,0,0:0:0:0:
480,192,31286,1,0,0:0:0:70:kick1.wav
416,192,31286,1,0,0:0:0:0:
288,192,31286,1,0,0:0:0:0:
160,192,31396,1,0,0:0:0:0:
480,192,31724,1,0,0:0:0:70:kick1.wav
96,192,31724,1,0,0:0:0:0:
160,192,31943,1,0,0:0:0:0:
32,192,32053,1,0,0:0:0:0:
480,192,32162,1,0,0:0:0:70:kick1.wav
416,192,32162,128,0,32600:0:0:0:0:
288,192,32162,1,0,0:0:0:0:
352,192,32162,1,0,0:0:0:0:
182,192,32381,1,0,0:0:0:0:
32,192,32600,128,0,34352:0:0:0:70:kick1.wav
109,192,32600,1,0,0:0:0:0:
352,192,32600,1,0,0:0:0:0:
480,192,32600,1,0,0:0:0:0:
288,192,32819,1,0,0:0:0:0:
160,192,33038,1,0,0:0:0:70:kick1.wav
352,192,33148,1,0,0:0:0:0:
480,192,33257,1,0,0:0:0:0:
288,192,33476,1,0,0:0:0:0:
96,192,33476,1,0,0:0:0:0:
416,192,33586,1,0,0:0:0:0:
160,192,33586,1,0,0:0:0:0:
256,192,33694,1,0,0:0:0:0:
352,192,33805,1,0,0:0:0:0:
160,192,33805,1,0,0:0:0:0:
480,192,33914,1,0,0:0:0:0:
416,192,33914,1,0,0:0:0:0:
96,192,33914,1,0,0:0:0:0:
160,192,34024,1,0,0:0:0:0:
288,192,34133,1,0,0:0:0:0:
96,192,34133,1,0,0:0:0:0:
480,192,34243,1,0,0:0:0:0:
160,192,34243,1,0,0:0:0:0:
416,192,34352,1,0,0:0:0:70:crash.wav
352,192,34352,1,0,0:0:0:70:kick1.wav
96,192,34352,1,0,0:0:0:0:
480,192,34461,1,0,0:0:0:0:
416,192,34571,1,0,0:0:0:0:
352,192,34680,1,0,0:0:0:0:
288,192,34790,1,0,0:0:0:70:kick1.wav
96,192,34790,1,0,0:0:0:0:
32,192,34790,1,0,0:0:0:0:
160,192,34899,1,0,0:0:0:0:
288,192,35009,1,0,0:0:0:0:
352,192,35118,1,0,0:0:0:0:
416,192,35228,1,0,0:0:0:70:kick1.wav
96,192,35228,1,0,0:0:0:0:
352,192,35337,1,0,0:0:0:0:
288,192,35447,1,0,0:0:0:0:
160,192,35556,1,0,0:0:0:0:
109,192,35666,1,0,0:0:0:70:kick1.wav
480,192,35666,1,0,0:0:0:0:
416,192,35666,1,0,0:0:0:0:
36,192,35775,1,0,0:0:0:0:
109,192,35885,1,0,0:0:0:0:
182,192,35994,1,0,0:0:0:0:
256,192,36104,1,0,0:0:0:70:kick1.wav
416,192,36104,1,0,0:0:0:0:
182,192,36213,1,0,0:0:0:0:
256,192,36323,1,0,0:0:0:0:
329,192,36432,1,0,0:0:0:0:
402,192,36542,1,0,0:0:0:70:kick1.wav
96,192,36542,1,0,0:0:0:0:
32,192,36542,1,0,0:0:0:0:
480,192,36651,1,0,0:0:0:0:
416,192,36761,1,0,0:0:0:0:
352,192,36870,1,0,0:0:0:0:
416,192,36980,1,0,0:0:0:70:kick1.wav
160,192,36980,1,0,0:0:0:0:
109,192,37088,1,0,0:0:0:0:
288,192,37199,1,0,0:0:0:0:
352,192,37308,1,0,0:0:0:0:
416,192,37418,1,0,0:0:0:70:kick1.wav
96,192,37418,1,0,0:0:0:0:
32,192,37418,1,0,0:0:0:0:
352,192,37527,1,0,0:0:0:0:
288,192,37637,1,0,0:0:0:0:
160,192,37746,1,0,0:0:0:0:
480,192,37856,1,0,0:0:0:70:kick1.wav
96,192,37856,1,0,0:0:0:0:
160,192,37965,1,0,0:0:0:0:
288,192,38075,1,0,0:0:0:0:
352,192,38184,1,0,0:0:0:0:
480,192,38294,1,0,0:0:0:70:kick1.wav
416,192,38294,1,0,0:0:0:0:
288,192,38294,1,0,0:0:0:0:
32,192,38403,1,0,0:0:0:0:
96,192,38513,1,0,0:0:0:0:
160,192,38622,1,0,0:0:0:0:
416,192,38732,1,0,0:0:0:70:kick1.wav
32,192,38732,1,0,0:0:0:0:
352,192,38841,1,0,0:0:0:0:
288,192,38951,1,0,0:0:0:0:
160,192,39060,1,0,0:0:0:0:
288,192,39170,1,0,0:0:0:70:kick1.wav
96,192,39170,1,0,0:0:0:0:
32,192,39170,1,0,0:0:0:0:
352,192,39279,1,0,0:0:0:0:
416,192,39388,1,0,0:0:0:0:
480,192,39498,1,0,0:0:0:0:
416,192,39607,1,0,0:0:0:70:kick1.wav
32,192,39607,1,0,0:0:0:0:
352,192,39717,1,0,0:0:0:0:
288,192,39826,1,0,0:0:0:0:
352,192,39936,1,0,0:0:0:0:
416,192,40045,1,0,0:0:0:70:kick1.wav
96,192,40045,1,0,0:0:0:0:
32,192,40045,1,0,0:0:0:0:
480,192,40155,1,0,0:0:0:0:
160,192,40264,1,0,0:0:0:0:
96,192,40374,1,0,0:0:0:0:
480,192,40483,1,0,0:0:0:70:kick1.wav
32,192,40483,1,0,0:0:0:0:
96,192,40593,1,0,0:0:0:0:
160,192,40702,1,0,0:0:0:0:
288,192,40812,1,0,0:0:0:0:
352,192,40921,1,0,0:0:0:70:kick1.wav
480,192,40921,1,0,0:0:0:0:
32,192,40921,1,0,0:0:0:0:
96,192,40921,1,0,0:0:0:0:
416,192,41031,1,0,0:0:0:0:
182,192,41139,1,0,0:0:0:70:kick1.wav
352,192,41140,1,0,0:0:0:0:
288,192,41250,1,0,0:0:0:0:
416,192,41359,1,0,0:0:0:70:kick1.wav
480,192,41359,1,0,0:0:0:70:crash.wav
96,192,41359,1,0,0:0:0:0:
160,192,41359,1,0,0:0:0:0:
36,192,41578,1,0,0:0:0:0:
256,192,41578,1,0,0:0:0:0:
109,192,41797,1,0,0:0:0:70:kick1.wav
416,192,41797,1,0,0:0:0:0:
352,192,41797,1,0,0:0:0:0:
256,192,42016,1,0,0:0:0:0:
182,192,42016,1,0,0:0:0:0:
480,192,42235,1,0,0:0:0:70:kick1.wav
96,192,42235,1,0,0:0:0:0:
256,192,42454,1,0,0:0:0:0:
402,192,42454,1,0,0:0:0:0:
480,192,42673,1,0,0:0:0:70:kick1.wav
352,192,42673,1,0,0:0:0:0:
96,192,42673,1,0,0:0:0:0:
36,192,42892,1,0,0:0:0:0:
256,192,42892,1,0,0:0:0:0:
480,192,43111,1,0,0:0:0:70:kick1.wav
160,192,43111,1,0,0:0:0:0:
416,192,43330,1,0,0:0:0:0:
32,192,43330,1,0,0:0:0:0:
480,192,43549,1,0,0:0:0:70:kick1.wav
352,192,43549,1,0,0:0:0:0:
160,192,43549,1,0,0:0:0:0:
416,192,43768,1,0,0:0:0:0:
32,192,43768,1,0,0:0:0:0:
182,192,43986,1,0,0:0:0:70:kick1.wav
288,192,43987,1,0,0:0:0:0:
352,192,44206,1,0,0:0:0:0:
96,192,44206,1,0,0:0:0:0:
480,192,44425,1,0,0:0:0:70:kick1.wav
416,192,44425,1,0,0:0:0:0:
288,192,44425,1,0,0:0:0:0:
352,192,44644,1,0,0:0:0:0:
96,192,44644,1,0,0:0:0:0:
480,192,44863,1,0,0:0:0:70:kick1.wav
288,192,44863,1,0,0:0:0:0:
416,192,45082,1,0,0:0:0:0:
160,192,45082,1,0,0:0:0:0:
352,192,45301,1,0,0:0:0:70:kick1.wav
288,192,45301,1,0,0:0:0:0:
32,192,45301,1,0,0:0:0:0:
480,192,45520,1,0,0:0:0:0:
96,192,45520,1,0,0:0:0:0:
352,192,45629,1,0,0:0:0:0:
416,192,45739,1,0,0:0:0:70:kick1.wav
160,192,45739,1,0,0:0:0:0:
480,192,45848,1,0,0:0:0:0:
288,192,45958,1,0,0:0:0:0:
32,192,45958,1,0,0:0:0:0:
416,192,46177,1,0,0:0:0:70:kick1.wav
160,192,46177,1,0,0:0:0:0:
96,192,46177,1,0,0:0:0:0:
480,192,46396,1,0,0:0:0:0:
288,192,46396,1,0,0:0:0:0:
480,192,46615,1,0,0:0:0:70:kick1.wav
352,192,46615,1,0,0:0:0:0:
32,192,46615,1,0,0:0:0:0:
288,192,46834,1,0,0:0:0:0:
160,192,47053,1,0,0:0:0:70:kick1.wav
96,192,47053,1,0,0:0:0:0:
288,192,47272,1,0,0:0:0:0:
416,192,47491,1,0,0:0:0:70:kick1.wav
352,192,47491,1,0,0:0:0:0:
32,192,47491,1,0,0:0:0:0:
109,192,47709,1,0,0:0:0:70:kick1.wav
352,192,47710,1,0,0:0:0:0:
416,192,47929,1,0,0:0:0:70:kick1.wav
352,192,47929,1,0,0:0:0:0:
96,192,47929,1,0,0:0:0:0:
352,192,48148,1,0,0:0:0:70:kick1.wav
352,192,48257,1,0,0:0:0:70:kick1.wav
480,192,48367,1,0,0:0:0:70:crash.wav
32,192,48367,1,0,0:0:0:70:kick1.wav
96,192,48476,1,0,0:0:0:0:
160,192,48586,1,0,0:0:0:0:
32,192,48695,1,0,0:0:0:0:
480,192,48805,1,0,0:0:0:70:kick1.wav
352,192,48805,1,0,0:0:0:0:
96,192,48805,1,0,0:0:0:0:
160,192,48914,1,0,0:0:0:0:
32,192,49024,1,0,0:0:0:0:
96,192,49133,1,0,0:0:0:0:
480,192,49243,1,0,0:0:0:70:kick1.wav
160,192,49243,1,0,0:0:0:0:
32,192,49352,1,0,0:0:0:0:
96,192,49461,1,0,0:0:0:0:
160,192,49571,1,0,0:0:0:0:
352,192,49680,1,0,0:0:0:70:kick1.wav
480,192,49680,1,0,0:0:0:0:
32,192,49680,1,0,0:0:0:0:
288,192,49680,1,0,0:0:0:0:
160,192,49790,1,0,0:0:0:0:
96,192,49899,1,0,0:0:0:0:
160,192,50009,1,0,0:0:0:0:
256,192,50118,1,0,0:0:0:70:kick1.wav
480,192,50118,1,0,0:0:0:0:
182,192,50228,1,0,0:0:0:0:
256,192,50337,1,0,0:0:0:0:
182,192,50447,1,0,0:0:0:0:
416,192,50556,1,0,0:0:0:70:kick1.wav
480,192,50556,1,0,0:0:0:0:
96,192,50556,1,0,0:0:0:0:
288,192,50556,1,0,0:0:0:0:
160,192,50666,1,0,0:0:0:0:
256,192,50775,1,0,0:0:0:0:
329,192,50885,1,0,0:0:0:0:
109,192,50994,1,0,0:0:0:70:kick1.wav
256,192,50994,1,0,0:0:0:0:
480,192,50994,1,0,0:0:0:0:
182,192,51104,1,0,0:0:0:0:
256,192,51213,1,0,0:0:0:0:
329,192,51323,1,0,0:0:0:0:
256,192,51432,1,0,0:0:0:70:kick1.wav
36,192,51432,1,0,0:0:0:0:
416,192,51432,1,0,0:0:0:0:
480,192,51432,1,0,0:0:0:0:
182,192,51542,1,0,0:0:0:0:
109,192,51651,1,0,0:0:0:0:
182,192,51761,1,0,0:0:0:0:
256,192,51870,1,0,0:0:0:70:kick1.wav
352,192,51870,1,0,0:0:0:0:
416,192,51980,1,0,0:0:0:0:
480,192,52089,1,0,0:0:0:0:
352,192,52199,1,0,0:0:0:0:
416,192,52308,1,0,0:0:0:70:kick1.wav
96,192,52308,1,0,0:0:0:0:
32,192,52308,1,0,0:0:0:0:
480,192,52418,1,0,0:0:0:0:
352,192,52527,1,0,0:0:0:0:
416,192,52637,1,0,0:0:0:0:
480,192,52746,1,0,0:0:0:70:kick1.wav
32,192,52746,1,0,0:0:0:0:
352,192,52856,1,0,0:0:0:0:
416,192,52965,1,0,0:0:0:0:
480,192,53075,1,0,0:0:0:0:
288,192,53184,1,0,0:0:0:70:kick1.wav
352,192,53184,1,0,0:0:0:0:
32,192,53184,1,0,0:0:0:0:
96,192,53184,1,0,0:0:0:0:
480,192,53294,1,0,0:0:0:0:
416,192,53403,1,0,0:0:0:0:
480,192,53513,1,0,0:0:0:0:
352,192,53622,1,0,0:0:0:70:kick1.wav
32,192,53622,1,0,0:0:0:0:
416,192,53732,1,0,0:0:0:0:
480,192,53841,1,0,0:0:0:0:
352,192,53951,1,0,0:0:0:0:
288,192,54060,1,0,0:0:0:70:kick1.wav
416,192,54060,1,0,0:0:0:0:
32,192,54060,1,0,0:0:0:0:
160,192,54060,1,0,0:0:0:0:
480,192,54170,1,0,0:0:0:0:
416,192,54279,1,0,0:0:0:0:
352,192,54388,1,0,0:0:0:0:
480,192,54498,1,0,0:0:0:70:kick1.wav
32,192,54498,1,0,0:0:0:0:
416,192,54607,1,0,0:0:0:0:
352,192,54717,1,0,0:0:0:0:
288,192,54826,1,0,0:0:0:0:
480,192,54936,1,0,0:0:0:70:kick1.wav
160,192,54936,1,0,0:0:0:0:
32,192,54936,1,0,0:0:0:0:
416,192,55045,1,0,0:0:0:0:
352,192,55155,1,0,0:0:0:70:kick1.wav
32,192,55155,1,0,0:0:0:0:
416,192,55264,1,0,0:0:0:0:
475,192,55374,128,0,57126:0:0:0:70:kick1.wav
256,192,55374,128,0,57126:0:0:0:0:
32,192,55374,1,0,0:0:0:0:
416,192,55593,1,0,0:0:0:0:
96,192,55812,1,0,0:0:0:70:kick1.wav
32,192,55812,1,0,0:0:0:0:
352,192,56031,1,0,0:0:0:0:
32,192,56250,1,0,0:0:0:70:kick1.wav
416,192,56469,1,0,0:0:0:0:
96,192,56688,1,0,0:0:0:70:kick1.wav
32,192,56688,1,0,0:0:0:0:
352,192,56907,1,0,0:0:0:0:
402,192,57126,128,0,58878:0:0:0:70:kick1.wav
182,192,57126,128,0,58878:0:0:0:0:
32,192,57126,1,0,0:0:0:0:
480,192,57345,1,0,0:0:0:0:
96,192,57564,1,0,0:0:0:70:kick1.wav
32,192,57564,1,0,0:0:0:0:
352,192,57783,1,0,0:0:0:0:
36,192,58001,1,0,0:0:0:70:kick1.wav
480,192,58221,1,0,0:0:0:0:
109,192,58439,1,0,0:0:0:70:kick1.wav
32,192,58440,1,0,0:0:0:0:
352,192,58659,1,0,0:0:0:0:
288,192,58878,1,0,0:0:0:70:kick1.wav
96,192,58878,1,0,0:0:0:70:crash.wav
475,192,59097,1,0,0:0:0:70:kick1.wav
256,192,59097,1,0,0:0:0:0:
416,192,59097,1,0,0:0:0:0:
329,192,59316,1,0,0:0:0:70:kick1.wav
36,192,59316,1,0,0:0:0:0:
109,192,59316,1,0,0:0:0:0:
182,192,59535,1,0,0:0:0:70:kick1.wav
475,192,59535,1,0,0:0:0:0:
402,192,59535,1,0,0:0:0:0:
329,192,59754,1,0,0:0:0:70:kick1.wav
256,192,59754,1,0,0:0:0:0:
109,192,59754,1,0,0:0:0:0:
329,192,59972,1,0,0:0:0:70:kick1.wav
36,192,59972,1,0,0:0:0:0:
416,192,59972,1,0,0:0:0:0:
475,192,60191,1,0,0:0:0:70:kick1.wav
182,192,60191,1,0,0:0:0:0:
96,192,60191,1,0,0:0:0:0:
416,192,60410,1,0,0:0:0:70:kick1.wav
32,192,60629,1,0,0:0:0:70:kick1.wav
256,192,60629,128,0,61504:0:0:0:0:
96,192,60739,1,0,0:0:0:70:kick1.wav
160,192,60848,1,0,0:0:0:70:kick1.wav
96,192,60958,1,0,0:0:0:70:kick1.wav
480,192,61067,1,0,0:0:0:70:kick1.wav
416,192,61177,1,0,0:0:0:70:kick1.wav
352,192,61286,1,0,0:0:0:70:kick1.wav
416,192,61396,1,0,0:0:0:70:kick1.wav
32,192,61505,1,0,0:0:0:70:kick1.wav
109,192,61577,1,0,0:0:0:70:kick1.wav
182,192,61650,1,0,0:0:0:70:kick1.wav
256,192,61723,1,0,0:0:0:70:kick1.wav
329,192,61796,1,0,0:0:0:70:kick1.wav
402,192,61869,1,0,0:0:0:70:kick1.wav
475,192,61942,1,0,0:0:0:70:kick1.wav
402,192,61997,1,0,0:0:0:70:kick1.wav
329,192,62052,1,0,0:0:0:70:kick1.wav
256,192,62107,1,0,0:0:0:70:kick1.wav
182,192,62161,1,0,0:0:0:70:kick1.wav
109,192,62216,1,0,0:0:0:70:kick1.wav
182,192,62271,1,0,0:0:0:70:kick1.wav
256,192,62326,1,0,0:0:0:70:kick1.wav
329,192,62380,1,0,0:0:0:70:kick1.wav
402,192,62380,1,0,0:0:0:0:
109,192,62380,1,0,0:0:0:0:
32,192,62381,128,0,63695:0:0:0:0:
480,192,62381,128,0,63695:0:0:0:0:
182,192,63694,1,0,0:0:0:70:crash.wav
256,192,63694,1,0,0:0:0:0:
329,192,63694,1,0,0:0:0:0:
480,192,64133,1,0,0:0:0:70:kick1.wav
32,192,64133,1,0,0:0:0:0:
352,192,64352,1,0,0:0:0:0:
416,192,64461,1,0,0:0:0:0:
160,192,64571,1,0,0:0:0:70:kick1.wav
96,192,64571,1,0,0:0:0:0:
32,192,64571,1,0,0:0:0:0:
352,192,64790,1,0,0:0:0:0:
480,192,64899,1,0,0:0:0:0:
288,192,65009,1,0,0:0:0:70:kick1.wav
32,192,65009,1,0,0:0:0:0:
416,192,65228,1,0,0:0:0:0:
352,192,65337,1,0,0:0:0:0:
480,192,65447,1,0,0:0:0:70:kick1.wav
96,192,65447,1,0,0:0:0:0:
32,192,65447,1,0,0:0:0:0:
288,192,65666,1,0,0:0:0:0:
352,192,65775,1,0,0:0:0:0:
480,192,65885,1,0,0:0:0:70:kick1.wav
32,192,65885,1,0,0:0:0:0:
352,192,66104,1,0,0:0:0:0:
416,192,66213,1,0,0:0:0:0:
160,192,66323,1,0,0:0:0:70:kick1.wav
96,192,66323,1,0,0:0:0:0:
32,192,66323,1,0,0:0:0:0:
352,192,66542,1,0,0:0:0:0:
480,192,66651,1,0,0:0:0:0:
160,192,66761,128,0,67418:0:0:0:70:kick1.wav
288,192,66761,1,0,0:0:0:0:
32,192,66761,1,0,0:0:0:0:
416,192,66980,1,0,0:0:0:0:
352,192,67089,1,0,0:0:0:0:
480,192,67199,1,0,0:0:0:70:kick1.wav
96,192,67199,1,0,0:0:0:0:
32,192,67199,1,0,0:0:0:0:
288,192,67418,1,0,0:0:0:0:
352,192,67527,1,0,0:0:0:0:
480,192,67637,1,0,0:0:0:70:kick1.wav
416,192,67637,1,0,0:0:0:0:
32,192,67637,1,0,0:0:0:0:
288,192,67856,1,0,0:0:0:0:
480,192,67965,1,0,0:0:0:0:
160,192,68075,1,0,0:0:0:70:kick1.wav
96,192,68075,1,0,0:0:0:0:
352,192,68184,1,0,0:0:0:0:
288,192,68294,1,0,0:0:0:0:
416,192,68403,1,0,0:0:0:0:
480,192,68513,1,0,0:0:0:70:kick1.wav
160,192,68513,1,0,0:0:0:0:
32,192,68513,1,0,0:0:0:0:
96,192,68732,1,0,0:0:0:0:
352,192,68841,1,0,0:0:0:0:
288,192,68951,1,0,0:0:0:70:kick1.wav
96,192,68951,1,0,0:0:0:0:
32,192,68951,1,0,0:0:0:0:
416,192,69060,1,0,0:0:0:0:
160,192,69170,1,0,0:0:0:0:
288,192,69279,1,0,0:0:0:0:
416,192,69388,1,0,0:0:0:70:kick1.wav
480,192,69388,1,0,0:0:0:0:
32,192,69388,1,0,0:0:0:0:
160,192,69388,1,0,0:0:0:0:
288,192,69498,1,0,0:0:0:0:
96,192,69498,1,0,0:0:0:0:
352,192,69607,1,0,0:0:0:0:
160,192,69607,1,0,0:0:0:0:
480,192,69826,1,0,0:0:0:70:kick1.wav
160,192,69826,1,0,0:0:0:0:
32,192,69826,1,0,0:0:0:0:
416,192,69936,1,0,0:0:0:0:
352,192,70045,1,0,0:0:0:0:
480,192,70264,1,0,0:0:0:70:kick1.wav
32,192,70264,1,0,0:0:0:0:
182,192,70264,128,0,71139:0:0:0:0:
288,192,70374,1,0,0:0:0:0:
352,192,70483,1,0,0:0:0:0:
96,192,70483,1,0,0:0:0:0:
416,192,70593,1,0,0:0:0:0:
288,192,70702,1,0,0:0:0:70:kick1.wav
480,192,70702,1,0,0:0:0:0:
32,192,70702,1,0,0:0:0:0:
416,192,70812,1,0,0:0:0:0:
352,192,70921,1,0,0:0:0:70:kick1.wav
32,192,70921,1,0,0:0:0:0:
288,192,71031,1,0,0:0:0:70:kick1.wav
480,192,71140,1,0,0:0:0:70:kick1.wav
416,192,71140,128,0,72892:0:0:0:0:
32,192,71140,1,0,0:0:0:0:
96,192,71140,1,0,0:0:0:0:
160,192,71578,1,0,0:0:0:70:kick1.wav
96,192,71578,1,0,0:0:0:0:
96,192,72016,1,0,0:0:0:70:kick1.wav
160,192,72454,1,0,0:0:0:70:kick1.wav
96,192,72454,1,0,0:0:0:0:
32,192,72892,128,0,73768:0:0:0:70:kick1.wav
288,192,72892,1,0,0:0:0:0:
416,192,73330,1,0,0:0:0:70:kick1.wav
288,192,73330,1,0,0:0:0:0:
352,192,73768,128,0,74206:0:0:0:70:kick1.wav
288,192,73768,1,0,0:0:0:0:
480,192,74206,128,0,74644:0:0:0:70:kick1.wav
416,192,74206,1,0,0:0:0:0:
288,192,74206,1,0,0:0:0:0:
160,192,74644,128,0,76396:0:0:0:70:kick1.wav
96,192,74644,1,0,0:0:0:0:
480,192,74863,1,0,0:0:0:0:
352,192,74972,1,0,0:0:0:0:
402,192,75081,1,0,0:0:0:70:kick1.wav
475,192,75081,1,0,0:0:0:0:
32,192,75301,1,0,0:0:0:0:
352,192,75520,1,0,0:0:0:70:kick1.wav
96,192,75520,1,0,0:0:0:0:
475,192,75738,1,0,0:0:0:0:
288,192,75848,1,0,0:0:0:0:
416,192,75958,1,0,0:0:0:70:kick1.wav
352,192,75958,1,0,0:0:0:0:
109,192,76176,1,0,0:0:0:0:
416,192,76396,1,0,0:0:0:70:crash.wav
480,192,76396,1,0,0:0:0:70:kick1.wav
32,192,76396,1,0,0:0:0:0:
288,192,76396,1,0,0:0:0:0:
288,192,76834,1,0,0:0:0:70:kick1.wav
480,192,76834,1,0,0:0:0:70:crash.wav
32,192,76834,1,0,0:0:0:0:
96,192,76834,1,0,0:0:0:0:
416,192,77272,1,0,0:0:0:70:kick1.wav
480,192,77272,1,0,0:0:0:70:crash.wav
32,192,77272,1,0,0:0:0:0:
288,192,77272,1,0,0:0:0:0:
416,192,77491,1,0,0:0:0:0:
480,192,77710,1,0,0:0:0:70:crash.wav
288,192,77710,1,0,0:0:0:70:kick1.wav
96,192,77710,1,0,0:0:0:0:
352,192,77929,1,0,0:0:0:70:kick1.wav
160,192,78038,1,0,0:0:0:70:kick1.wav
329,192,78147,1,0,0:0:0:70:kick1.wav
32,192,78148,1,0,0:0:0:0:
96,192,78257,1,0,0:0:0:0:
416,192,78367,1,0,0:0:0:0:
480,192,78476,1,0,0:0:0:0:
256,192,78585,128,0,79023:0:0:0:70:kick1.wav
352,192,78586,1,0,0:0:0:0:
32,192,78586,1,0,0:0:0:0:
160,192,78695,1,0,0:0:0:0:
416,192,78805,1,0,0:0:0:0:
480,192,78914,1,0,0:0:0:0:
402,192,79023,1,0,0:0:0:70:kick1.wav
96,192,79024,1,0,0:0:0:0:
160,192,79133,1,0,0:0:0:0:
352,192,79243,1,0,0:0:0:0:
480,192,79352,1,0,0:0:0:0:
288,192,79461,128,0,79899:0:0:0:70:kick1.wav
416,192,79461,1,0,0:0:0:0:
32,192,79461,1,0,0:0:0:0:
160,192,79571,1,0,0:0:0:0:
352,192,79680,1,0,0:0:0:0:
480,192,79790,1,0,0:0:0:0:
32,192,79899,1,0,0:0:0:70:kick1.wav
402,192,79899,1,0,0:0:0:0:
96,192,80009,1,0,0:0:0:0:
352,192,80118,1,0,0:0:0:0:
416,192,80228,1,0,0:0:0:0:
256,192,80337,128,0,80775:0:0:0:70:kick1.wav
352,192,80337,1,0,0:0:0:0:
32,192,80337,1,0,0:0:0:0:
160,192,80447,1,0,0:0:0:0:
416,192,80556,1,0,0:0:0:0:
480,192,80666,1,0,0:0:0:0:
96,192,80775,1,0,0:0:0:70:kick1.wav
329,192,80775,1,0,0:0:0:0:
160,192,80885,1,0,0:0:0:0:
352,192,80994,1,0,0:0:0:0:
480,192,81104,1,0,0:0:0:0:
256,192,81212,128,0,81650:0:0:0:70:kick1.wav
416,192,81213,1,0,0:0:0:0:
32,192,81213,1,0,0:0:0:0:
96,192,81323,1,0,0:0:0:0:
352,192,81432,1,0,0:0:0:0:
480,192,81542,1,0,0:0:0:0:
402,192,81650,1,0,0:0:0:70:kick1.wav
32,192,81651,1,0,0:0:0:0:
160,192,81761,1,0,0:0:0:0:
416,192,81870,1,0,0:0:0:0:
288,192,81980,1,0,0:0:0:0:
352,192,82089,1,0,0:0:0:70:kick1.wav
32,192,82089,1,0,0:0:0:0:
160,192,82199,1,0,0:0:0:0:
288,192,82308,1,0,0:0:0:0:
96,192,82418,1,0,0:0:0:0:
352,192,82527,1,0,0:0:0:70:kick1.wav
32,192,82527,1,0,0:0:0:0:
480,192,82637,1,0,0:0:0:0:
416,192,82746,1,0,0:0:0:0:
160,192,82856,1,0,0:0:0:0:
352,192,82965,1,0,0:0:0:70:kick1.wav
96,192,82965,1,0,0:0:0:0:
160,192,83075,1,0,0:0:0:0:
416,192,83184,1,0,0:0:0:0:
288,192,83294,1,0,0:0:0:0:
352,192,83403,1,0,0:0:0:70:kick1.wav
480,192,83403,1,0,0:0:0:0:
32,192,83403,1,0,0:0:0:0:
96,192,83403,1,0,0:0:0:0:
160,192,83622,1,0,0:0:0:0:
416,192,83841,1,0,0:0:0:70:kick1.wav
480,192,83841,1,0,0:0:0:0:
32,192,83841,1,0,0:0:0:0:
352,192,83841,1,0,0:0:0:0:
288,192,84060,1,0,0:0:0:0:
160,192,84170,1,0,0:0:0:0:
480,192,84279,1,0,0:0:0:70:kick1.wav
352,192,84279,1,0,0:0:0:0:
96,192,84279,1,0,0:0:0:0:
32,192,84388,1,0,0:0:0:0:
96,192,84498,1,0,0:0:0:0:
160,192,84607,1,0,0:0:0:0:
416,192,84717,1,0,0:0:0:70:kick1.wav
480,192,84717,1,0,0:0:0:0:
352,192,84717,1,0,0:0:0:0:
32,192,84717,1,0,0:0:0:0:
288,192,84717,1,0,0:0:0:0:
416,192,84936,1,0,0:0:0:70:kick1.wav
352,192,84936,1,0,0:0:0:0:
96,192,84936,1,0,0:0:0:0:
256,192,85155,128,0,86907:0:0:0:70:kick1.wav
182,192,85155,128,0,86907:0:0:0:0:
109,192,85155,1,0,0:0:0:0:
32,192,85155,1,0,0:0:0:0:
480,192,85155,1,0,0:0:0:0:
352,192,85374,1,0,0:0:0:0:
416,192,85483,1,0,0:0:0:0:
352,192,85593,1,0,0:0:0:70:kick1.wav
416,192,85812,1,0,0:0:0:0:
352,192,86031,1,0,0:0:0:70:kick1.wav
416,192,86250,1,0,0:0:0:0:
352,192,86359,1,0,0:0:0:0:
416,192,86469,1,0,0:0:0:70:kick1.wav
352,192,86688,1,0,0:0:0:0:
36,192,86907,128,0,88659:0:0:0:70:kick1.wav
109,192,86907,128,0,88659:0:0:0:0:
416,192,86907,1,0,0:0:0:0:
288,192,87126,1,0,0:0:0:0:
416,192,87235,1,0,0:0:0:0:
288,192,87345,1,0,0:0:0:70:kick1.wav
416,192,87564,1,0,0:0:0:0:
288,192,87783,1,0,0:0:0:70:kick1.wav
160,192,87783,1,0,0:0:0:0:
416,192,88002,1,0,0:0:0:0:
288,192,88111,1,0,0:0:0:0:
480,192,88221,1,0,0:0:0:70:kick1.wav
416,192,88221,1,0,0:0:0:0:
288,192,88440,1,0,0:0:0:0:
182,192,88659,1,0,0:0:0:70:kick1.wav
480,192,88659,128,0,90410:0:0:0:0:
352,192,88659,1,0,0:0:0:0:
160,192,88878,1,0,0:0:0:0:
288,192,88987,1,0,0:0:0:0:
416,192,89097,1,0,0:0:0:70:kick1.wav
352,192,89097,1,0,0:0:0:0:
32,192,89097,1,0,0:0:0:0:
96,192,89316,1,0,0:0:0:0:
160,192,89534,1,0,0:0:0:70:kick1.wav
32,192,89753,1,0,0:0:0:0:
352,192,89863,1,0,0:0:0:0:
416,192,89972,1,0,0:0:0:70:kick1.wav
288,192,89972,1,0,0:0:0:0:
160,192,89972,1,0,0:0:0:0:
96,192,90191,1,0,0:0:0:0:
288,192,90410,1,0,0:0:0:70:crash.wav
352,192,90410,1,0,0:0:0:70:kick1.wav
32,192,90410,1,0,0:0:0:0:
96,192,90410,1,0,0:0:0:0:
416,192,90629,1,0,0:0:0:70:crash.wav
182,192,90629,1,0,0:0:0:70:kick1.wav
475,192,90629,1,0,0:0:0:0:
352,192,90848,1,0,0:0:0:70:kick1.wav
288,192,90848,1,0,0:0:0:70:crash.wav
32,192,90848,1,0,0:0:0:0:
416,192,91067,1,0,0:0:0:70:kick1.wav
480,192,91286,1,0,0:0:0:70:kick1.wav
288,192,91286,1,0,0:0:0:0:
32,192,91286,1,0,0:0:0:0:
96,192,91396,1,0,0:0:0:70:kick1.wav
416,192,91505,1,0,0:0:0:70:kick1.wav
352,192,91505,1,0,0:0:0:0:
160,192,91505,1,0,0:0:0:0:
288,192,91615,1,0,0:0:0:70:kick1.wav
480,192,91724,1,0,0:0:0:0:
32,192,91724,1,0,0:0:0:0:
402,192,91796,1,0,0:0:0:0:
329,192,91869,1,0,0:0:0:0:
256,192,91942,1,0,0:0:0:0:
182,192,92015,1,0,0:0:0:0:
109,192,92088,1,0,0:0:0:0:
256,192,92161,1,0,0:0:0:70:kick1.wav
36,192,92161,1,0,0:0:0:0:
480,192,92162,1,0,0:0:0:0:
160,192,92381,1,0,0:0:0:0:
416,192,92491,1,0,0:0:0:0:
480,192,92600,1,0,0:0:0:70:kick1.wav
288,192,92600,1,0,0:0:0:0:
32,192,92600,1,0,0:0:0:0:
160,192,92819,1,0,0:0:0:0:
480,192,93038,1,0,0:0:0:70:kick1.wav
352,192,93038,1,0,0:0:0:0:
288,192,93038,1,0,0:0:0:0:
96,192,93257,1,0,0:0:0:0:
416,192,93367,1,0,0:0:0:0:
480,192,93476,1,0,0:0:0:70:kick1.wav
288,192,93476,1,0,0:0:0:0:
32,192,93476,1,0,0:0:0:0:
352,192,93695,1,0,0:0:0:0:
480,192,93914,1,0,0:0:0:70:kick1.wav
96,192,93914,1,0,0:0:0:0:
288,192,94133,1,0,0:0:0:0:
480,192,94352,1,0,0:0:0:70:kick1.wav
182,192,94352,1,0,0:0:0:0:
32,192,94352,1,0,0:0:0:0:
352,192,94352,1,0,0:0:0:0:
288,192,94571,1,0,0:0:0:0:
480,192,94790,1,0,0:0:0:70:kick1.wav
96,192,94790,1,0,0:0:0:0:
416,192,95009,1,0,0:0:0:0:
352,192,95118,1,0,0:0:0:0:
480,192,95228,1,0,0:0:0:70:kick1.wav
160,192,95228,1,0,0:0:0:0:
32,192,95228,1,0,0:0:0:0:
288,192,95447,1,0,0:0:0:0:
416,192,95666,1,0,0:0:0:70:kick1.wav
96,192,95666,1,0,0:0:0:0:
352,192,95994,1,0,0:0:0:0:
32,192,95994,1,0,0:0:0:0:
416,192,96323,1,0,0:0:0:0:
96,192,96323,1,0,0:0:0:0:
480,192,96542,1,0,0:0:0:70:kick1.wav
160,192,96542,1,0,0:0:0:0:
416,192,96870,1,0,0:0:0:0:
96,192,96870,1,0,0:0:0:0:
352,192,97199,1,0,0:0:0:0:
32,192,97199,1,0,0:0:0:0:
480,192,97418,1,0,0:0:0:70:kick1.wav
288,192,97418,1,0,0:0:0:0:
416,192,97746,1,0,0:0:0:0:
160,192,97746,1,0,0:0:0:0:
352,192,98075,1,0,0:0:0:0:
96,192,98075,1,0,0:0:0:0:
288,192,98294,1,0,0:0:0:70:kick1.wav
32,192,98294,1,0,0:0:0:0:
352,192,98622,1,0,0:0:0:0:
96,192,98622,1,0,0:0:0:0:
416,192,98732,1,0,0:0:0:0:
416,192,98951,128,0,99170:0:0:0:0:
160,192,98951,1,0,0:0:0:0:
32,192,98951,1,0,0:0:0:0:
480,192,99170,1,0,0:0:0:70:kick1.wav
352,192,99170,1,0,0:0:0:70:crash.wav
96,192,99170,1,0,0:0:0:0:
480,192,99607,1,0,0:0:0:70:kick1.wav
352,192,99607,1,0,0:0:0:0:
32,192,99607,1,0,0:0:0:0:
480,192,100045,1,0,0:0:0:70:kick1.wav
352,192,100045,1,0,0:0:0:0:
96,192,100045,1,0,0:0:0:0:
160,192,100155,1,0,0:0:0:0:
32,192,100264,1,0,0:0:0:0:
480,192,100483,1,0,0:0:0:70:kick1.wav
352,192,100483,1,0,0:0:0:0:
96,192,100483,1,0,0:0:0:0:
32,192,100702,1,0,0:0:0:0:
480,192,100921,1,0,0:0:0:70:kick1.wav
352,192,100921,1,0,0:0:0:0:
96,192,100921,1,0,0:0:0:0:
32,192,101140,1,0,0:0:0:0:
160,192,101250,1,0,0:0:0:0:
480,192,101359,1,0,0:0:0:70:kick1.wav
352,192,101359,1,0,0:0:0:0:
96,192,101359,1,0,0:0:0:0:
32,192,101578,1,0,0:0:0:0:
160,192,101688,1,0,0:0:0:0:
480,192,101797,1,0,0:0:0:70:kick1.wav
352,192,101797,1,0,0:0:0:0:
96,192,101797,1,0,0:0:0:0:
32,192,101907,1,0,0:0:0:0:
96,192,102016,1,0,0:0:0:0:
416,192,102235,1,0,0:0:0:70:kick1.wav
480,192,102235,1,0,0:0:0:0:
352,192,102235,1,0,0:0:0:0:
32,192,102235,1,0,0:0:0:0:
160,192,102235,1,0,0:0:0:0:
288,192,102454,1,0,0:0:0:0:
96,192,102454,1,0,0:0:0:0:
352,192,102564,1,0,0:0:0:0:
160,192,102564,1,0,0:0:0:0:
480,192,102673,128,0,103549:0:0:0:70:kick1.wav
109,192,102673,1,0,0:0:0:0:
416,192,102673,1,0,0:0:0:0:
32,192,102673,1,0,0:0:0:0:
288,192,102673,1,0,0:0:0:0:
32,192,102892,1,0,0:0:0:70:kick1.wav
182,192,103001,128,0,103548:0:0:0:0:
32,192,103111,1,0,0:0:0:70:kick1.wav
329,192,103330,128,0,103549:0:0:0:70:kick1.wav
32,192,103330,1,0,0:0:0:0:
109,192,103549,1,0,0:0:0:70:kick1.wav
32,192,103549,128,0,104425:0:0:0:0:
416,192,103549,1,0,0:0:0:0:
416,192,103768,1,0,0:0:0:70:kick1.wav
329,192,103877,128,0,104424:0:0:0:0:
416,192,103987,1,0,0:0:0:70:kick1.wav
160,192,104206,128,0,104425:0:0:0:70:kick1.wav
416,192,104206,1,0,0:0:0:0:
256,192,104425,1,0,0:0:0:70:kick1.wav
109,192,104425,1,0,0:0:0:0:
416,192,104425,1,0,0:0:0:0:
160,192,104534,1,0,0:0:0:70:kick1.wav
352,192,104644,1,0,0:0:0:70:kick1.wav
96,192,104644,1,0,0:0:0:0:
32,192,104753,1,0,0:0:0:70:kick1.wav
109,192,104862,1,0,0:0:0:70:kick1.wav
480,192,104863,1,0,0:0:0:0:
416,192,104972,1,0,0:0:0:70:kick1.wav
352,192,105082,1,0,0:0:0:70:kick1.wav
96,192,105082,1,0,0:0:0:0:
288,192,105191,1,0,0:0:0:70:kick1.wav
475,192,105300,1,0,0:0:0:70:kick1.wav
32,192,105301,1,0,0:0:0:0:
402,192,105373,1,0,0:0:0:0:
329,192,105446,1,0,0:0:0:0:
256,192,105519,1,0,0:0:0:0:
32,192,105520,1,0,0:0:0:0:
109,192,105592,1,0,0:0:0:0:
182,192,105665,1,0,0:0:0:0:
256,192,105738,1,0,0:0:0:0:
352,192,105794,1,0,0:0:0:0:
288,192,105848,1,0,0:0:0:0:
160,192,105903,1,0,0:0:0:0:
96,192,105958,1,0,0:0:0:0:
160,192,106013,1,0,0:0:0:0:
288,192,106067,1,0,0:0:0:0:
352,192,106122,1,0,0:0:0:0:
416,192,106177,1,0,0:0:0:70:crash.wav
480,192,106177,1,0,0:0:0:0:
32,192,106177,1,0,0:0:0:0:
96,192,106177,1,0,0:0:0:0:
