osu file format v9

[General]
AudioFilename: Ayane - Cloudier Sky.mp3
AudioLeadIn: 0
PreviewTime: 45591
Countdown: 0
SampleSet: Soft
StackLeniency: 0.5
Mode: 0
LetterboxInBreaks: 0

[Editor]
DistanceSpacing: 1.1
BeatDivisor: 4
GridSize: 8

[Metadata]
Title:Cloudier Sky
Artist:Ayane
Creator:quintitem
Version:Normal
Source:AYAKASHI
Tags:Anime

[Difficulty]
HPDrainRate:4
CircleSize:4
OverallDifficulty:2
ApproachRate:4
SliderMultiplier:1.2
SliderTickRate:0.5

[Events]
//Background and Video events
0,0,"AYAKASHI.jpg"
//Break Periods
2,98166,105646
//Storyboard Layer 0 (Background)
//Storyboard Layer 1 (Fail)
//Storyboard Layer 2 (Pass)
//Storyboard Layer 3 (Foreground)
Sprite,Foreground,CentreLeft,"StoryBoard\title.png",320,240 M,0,12966,13966,92,345,107,345 F,0,12966,13966,0,1 M,0,25966,26966,107,345,107,360 F,0,25966,26966,1,0
Sprite,Foreground,CentreLeft,"StoryBoard\artist.png",320,240 M,0,16966,17966,92,379,107,379 F,0,16966,17966,0,1 M,0,25966,26966,107,379,107,394 F,0,25966,26966,1,0
Sprite,Foreground,CentreLeft,"StoryBoard\mapper.png",320,240 M,0,20966,21966,92,415,107,415 F,0,20966,21966,0,1 M,0,25966,26966,107,415,107,430 F,0,25966,26966,1,0
Sprite,Foreground,CentreLeft,"StoryBoard\aa.png",320,240 M,0,29716,,107,415 F,0,29716,29966,0,1 F,0,37216,37466,1,0
Sprite,Foreground,CentreLeft,"StoryBoard\ab.png",320,240 M,0,32216,,231,415 F,0,32216,32466,0,1 F,0,37216,37466,1,0
Sprite,Foreground,CentreLeft,"StoryBoard\ac.png",320,240 M,0,33716,,323,415 F,0,33716,33966,0,1 F,0,37216,37466,1,0
Sprite,Foreground,CentreLeft,"StoryBoard\ad.png",320,240 M,0,36716,,466,415 F,0,36716,36966,0,1 F,0,37216,37466,1,0
Sprite,Foreground,CentreLeft,"StoryBoard\ae.png",320,240 M,0,37716,,107,415 F,0,37716,37966,0,1 F,0,44716,44966,1,0
Sprite,Foreground,CentreLeft,"StoryBoard\af.png",320,240 M,0,40216,,216,415 F,0,40216,40466,0,1 F,0,44716,44966,1,0
Sprite,Foreground,CentreLeft,"StoryBoard\ag.png",320,240 M,0,41716,,322,415 F,0,41716,41966,0,1 F,0,44716,44966,1,0
Sprite,Foreground,CentreLeft,"StoryBoard\ba.png",320,240 M,0,45716,,107,415 F,0,45716,45966,0,1 F,0,54216,54466,1,0
Sprite,Foreground,CentreLeft,"StoryBoard\bb.png",320,240 M,0,47216,,175,415 F,0,47216,47466,0,1 F,0,54216,54466,1,0
Sprite,Foreground,CentreLeft,"StoryBoard\bc.png",320,240 M,0,51216,,356,415 F,0,51216,51466,0,1 F,0,54216,54466,1,0
Sprite,Foreground,CentreLeft,"StoryBoard\bd.png",320,240 M,0,54716,,107,415 F,0,54716,54966,0,1 F,0,61966,62216,1,0
Sprite,Foreground,CentreLeft,"StoryBoard\be.png",320,240 M,0,56716,,224,415 F,0,56716,56966,0,1 F,0,61966,62216,1,0
Sprite,Foreground,CentreLeft,"StoryBoard\bf.png",320,240 M,0,58716,,372,415 F,0,58716,58966,0,1 F,0,61966,62216,1,0
Sprite,Foreground,CentreLeft,"StoryBoard\ca.png",320,240 M,0,62466,,107,415 F,0,62466,62716,0,1 F,0,70466,70716,1,0
Sprite,Foreground,CentreLeft,"StoryBoard\cb.png",320,240 M,0,64466,,244,415 F,0,64466,64716,0,1 F,0,70466,70716,1,0
Sprite,Foreground,CentreLeft,"StoryBoard\cc.png",320,240 M,0,66466,,377,415 F,0,66466,66716,0,1 F,0,70466,70716,1,0
Sprite,Foreground,CentreLeft,"StoryBoard\cd.png",320,240 M,0,71216,,107,415 F,0,71216,71466,0,1 F,0,77716,77966,1,0
Sprite,Foreground,CentreLeft,"StoryBoard\ce.png",320,240 M,0,74716,,300,415 F,0,74716,74966,0,1 F,0,77716,77966,1,0
Sprite,Foreground,CentreLeft,"StoryBoard\cf.png",320,240 M,0,78466,,107,415 F,0,78466,78716,0,1 F,0,86716,86966,1,0
Sprite,Foreground,CentreLeft,"StoryBoard\cg.png",320,240 M,0,80466,,230,415 F,0,80466,80716,0,1 F,0,86716,86966,1,0
Sprite,Foreground,CentreLeft,"StoryBoard\ch.png",320,240 M,0,82466,,368,415 F,0,82466,82716,0,1 F,0,86716,86966,1,0
Sprite,Foreground,CentreLeft,"StoryBoard\ci.png",320,240 M,0,87466,,107,415 F,0,87466,87716,0,1 F,0,97716,97966,1,0
Sprite,Foreground,CentreLeft,"StoryBoard\cj.png",320,240 M,0,90716,,283,415 F,0,90716,90966,0,1 F,0,97716,97966,1,0
Sprite,Foreground,CentreLeft,"StoryBoard\ck.png",320,240 M,0,94466,,416,415 F,0,94466,94716,0,1 F,0,97716,97966,1,0
Sprite,Foreground,CentreLeft,"StoryBoard\da.png",320,240 M,0,109716,,107,415 F,0,109716,109966,0,1 F,0,117216,117466,1,0
Sprite,Foreground,CentreLeft,"StoryBoard\db.png",320,240 M,0,112216,,224,415 F,0,112216,112466,0,1 F,0,117216,117466,1,0
Sprite,Foreground,CentreLeft,"StoryBoard\dc.png",320,240 M,0,113716,,291,415 F,0,113716,113966,0,1 F,0,117216,117466,1,0
Sprite,Foreground,CentreLeft,"StoryBoard\dd.png",320,240 M,0,116716,,416,415 F,0,116716,116966,0,1 F,0,117216,117466,1,0
Sprite,Foreground,CentreLeft,"StoryBoard\de.png",320,240 M,0,117716,,107,415 F,0,117716,117966,0,1 F,0,124716,124966,1,0
Sprite,Foreground,CentreLeft,"StoryBoard\df.png",320,240 M,0,120216,,215,415 F,0,120216,120466,0,1 F,0,124716,124966,1,0
Sprite,Foreground,CentreLeft,"StoryBoard\dg.png",320,240 M,0,121716,,297,415 F,0,121716,121966,0,1 F,0,124716,124966,1,0
Sprite,Foreground,CentreLeft,"StoryBoard\ba.png",320,240 M,0,125716,,107,415 F,0,125716,125966,0,1 F,0,134216,134466,1,0
Sprite,Foreground,CentreLeft,"StoryBoard\eb.png",320,240 M,0,127216,,173,415 F,0,127216,127466,0,1 F,0,134216,134466,1,0
Sprite,Foreground,CentreLeft,"StoryBoard\ec.png",320,240 M,0,131216,,380,415 F,0,131216,131466,0,1 F,0,134216,134466,1,0
Sprite,Foreground,CentreLeft,"StoryBoard\ed.png",320,240 M,0,134716,,107,415 F,0,134716,134966,0,1 F,0,141966,142216,1,0
Sprite,Foreground,CentreLeft,"StoryBoard\ee.png",320,240 M,0,136716,,259,415 F,0,136716,136966,0,1 F,0,141966,142216,1,0
Sprite,Foreground,CentreLeft,"StoryBoard\ef.png",320,240 M,0,138716,,388,415 F,0,138716,138966,0,1 F,0,141966,142216,1,0
Sprite,Foreground,CentreLeft,"StoryBoard\fa.png",320,240 M,0,142466,,107,415 F,0,142466,142716,0,1 F,0,150216,150466,1,0
Sprite,Foreground,CentreLeft,"StoryBoard\fb.png",320,240 M,0,144466,,212,415 F,0,144466,144716,0,1 F,0,150216,150466,1,0
Sprite,Foreground,CentreLeft,"StoryBoard\fc.png",320,240 M,0,146466,,352,415 F,0,146466,146716,0,1 F,0,150216,150466,1,0
Sprite,Foreground,CentreLeft,"StoryBoard\fd.png",320,240 M,0,151216,,107,415 F,0,151216,151466,0,1 F,0,157716,157966,1,0
Sprite,Foreground,CentreLeft,"StoryBoard\ce.png",320,240 M,0,154716,,347,415 F,0,154716,154966,0,1 F,0,157716,157966,1,0
Sprite,Foreground,CentreLeft,"StoryBoard\ff.png",320,240 M,0,158466,,107,415 F,0,158466,158716,0,1 F,0,161966,162216,1,0
Sprite,Foreground,CentreLeft,"StoryBoard\fg.png",320,240 M,0,160466,,268,415 F,0,160466,160716,0,1 F,0,161966,162216,1,0
Sprite,Foreground,CentreLeft,"StoryBoard\fh.png",320,240 M,0,162466,,107,415 F,0,162466,162716,0,1 F,0,166216,166466,1,0
Sprite,Foreground,CentreLeft,"StoryBoard\fi.png",320,240 M,0,167466,,107,415 F,0,167466,167716,0,1 F,0,177216,177466,1,0
Sprite,Foreground,CentreLeft,"StoryBoard\fj.png",320,240 M,0,170716,,243,415 F,0,170716,170966,0,1 F,0,177216,177466,1,0
Sprite,Foreground,CentreLeft,"StoryBoard\fk.png",320,240 M,0,174466,,398,415 F,0,174466,174716,0,1 F,0,177216,177466,1,0
//Storyboard Sound Samples
//Background Colour Transformations
3,100,163,162,255

[TimingPoints]
966,500,4,2,1,50,1,0
46216,-86.9565217391304,4,2,1,60,0,0
46841,-86.9565217391304,4,2,1,70,0,0
58966,-86.9565217391304,4,2,1,80,0,0
60841,-86.9565217391304,4,2,1,90,0,0
61841,-76.9230769230769,4,1,0,50,0,0
62716,-76.9230769230769,4,2,1,70,0,0
62966,-76.9230769230769,4,2,1,70,0,1
63091,-76.9230769230769,4,2,1,85,0,0
76841,-76.9230769230769,4,2,1,75,0,0
79466,-76.9230769230769,4,2,1,85,0,0
86841,-76.9230769230769,4,2,1,75,0,0
87466,-76.9230769230769,4,2,1,85,0,0
92966,-100,4,2,1,65,0,0
94466,-100,4,2,1,60,0,0
97966,-100,4,2,1,0,0,0
106466,-76.9230769230769,4,2,1,75,0,0
110966,-100,4,2,1,60,0,0
126216,-86.9565217391304,4,2,1,60,0,0
126841,-86.9565217391304,4,2,1,70,0,0
138841,-86.9565217391304,4,2,1,80,0,0
140966,-86.9565217391304,4,2,1,90,0,0
141841,-76.9230769230769,4,1,0,50,0,0
142716,-76.9230769230769,4,2,1,70,0,0
142966,-76.9230769230769,4,2,1,70,0,1
143091,-76.9230769230769,4,2,1,85,0,0
156966,-76.9230769230769,4,2,1,75,0,0
159466,-76.9230769230769,4,2,1,85,0,0
166841,-76.9230769230769,4,2,1,75,0,0
167216,-76.9230769230769,4,2,1,85,0,0
172841,-100,4,2,1,65,0,0
177966,-86.9565217391304,4,2,1,0,0,0

[Colours]
Combo1 : 221,185,136
Combo2 : 162,121,236
Combo3 : 143,179,218
Combo4 : 231,192,201

[HitObjects]
256,192,26966,12,2,28966
220,88,30966,6,0,B|92:88,1,120,10|2
40,220,31966,2,0,B|40:292,2,60,2|0|2
180,256,32966,2,0,B|316:256,1,120,10|2
344,200,33716,5,0
388,256,33966,2,0,B|464:267|463:354,2,120,0|0|10
456,128,35466,2,0,B|316:128,1,120,2|2
196,92,36466,2,0,B|196:28,2,60,0|0|10
96,192,37466,6,0,B|28:192,2,60,2|0|2
232,236,38466,2,0,B|232:360,2,120,2|10|0
368,192,39966,1,0
368,192,40216,1,0
368,192,40466,2,0,B|444:180|443:93,1,120,2|10
300,88,41466,6,0,B|300:24,2,60,2|0|0
160,120,42466,2,0,B|40:120,2,120,0|8|2
160,264,43966,2,0,B|83:275|84:362,2,120,2|2|10
304,280,45466,6,0,B|304:352,2,60,0|0|12
408,192,46466,1,8
288,124,46966,6,0,B|287:40|371:28,2,138.000004523993,2|8|0
152,100,48466,1,8
152,100,48716,1,0
108,232,49216,2,0,B|36:232,2,69.0000022619963,0|8|0
236,288,50216,2,0,B|236:360,2,69.0000022619963,0|8|0
284,236,50966,6,0,B|428:236,2,138.000004523993,2|8|0
352,116,52466,1,8
216,104,52966,1,0
216,104,53216,1,0
216,104,53466,2,0,B|216:28,2,69.0000022619963,8|0|0
148,224,54466,2,0,B|148:300,2,69.0000022619963,10|8|10
284,248,55466,6,0,B|364:259|364:342,2,138.000004523993,8|0|8
376,144,56966,2,0,B|375:61|456:49,2,138.000004523993,2|8|0
236,140,58466,2,0,B|236:68,2,69.0000022619963,8|0|2
108,192,59466,5,8
108,192,59716,1,0
108,192,59966,2,0,B|107:274|188:286,1,138.000004523993,0|8
320,244,60966,2,0,B|320:132,2,103.500003392995,8|8|8
320,316,61966,1,0
468,76,62966,6,0,B|468:240,2,155.999997210503,6|8|0
328,80,64466,2,0,B|168:80,2,155.999997210503,8|0|8
328,220,65966,2,0,B|328:311|235:329,1,155.999997210503,0|8
188,280,66716,1,0
140,328,66966,1,2
112,192,67466,6,0,B|24:192,2,77.9999986052513,8|2|0
244,140,68466,2,0,B|244:48|151:30,2,155.999997210503,8|2|8
376,192,69966,1,0
400,332,70466,2,0,B|484:332,2,77.9999986052513,8|8|10
272,272,71466,6,0,B|108:272,2,155.999997210503,8|0|8
320,140,72966,2,0,B|480:140,2,155.999997210503,0|8|0
188,96,74466,2,0,B|188:44|240:44,2,77.9999986052513,8|0|2
68,168,75466,5,8
68,168,75716,1,0
68,168,75966,2,0,B|68:328,1,155.999997210503,0|8
180,240,76966,2,0,B|180:364,2,116.999997907877,10|10|10
236,200,77966,1,0
236,200,78216,2,0,B|236:120,2,77.9999986052513,10|8|8
292,240,78966,6,0,B|382:257|382:349,2,155.999997210503,6|8|0
376,128,80466,2,0,B|216:128,1,155.999997210503,8|0
120,32,81466,2,0,B|29:49|29:141,1,155.999997210503,8|0
92,268,82466,2,0,B|92:348,2,77.9999986052513,8|0|2
232,284,83466,5,8
232,284,83716,1,2
232,284,83966,2,0,B|400:284,1,155.999997210503,0|8
372,144,84966,2,0,B|372:52|462:35,2,155.999997210503,2|8|0
236,104,86466,1,8
236,104,86716,1,0
236,104,86966,2,0,B|80:104,1,155.999997210503,6|8
28,152,87716,5,0
80,200,87966,1,0
28,248,88216,2,0,B|28:340,2,77.9999986052513,0|8|0
164,276,89216,2,0,B|248:276,2,77.9999986052513,0|8|0
204,140,90216,2,0,B|204:56,2,77.9999986052513,0|8|0
268,168,90966,6,0,B|428:168,1,155.999997210503,2|8
480,212,91716,1,0
428,260,91966,2,0,B|338:276|338:368,2,155.999997210503,0|8|4
256,192,94466,12,0,97966
256,192,106966,12,10,110966
300,92,111466,6,0,B|432:92,2,120
196,192,112966,2,0,B|64:192,1,120,2|0
120,328,113966,2,0,B|260:328,1,120
372,272,114966,6,0,B|431:274|431:354,2,90,2|0|0
372,200,115966,2,0,B|370:145|429:142,2,90
308,232,116966,2,0,B|231:229|231:144,1,120,2|0
288,112,117716,1,2
232,68,117966,2,0,B|100:68,2,120,0|0|2
364,128,119466,6,0,B|508:128,2,120
296,256,120966,1,2
152,272,121466,2,0,B|75:275|75:360,2,120
164,128,122966,6,0,B|64:128,2,90,2|0|0
236,120,123966,2,0,B|236:32,2,90
308,128,124966,2,0,B|420:128,2,90
276,192,125966,5,12
276,192,126466,1,8
344,312,126966,6,0,B|184:312,1,138.000004523993,2|8
72,280,127966,2,0,B|72:136,1,138.000004523993,0|8
116,88,128716,1,0
248,44,129216,1,0
248,44,129466,1,8
248,44,129716,1,0
380,88,130216,1,0
380,88,130466,1,8
436,128,130716,1,0
436,128,130966,6,0,B|436:272,1,138.000004523993,2|8
316,336,131966,2,0,B|316:188,1,138.000004523993,0|8
220,100,132966,1,0
220,100,133216,1,0
168,56,133466,1,8
168,56,133716,1,0
116,100,133966,2,0,B|36:111|36:194,1,138.000004523993,0|10
80,248,134716,5,8
36,300,134966,2,0,B|196:300,1,138.000004523993,10|8
300,240,135966,2,0,B|380:251|379:334,2,138.000004523993,0|8|2
344,108,137466,2,0,B|484:108,2,138.000004523993,8|0|8
296,56,138716,5,0
248,108,138966,2,0,B|167:119|168:202,1,138.000004523993,2|8
212,256,139716,1,0
168,312,139966,2,0,B|28:312,2,138.000004523993,0|8|8
264,352,141341,1,8
360,312,141716,1,8
360,312,141966,1,0
472,56,142966,6,0,B|312:56,1,155.999997210503,6|8
204,140,143966,2,0,B|376:140,1,155.999997210503,0|8
472,224,144966,2,0,B|312:224,2,155.999997210503,0|8|0
388,336,146466,5,8
388,336,146716,1,0
388,336,146966,2,0,B|224:336,1,155.999997210503,2|8
184,284,147716,1,2
136,336,147966,2,0,B|45:318|45:226,1,155.999997210503,0|8
160,144,148966,2,0,B|159:52|69:35,2,155.999997210503,2|8|0
292,192,150466,1,8
292,192,150716,1,8
292,192,150966,6,0,B|452:192,2,155.999997210503,10|8|0
268,52,152466,1,8
128,68,152966,1,0
52,188,153466,2,0,B|52:344,2,155.999997210503,8|0|8
108,148,154716,1,0
164,188,154966,1,2
256,292,155466,5,8
256,292,155716,1,0
256,292,155966,1,0
392,320,156466,2,0,B|392:160,1,155.999997210503,8|10
304,104,157341,1,10
204,72,157716,2,0,B|128:72,2,77.9999986052513,10|0|10
204,144,158466,5,8
204,144,158716,1,8
204,144,158966,2,0,B|204:308,1,155.999997210503,6|8
332,248,159966,2,0,B|423:266|423:358,2,155.999997210503,0|8|0
460,192,161466,2,0,B|460:32,1,155.999997210503,8|0
328,84,162466,1,8
328,84,162716,1,0
328,84,162966,1,2
196,128,163466,5,8
196,128,163716,1,2
196,128,163966,2,0,B|28:128,2,155.999997210503,0|8|2
104,236,165466,2,0,B|195:254|195:346,1,155.999997210503,8|0
328,296,166466,1,8
328,296,166716,1,0
328,296,166966,1,6
444,216,167466,5,8
444,216,167716,1,0
428,148,167966,1,0
428,148,168216,1,0
380,96,168466,1,8
380,96,168716,2,0,B|220:96,1,155.999997210503
172,48,169466,1,8
120,96,169716,2,0,B|29:114|29:206,1,155.999997210503
76,256,170466,6,0,B|76:336,2,77.9999986052513,8|0|2
216,272,171466,1,8
216,272,171716,1,0
216,272,171966,2,0,B|372:272,1,155.999997210503,0|8
356,140,172966,2,0,B|236:140,2,120,6|0|0
256,192,174466,12,0,177966
