osu file format v14

[General]
AudioFilename: title.mp3
AudioLeadIn: 0
PreviewTime: 82993
Countdown: 0
SampleSet: Soft
StackLeniency: 0.4
Mode: 0
LetterboxInBreaks: 0
WidescreenStoryboard: 1

[Editor]
Bookmarks: 23376,27502,34474,83723,84416,97943,101374
DistanceSpacing: 0.5
BeatDivisor: 8
GridSize: 4
TimelineZoom: 2.5

[Metadata]
Title:Azurite no Hitsugi
TitleUnicode:アズライトの棺
Artist:Ayane
ArtistUnicode:アヤネ
Creator:imoutosan
Version:PinkHeart's Insane
Source:水葬銀貨のイストリア
Tags:suisouginka めと meto metomate uguisukagura ウグイスカグラ visual novel eroge PinkHeart KaedekaShizuru Misure
BeatmapID:1252489
BeatmapSetID:546149

[Difficulty]
HPDrainRate:6
CircleSize:4
OverallDifficulty:7
ApproachRate:9
SliderMultiplier:1.6
SliderTickRate:1

[Events]
//Background and Video events
Video,0,"optc.flv"
0,0,"bg_p.jpg",0,0
//Break Periods
2,19876,21264
//Storyboard Layer 0 (Background)
//Storyboard Layer 1 (Fail)
//Storyboard Layer 2 (Pass)
//Storyboard Layer 3 (Foreground)
//Storyboard Sound Samples

[TimingPoints]
455,693.64161849711,4,2,1,20,1,0
11553,-100,4,2,1,25,0,0
14327,-100,4,2,1,30,0,0
22651,-50,4,3,1,70,0,0
22738,-66.6666666666667,4,3,1,60,0,0
33749,-50,4,2,1,60,0,0
39819,-66.6666666666667,4,2,1,40,0,0
60108,-57.1428571428571,4,2,1,40,0,0
60628,-66.6666666666667,4,2,1,5,0,0
60801,-50,4,2,1,40,0,0
61495,-50,4,2,1,40,0,0
62449,-50,4,2,1,5,0,0
62535,-50,4,2,1,40,0,0
64530,-50,4,2,1,5,0,0
64616,-50,4,2,1,40,0,0
67998,-50,4,2,1,5,0,0
68085,-50,4,2,1,40,0,0
74674,-50,4,2,1,45,0,0
75368,-50,4,2,1,50,0,0
76755,-50,4,2,1,55,0,0
78142,-50,4,2,1,60,0,0
80223,-50,4,2,1,70,0,0
81957,-100,4,2,1,40,0,0
83171,-100,4,2,1,50,0,0
83345,-100,4,2,1,60,0,0
83691,-50,4,2,1,70,0,1
93402,-50,4,2,1,80,0,0
93749,-50,4,2,1,90,0,0
94790,-50,4,2,1,70,0,1
97564,-50,4,2,1,80,0,1
100339,-50,4,2,1,70,0,1
103113,-50,4,2,1,80,0,1
104154,-50,4,2,1,90,0,1
104327,-66.6666666666667,4,2,1,60,0,0
105888,-50,4,2,1,80,0,1
111437,-50,4,2,1,85,0,1
114212,-50,4,2,1,90,0,1
116293,-66.6666666666667,4,2,1,80,0,1
116986,-50,4,2,1,60,0,0
117073,-50,4,2,1,5,0,0

[Colours]
Combo1 : 235,245,255
Combo2 : 128,128,255
Combo3 : 66,236,255
Combo4 : 128,255,214

[HitObjects]
88,256,455,6,0,B|150:287|182:231|246:263,1,160,2|0,0:0|0:0,0:0:0:0:
204,344,1495,1,2,0:0:0:0:
128,176,1842,2,0,P|144:120|248:120,1,160,8|0,0:0|0:0,0:0:0:0:
234,108,3229,6,0,P|309:109|340:40,1,160,2|0,0:0|0:0,0:0:0:0:
444,220,4270,1,0,0:0:0:0:
483,141,4616,2,0,B|422:111|390:167|328:136,1,160,8|0,0:0|0:0,0:0:0:0:
328,136,6004,6,0,P|252:134|221:203,1,160,2|0,0:0|0:0,0:0:0:0:
224,364,7044,1,0,0:0:0:0:
144,220,7391,2,0,P|219:218|250:287,1,160,8|0,0:0|0:0,0:0:0:0:
100,144,8778,21,2,0:0:0:0:
336,224,9472,1,0,0:0:0:0:
100,144,10165,5,2,0:0:0:0:
216,188,10512,1,0,0:0:0:0:
329,137,10859,1,2,0:0:0:0:
373,21,11206,1,0,0:0:0:0:
260,72,11553,6,0,P|236:112|272:216,1,160,2|0,0:0|0:0,0:0:0:0:
364,56,12593,1,0,0:0:0:0:
480,144,12940,2,0,B|418:113|386:169|324:138,1,160,8|2,0:0|0:0,0:0:0:0:
324,138,14327,22,0,P|360:206|332:279,1,160,2|0,0:0|0:0,0:0:0:0:
372,68,15368,1,0,0:0:0:0:
276,212,15715,2,0,B|214:242|182:186|120:217,1,160,8|0,0:0|0:0,0:0:0:0:
120,217,17102,6,0,P|212:232|116:200,1,320,10|8,0:0|0:0,0:0:0:0:
468,180,21957,6,0,P|467:110|423:57,1,140
403,48,22651,21,4,1:0:0:0:
381,49,22738,1,0,0:0:0:0:
360,58,22825,1,0,0:0:0:0:
347,76,22911,1,0,0:0:0:0:
342,97,22998,2,0,P|346:119|354:130,3,30.0000011444092
412,176,23345,5,0,0:0:0:0:
431,194,23432,1,0,0:0:0:0:
439,220,23518,1,0,0:0:0:0:
438,246,23605,1,0,0:0:0:0:
425,270,23691,2,0,P|403:277|390:276,3,30.0000011444092
325,240,24038,6,0,L|282:235,5,30.0000011444092,8|0|0|0|0|0,0:2|0:0|0:0|0:0|0:0|0:0,0:0:0:0:
301,196,24559,2,0,L|258:192,5,30.0000011444092,8|0|0|0|0|0,0:0|0:0|0:0|0:0|0:0|0:0,0:0:0:0:
277,153,25079,2,0,L|234:148,3,30.0000011444092,4|0|0|0,0:0|0:0|0:0|0:0,0:0:0:0:
220,144,25426,21,4,0:1:0:0:
193,130,25512,1,0,0:0:0:0:
178,107,25599,1,0,0:0:0:0:
177,79,25686,1,0,0:0:0:0:
190,53,25772,1,0,0:0:0:0:
215,39,25859,1,0,0:0:0:0:
244,40,25946,2,0,L|275:43,1,30.0000011444092,0|0,0:0|0:0,0:0:0:0:
340,96,26119,6,0,L|369:99,5,30.0000011444092
268,146,26639,2,0,L|239:143,1,30.0000011444092
281,171,26813,5,4,0:0:0:0:
298,190,26899,1,0,0:0:0:0:
322,201,26986,1,0,0:0:0:0:
349,203,27073,1,0,0:0:0:0:
374,194,27159,1,0,0:0:0:0:
394,176,27246,1,0,0:0:0:0:
403,149,27333,2,0,P|407:131|407:117,1,30.0000011444092
340,68,27507,21,8,0:0:0:0:
326,95,27593,1,0,0:0:0:0:
320,124,27680,1,0,0:0:0:0:
324,154,27767,1,0,0:0:0:0:
334,182,27853,1,0,0:0:0:0:
343,211,27940,1,0,0:0:0:0:
346,241,28027,1,4,0:0:0:0:
340,270,28113,1,0,0:0:0:0:
325,296,28200,6,0,L|295:299,5,30.0000011444092,4|0|0|0|0|0,0:1|0:0|0:0|0:0|0:0|0:0,0:0:0:0:
281,216,28720,2,0,L|251:219,1,30.0000011444092,0|0,0:0|0:0,0:0:0:0:
216,308,28894,6,0,L|186:311,5,30.0000011444092,8|0|0|0|0|0,0:0|0:0|0:0|0:0|0:0|0:0,0:0:0:0:
172,224,29414,2,0,L|142:227,1,30.0000011444092,4|0,0:0|0:0,0:0:0:0:
120,140,29587,22,0,L|90:143,5,30.0000011444092,8|0|0|0|0|0,0:2|0:0|0:0|0:0|0:0|0:0,0:0:0:0:
64,236,30108,2,0,L|34:239,1,30.0000011444092
142,227,30281,6,0,L|172:224,5,30.0000011444092,4|0|0|0|0|0,0:0|0:0|0:0|0:0|0:0|0:0,0:0:0:0:
187,311,30801,2,0,L|217:308,1,30.0000011444092
299,310,30975,5,4,0:1:0:0:
324,295,31061,1,0,0:0:0:0:
338,269,31148,1,0,0:0:0:0:
334,239,31235,1,0,0:0:0:0:
313,217,31321,1,0,0:0:0:0:
283,213,31408,1,0,0:0:0:0:
257,225,31495,2,0,L|224:228,1,30.0000011444092
147,204,31668,22,0,L|117:207,5,30.0000011444092,8|0|0|0|0|0,0:0|0:0|0:0|0:0|0:0|0:0,0:0:0:0:
100,128,32189,2,0,L|136:123,1,30.0000011444092,4|0,0:0|0:0,0:0:0:0:
200,72,32362,5,4,0:0:0:0:
234,72,32449,1,0,0:0:0:0:
263,86,32536,1,0,0:0:0:0:
284,113,32622,1,0,0:0:0:0:
290,147,32709,1,0,0:0:0:0:
279,180,32796,1,0,0:0:0:0:
255,205,32882,2,0,L|219:208,1,30.0000011444092,4|0,0:0|0:0,0:0:0:0:
330,246,33056,5,4,0:0:0:0:
366,248,33142,1,0,0:0:0:0:
399,231,33229,1,0,0:0:0:0:
419,200,33316,1,0,0:0:0:0:
418,163,33402,1,0,0:0:0:0:
396,132,33489,1,0,0:0:0:0:
362,116,33576,1,0,0:0:0:0:
326,122,33662,1,0,0:0:0:0:
297,147,33749,22,0,P|228:139|186:62,1,160,4|0,0:0|0:0,0:0:0:0:
220,228,34270,1,0,0:0:0:0:
274,63,34443,1,0,1:0:0:0:
108,114,34616,1,0,1:0:0:0:
274,63,34790,6,0,P|343:71|385:148,1,160,4|0,0:0|0:0,0:0:0:0:
384,144,35483,2,0,L|444:84,1,80,0|0,1:0|0:0,0:0:0:0:
244,148,35830,2,0,L|303:87,1,80,8|0,0:0|0:0,0:0:0:0:
348,296,36177,2,0,L|403:238,1,80,0|0,1:0|1:0,0:0:0:0:
190,347,36524,6,0,P|203:270|272:236,1,160,4|0,0:0|0:0,0:0:0:0:
357,225,37044,2,0,P|341:185|313:161,2,80,0|0|0,0:0|1:0|1:0,0:0:0:0:
344,368,37564,1,4,0:0:0:0:
344,368,38258,1,2,0:0:0:0:
308,352,38605,1,0,0:0:0:0:
324,316,38952,1,0,0:0:0:0:
360,332,39298,21,8,0:0:0:0:
344,368,39472,1,0,0:0:0:0:
308,352,39645,1,0,0:0:0:0:
324,316,39819,1,0,0:0:0:0:
110,359,40339,2,0,L|51:371,1,60.0000022888184,2|0,0:0|0:0,0:0:0:0:
191,360,40686,2,0,P|214:308|178:231,1,120.000004577637,0|2,0:0|0:0,0:0:0:0:
153,192,41206,2,0,P|135:135|159:81,1,120.000004577637,2|0,0:0|0:0,0:0:0:0:
229,65,41726,2,0,L|288:53,1,60.0000022888184,0|2,0:0|0:0,0:0:0:0:
96,136,42073,5,8,0:0:0:0:
58,148,42247,1,0,0:0:0:0:
71,186,42420,1,0,0:0:0:0:
108,173,42594,1,0,0:0:0:0:
108,173,43113,2,0,L|167:161,1,60.0000022888184,0|0,0:0|0:0,0:0:0:0:
223,206,43460,2,0,P|275:176|378:240,1,180.000006866455,2|0,0:0|0:0,0:0:0:0:
355,300,44154,1,0,0:0:0:0:
339,336,44328,1,0,0:0:0:0:
303,320,44501,1,0,0:0:0:0:
319,284,44675,1,0,0:0:0:0:
432,276,44848,5,0,0:0:0:0:
468,292,45022,1,0,0:0:0:0:
484,256,45195,1,0,0:0:0:0:
448,240,45369,1,0,0:0:0:0:
267,179,45888,2,0,L|324:198,1,60.0000022888184,2|0,0:0|0:0,0:0:0:0:
400,165,46235,2,0,P|394:106|348:71,1,120.000004577637,0|0,0:0|0:0,0:0:0:0:
328,144,46755,2,0,P|333:202|379:237,1,120.000004577637,2|0,0:0|0:0,0:0:0:0:
457,184,47275,2,0,L|400:165,1,60.0000022888184,0|0,0:0|0:0,0:0:0:0:
192,92,47622,21,8,0:0:0:0:
156,76,47796,1,0,0:0:0:0:
140,112,47969,1,0,0:0:0:0:
176,128,48143,1,0,0:0:0:0:
176,128,48663,1,0,0:0:0:0:
180,131,48836,2,0,B|260:163|260:163|284:207|268:255,1,180.000006866455
332,300,49530,1,0,0:0:0:0:
332,300,49703,2,0,P|350:242|349:182,1,120.000004577637,0|2,0:0|0:0,0:0:0:0:
188,224,50223,2,0,P|184:253|192:282,1,60.0000022888184,8|0,0:0|0:0,0:0:0:0:
256,328,50570,5,0,0:0:0:0:
264,250,50744,1,0,0:0:0:0:
192,282,50917,1,2,0:0:0:0:
448,384,51437,2,0,L|400:348,1,60.0000022888184,0|0,0:0|0:0,0:0:0:0:
331,303,51784,2,0,P|334:231|392:192,1,120.000004577637,2|0,0:0|0:0,0:0:0:0:
444,174,52304,2,0,P|483:130|480:72,1,120.000004577637,0|2,0:0|0:0,0:0:0:0:
479,71,52824,1,2,0:0:0:0:
267,177,53171,5,8,0:0:0:0:
186,169,53345,1,0,0:0:0:0:
220,242,53518,1,0,0:0:0:0:
267,177,53691,2,0,P|258:125|144:100,1,180.000006866455,0|0,0:0|0:0,0:0:0:0:
88,144,54385,1,0,0:0:0:0:
88,144,54559,2,0,P|116:96|96:32,1,120.000004577637,2|0,0:0|0:0,0:0:0:0:
36,84,55079,1,0,0:0:0:0:
36,84,55252,2,0,P|9:129|80:222,1,180.000006866455
148,192,55946,21,8,0:0:0:0:
140,268,56119,1,0,0:0:0:0:
212,240,56293,1,0,0:0:0:0:
201,316,56466,2,0,P|120:344|64:281,1,180.000006866455
282,332,57160,1,0,0:0:0:0:
352,300,57333,5,0,0:0:0:0:
416,253,57506,1,0,0:0:0:0:
344,224,57680,1,0,0:0:0:0:
282,332,57853,2,0,P|354:377|424:324,1,180.000006866455
388,144,58547,1,0,0:0:0:0:
352,300,58720,5,8,0:0:0:0:
296,244,58894,1,0,0:0:0:0:
372,224,59067,1,0,0:0:0:0:
352,300,59241,2,0,P|296:248|292:200,1,120.000004577637
332,44,59761,1,0,0:0:0:0:
288,108,59934,1,0,0:0:0:0:
216,140,60108,2,0,B|174:162|118:142|118:142|112:79|51:68,1,210.000002002716,2|0,0:0|0:0,0:0:0:0:
31,216,60801,22,0,P|117:152|50:68,1,240,8|0,0:0|3:0,0:0:0:0:
112,232,61495,6,0,B|190:232|190:232|143:300,1,160,8|0,0:0|0:0,0:0:0:0:
82,381,62015,1,0,0:0:0:0:
8,240,62189,2,0,L|68:355,1,120,2|0,0:0|0:0,0:0:0:0:
82,381,62535,1,0,0:0:0:0:
143,298,62709,2,0,P|204:252|279:271,1,160,0|0,0:0|0:0,0:0:0:0:
344,348,63229,2,0,L|380:276,1,80,0|0,0:0|0:0,0:0:0:0:
412,140,63576,2,0,B|384:184|384:184|324:208|324:208|298:245,1,160,2|0,0:0|0:0,0:0:0:0:
379,276,64096,1,0,0:0:0:0:
328,111,64270,6,0,P|381:56|456:64,1,120
458,65,64616,2,0,P|488:92|499:144,1,80,0|0,0:0|0:0,0:0:0:0:
320,132,64963,2,0,B|280:132|280:132|220:28,1,160,2|0,0:0|0:0,0:0:0:0:
184,132,65483,1,0,0:0:0:0:
328,52,65657,2,0,L|408:52,1,80,8|0,0:0|0:0,0:0:0:0:
484,132,66004,2,0,L|404:132,1,80,0|0,0:0|0:0,0:0:0:0:
328,212,66350,2,0,L|408:212,1,80,2|0,0:0|0:0,0:0:0:0:
484,292,66697,2,0,L|404:292,1,80,0|0,0:0|0:0,0:0:0:0:
216,274,67044,22,0,P|252:207|328:212,1,160
248,356,67564,1,0,0:0:0:0:
248,356,67738,2,0,L|124:356,1,120,2|0,0:0|0:0,0:0:0:0:
88,356,68085,1,0,0:0:0:0:
128,268,68258,1,0,0:0:0:0:
32,280,68431,2,0,L|60:205,1,80,0|0,0:0|0:0,0:0:0:0:
60,56,68778,2,0,L|88:130,1,80,0|0,0:0|0:0,0:0:0:0:
159,317,69125,2,0,B|209:253|209:253|132:240,1,160,2|0,0:0|0:0,0:0:0:0:
212,384,69645,1,0,0:0:0:0:
212,384,69819,6,0,L|312:254,1,160,0|0,0:0|0:0,0:0:0:0:
411,349,70339,2,0,P|337:329|309:257,1,160,0|0,0:0|0:0,0:0:0:0:
396,264,70859,1,0,0:0:0:0:
232,208,71033,1,0,0:0:0:0:
248,314,71206,2,0,L|324:342,1,80,8|0,0:0|0:0,0:0:0:0:
294,172,71553,2,0,L|218:144,1,80
309,257,71900,2,0,L|370:205,1,80,2|0,0:0|0:0,0:0:0:0:
340,35,72246,2,0,L|279:87,1,80,0|0,0:0|0:0,0:0:0:0:
370,205,72593,6,0,P|422:241|500:200,1,160,8|0,0:0|0:0,0:0:0:0:
440,96,73113,2,0,P|372:128|370:205,1,160,0|0,0:0|0:0,0:0:0:0:
496,308,73634,1,2,0:0:0:0:
273,291,73807,22,0,P|295:218|369:204,1,160
320,352,74327,2,0,B|252:396|232:332|164:372,1,160,0|2,0:0|0:0,0:0:0:0:
166,370,75021,2,0,P|126:306|126:282,1,80,0|0,1:0|0:0,0:0:0:0:
176,168,75368,6,0,P|116:220|40:212,1,160,8|0,0:0|0:0,0:0:0:0:
4,100,75888,2,0,P|64:48|140:55,1,160,0|0,0:0|0:0,0:0:0:0:
276,196,76408,1,2,0:0:0:0:
304,64,76582,6,0,P|253:32|277:97,1,160,0|0,0:0|0:0,0:0:0:0:
400,112,77102,2,0,P|456:100|488:64,1,80,8|0,0:0|0:0,0:0:0:0:
384,216,77449,2,0,P|438:233|484:218,1,80
318,298,77796,1,0,1:0:0:0:
318,298,77969,1,0,1:0:0:0:
200,264,78142,22,0,B|172:224|176:188|176:188|212:192|246:220,1,160,4|0,0:0|0:0,0:0:0:0:
318,298,78663,1,0,0:0:0:0:
432,152,78836,2,0,P|378:135|332:150,1,80,0|0,1:0|0:0,0:0:0:0:
384,216,79183,1,0,0:0:0:0:
328,60,79356,1,0,0:0:0:0:
221,187,79530,6,0,P|164:208|112:184,1,120,2|0,0:0|0:0,0:0:0:0:
93,111,79876,2,0,P|133:112|167:131,1,80,0|0,1:0|0:0,0:0:0:0:
0,268,80223,1,0,0:0:0:0:
112,184,80397,1,0,1:0:0:0:
14,169,80571,1,0,1:0:0:0:
98,282,80744,1,0,0:0:0:0:
185,207,80917,6,0,P|167:133|93:111,1,160,4|0,0:0|0:0,0:0:0:0:
112,184,81437,1,0,0:0:0:0:
185,207,81611,1,0,1:0:0:0:
260,188,81784,1,0,0:0:0:0:
313,138,81957,22,0,P|360:84|336:168,1,240,0|8,1:0|0:0,0:0:0:0:
414,280,83171,1,0,0:0:0:0:
285,235,83345,1,0,1:0:0:0:
416,196,83518,1,0,0:0:0:0:
333,304,83691,6,0,B|292:328|252:312|252:312|238:350|198:362,1,160,4|0,0:0|0:0,0:0:0:0:
112,336,84212,1,0,0:0:0:0:
238,232,84385,2,0,P|253:308|198:362,1,160,0|0,1:0|0:0,0:0:0:0:
112,336,84905,6,0,P|97:260|152:206,1,160,2|2,0:0|0:0,0:0:0:0:
238,232,85426,1,0,0:0:0:0:
324,248,85599,1,0,0:0:0:0:
280,80,85772,2,0,P|244:98|221:130,1,80,0|0,1:0|1:0,0:0:0:0:
391,194,86119,2,0,P|393:152|377:117,1,80
184,200,86466,22,0,B|217:233|256:226|256:226|272:172|324:164,1,160
406,272,86986,1,0,0:0:0:0:
262,304,87160,2,0,P|252:265|256:225,1,80,0|0,1:0|0:0,0:0:0:0:
360,120,87507,1,2,0:0:0:0:
360,120,87680,6,0,P|420:151|369:196,1,160
272,188,88200,1,0,1:0:0:0:
208,260,88374,1,0,3:0:0:0:
208,260,88460,1,0,3:0:0:0:
208,260,88547,1,0,1:0:0:0:
120,200,88720,1,0,1:0:0:0:
296,312,88894,1,0,0:0:0:0:
192,120,89067,1,0,0:0:0:0:
208,260,89241,6,0,P|196:308|106:361,1,160,8|0,0:0|0:0,0:0:0:0:
105,260,89761,1,0,0:0:0:0:
284,324,89934,2,0,P|322:321|359:300,1,80,0|0,1:0|0:0,0:0:0:0:
216,96,90281,2,0,P|198:131|197:171,1,80,2|0,0:0|0:0,0:0:0:0:
208,260,90628,22,0,P|178:331|108:360,1,120,2|0,0:0|0:0,0:0:0:0:
104,360,90975,1,0,0:0:0:0:
106,259,91148,1,0,0:0:0:0:
304,280,91322,2,0,P|308:225|284:185,1,80,0|0,1:0|0:0,0:0:0:0:
207,146,91668,1,0,0:0:0:0:
207,146,91842,1,0,0:0:0:0:
284,279,92015,6,0,P|328:301|357:298,1,80,8|0,0:0|0:0,0:0:0:0:
356,156,92362,2,0,P|306:159|283:176,1,80,0|0,0:0|0:0,0:0:0:0:
415,208,92709,2,0,P|434:134|376:77,1,160,0|0,1:0|0:0,0:0:0:0:
336,228,93229,1,0,0:0:0:0:
220,74,93402,5,4,1:0:0:0:
316,136,93576,1,0,1:0:0:0:
316,136,93663,1,0,1:0:0:0:
316,136,93749,1,4,1:0:0:0:
159,170,93923,1,0,0:0:0:0:
316,136,94096,2,0,P|352:112|368:80,1,80,0|0,1:0|1:0,0:0:0:0:
254,231,94443,1,0,0:0:0:0:
288,60,94616,1,0,1:0:0:0:
358,316,94790,22,0,P|346:269|426:193,1,160,4|0,0:0|0:0,0:0:0:0:
488,226,95310,1,0,0:0:0:0:
270,315,95483,2,0,P|221:310|177:209,1,160,0|0,1:0|0:0,0:0:0:0:
172,312,96004,2,0,B|94:336|92:269|16:290,1,160,2|2,0:0|0:0,0:0:0:0:
40,372,96524,1,0,0:0:0:0:
140,232,96697,1,0,0:0:0:0:
0,133,96871,5,0,1:0:0:0:
40,220,97044,1,0,1:0:0:0:
96,140,97217,1,2,0:0:0:0:
184,98,97391,1,0,0:0:0:0:
281,106,97564,6,0,B|325:122|336:168|336:168|364:196|404:188,1,160,4|2,1:0|0:0,0:0:0:0:
196,216,98085,22,0,P|141:154|160:82,1,160,4|0,0:0|1:0,0:0:0:0:
228,48,98605,1,0,0:0:0:0:
336,164,98778,6,0,P|404:188|460:128,1,160,4|0,1:0|3:0,0:0:0:0:
459,131,99212,1,0,3:0:0:0:
459,131,99298,1,0,1:0:0:0:
440,260,99472,1,0,1:0:0:0:
336,164,99645,22,0,P|304:148|288:144,2,53.3333333333333,0|0|0,3:0|3:0|3:0,0:0:0:0:
440,260,99992,2,0,P|475:257|491:253,2,53.3333333333333,2|0|0,3:2|0:0|0:0,0:0:0:0:
360,244,100339,6,0,P|296:252|264:344,1,160,8|0,0:0|0:0,0:0:0:0:
380,164,100859,1,0,0:0:0:0:
336,356,101033,2,0,P|322:280|255:253,1,120,0|0,1:0|0:0,0:0:0:0:
252,248,101379,6,0,P|209:208|224:116,1,160,4|0,0:0|0:0,0:0:0:0:
284,172,101900,1,0,0:0:0:0:
128,224,102073,2,0,P|80:220|48:200,1,80,0|0,1:0|0:0,0:0:0:0:
188,288,102420,22,0,P|216:304|240:308,2,53.3333333333333,0|0|0,1:0|3:0|3:0,0:0:0:0:
108,304,102767,2,0,P|75:304|52:312,2,53.3333333333333,0|0|0,3:0|3:0|0:0,0:0:0:0:
244,228,103113,6,0,P|272:176|224:96,1,160,4|0,0:0|0:0,0:0:0:0:
119,189,103634,2,0,L|196:167,1,80,0|0,0:0|1:0,0:0:0:0:
344,124,103981,1,0,0:0:0:0:
244,228,104155,1,4,1:0:0:0:
256,28,104328,1,0,1:0:0:0:
500,320,104848,6,0,B|455:288|415:284|415:284|446:257|473:249|473:249|406:235|353:182,1,300.000011444092,8|0,0:0|0:0,0:0:0:0:
280,44,105888,6,0,P|354:36|381:106,1,160,4|0,0:0|0:0,0:0:0:0:
276,192,106408,1,0,0:0:0:0:
237,265,106582,2,0,P|233:304|249:339,1,80,0|0,1:0|0:0,0:0:0:0:
353,182,106928,1,0,0:0:0:0:
353,182,107102,22,0,P|315:123|229:130,1,160,4|0,1:0|0:0,0:0:0:0:
80,224,107622,2,0,P|37:230|2:217,1,80,0|0,1:0|0:0,0:0:0:0:
101,100,107969,38,0,L|132:144,2,53.3333333333333,0|0|0,1:0|3:0|3:0,0:0:0:0:
176,208,108316,2,0,L|212:260,2,53.3333333333333,0|0|0,3:0|3:0|3:0,0:0:0:0:
248,316,108663,6,0,B|292:328|328:308|328:308|340:268|379:252,1,160,4|0,0:0|0:0,0:0:0:0:
364,384,109183,1,0,0:0:0:0:
276,244,109356,6,0,L|229:176,1,80,0|0,1:0|0:0,0:0:0:0:
382,256,109703,1,0,0:0:0:0:
382,256,109876,2,0,P|456:220|456:148,1,160,4|0,1:0|0:0,0:0:0:0:
447,320,110397,5,0,1:0:0:0:
391,183,110570,2,0,P|372:183|353:189,1,40,0|0,1:0|0:0,0:0:0:0:
382,256,110744,21,0,3:0:0:0:
401,256,110830,1,0,3:0:0:0:
421,250,110917,1,0,3:0:0:0:
438,240,111004,1,0,3:0:0:0:
451,226,111090,1,0,0:0:0:0:
461,208,111177,1,0,0:0:0:0:
465,189,111264,1,0,0:0:0:0:
463,169,111350,1,0,0:0:0:0:
457,150,111437,5,4,1:0:0:0:
512,287,111611,1,0,0:0:0:0:
397,110,111957,5,0,1:0:0:0:
397,110,112044,1,0,3:0:0:0:
397,110,112131,1,4,3:1:0:0:
512,199,112304,1,0,1:0:0:0:
397,110,112478,1,0,0:0:0:0:
378,255,112651,22,0,P|346:309|256:329,1,160,4|0,0:2|0:0,0:0:0:0:
255,328,113085,1,0,0:0:0:0:
255,328,113171,1,0,1:0:0:0:
426,353,113345,1,0,3:0:0:0:
255,328,113518,38,0,L|203:321,2,53.3333333333333,4|0|0,1:0|3:0|3:0,0:0:0:0:
426,353,113865,2,0,L|478:360,2,53.3333333333333,0|0|0,3:0|3:0|3:0,0:0:0:0:
205,232,114212,5,4,0:2:0:0:
340,339,114385,1,0,0:0:0:0:
209,123,114732,5,0,1:0:0:0:
209,123,114818,1,0,3:0:0:0:
209,123,114905,1,4,3:1:0:0:
272,283,115078,1,0,1:0:0:0:
209,123,115252,1,0,0:0:0:0:
380,149,115426,6,0,P|429:142|481:95,1,120,4|0,0:0|0:0,0:0:0:0:
480,96,115772,1,0,1:0:0:0:
386,226,115946,1,0,1:0:0:0:
321,79,116119,1,0,3:0:0:0:
321,79,116206,1,0,0:0:0:0:
321,79,116293,2,0,P|335:136|205:125,1,240.000009155274,8|4,0:0|0:0,0:0:0:0:
256,192,117073,12,0,119587,0:0:0:0:
