osu file format v14

[General]
AudioFilename: title.mp3
AudioLeadIn: 0
PreviewTime: 82993
Countdown: 0
SampleSet: None
StackLeniency: 0.5
Mode: 0
LetterboxInBreaks: 0
WidescreenStoryboard: 0

[Editor]
Bookmarks: 69283
DistanceSpacing: 0.5
BeatDivisor: 8
GridSize: 4
TimelineZoom: 2.5

[Metadata]
Title:Azurite no Hitsugi
TitleUnicode:アズライトの棺
Artist:Ayane
ArtistUnicode:アヤネ
Creator:imoutosan
Version:Misure's Hard
Source:水葬銀貨のイストリア
Tags:suisouginka めと meto metomate uguisukagura ウグイスカグラ visual novel eroge PinkHeart KaedekaShizuru Misure
BeatmapID:1252487
BeatmapSetID:546149

[Difficulty]
HPDrainRate:5
CircleSize:3.8
OverallDifficulty:5.5
ApproachRate:7.5
SliderMultiplier:1.8
SliderTickRate:1

[Events]
//Background and Video events
Video,0,"optc.flv"
0,0,"bg_m.jpg",0,0
//Break Periods
//Storyboard Layer 0 (Background)
//Storyboard Layer 1 (Fail)
//Storyboard Layer 2 (Pass)
//Storyboard Layer 3 (Foreground)
//Storyboard Sound Samples

[TimingPoints]
455,693.64161849711,4,2,1,35,1,0
22651,-80,4,3,1,70,0,0
33749,-80,4,2,1,60,0,0
39298,-100,4,2,1,35,0,0
61495,-90.9090909090909,4,2,1,45,0,0
72593,-90.9090909090909,4,2,1,50,0,0
78142,-90.9090909090909,4,2,1,55,0,0
80917,-83.3333333333333,4,2,1,60,0,0
81957,-100,4,2,1,45,0,0
82824,-100,4,2,1,55,0,0
82998,-84.7457627118644,4,2,1,65,0,0
83691,-80,4,2,1,75,0,1
93402,-80,4,2,1,80,0,0
94790,-80,4,2,1,75,0,1
103027,-80,4,2,1,35,0,1
103113,-80,4,2,1,75,0,1
104327,-100,4,2,1,65,0,0
105888,-80,4,2,1,75,0,1
116986,-100,4,2,1,55,0,0
117680,-100,4,2,1,45,0,0
118374,-100,4,2,1,35,0,0
119067,-100,4,2,1,25,0,0
119587,-100,4,2,1,15,0,0

[Colours]
Combo1 : 235,245,255
Combo2 : 255,128,255
Combo3 : 255,128,192
Combo4 : 255,128,128

[HitObjects]
240,104,455,6,0,P|246:148|230:190,1,90,2|0,0:0|0:0,0:0:0:0:
143,236,1148,1,0,0:0:0:0:
145,138,1495,1,0,0:0:0:0:
230,189,1842,1,8,0:0:0:0:
384,40,2536,1,0,0:0:0:0:
496,224,3229,6,0,P|490:257|476:312,2,90,2|0|0,0:0|0:0|0:0,0:0:0:0:
436,148,4270,1,0,0:0:0:0:
344,184,4617,2,0,P|320:267|371:338,1,180,8|0,0:0|0:0,0:0:0:0:
136,344,6004,6,0,P|91:337|49:353,2,90,2|0|0,0:0|0:0|0:0,0:0:0:0:
204,272,7044,1,0,0:0:0:0:
129,206,7391,1,8,0:0:0:0:
224,12,8085,1,0,0:0:0:0:
436,72,8779,22,0,P|438:155|358:180,1,180,2|0,0:0|0:0,0:0:0:0:
140,164,10166,2,0,P|152:254|165:341,1,180,2|2,0:0|0:0,0:0:0:0:
396,300,11553,6,0,P|439:289|484:282,2,90,2|0|0,0:0|0:0|0:0,0:0:0:0:
332,224,12594,1,0,0:0:0:0:
392,144,12940,1,8,0:0:0:0:
512,324,13634,1,2,0:0:0:0:
296,328,14327,6,0,P|280:285|287:241,1,90,2|0,0:0|0:0,0:0:0:0:
372,188,15021,1,0,0:0:0:0:
324,100,15368,1,0,0:0:0:0:
236,148,15715,1,8,0:0:0:0:
64,16,16409,1,0,0:0:0:0:
0,240,17102,22,0,P|103:254|178:259,1,180,10|0,0:0|0:0,0:0:0:0:
332,80,18489,2,0,P|242:86|153:99,1,180,8|0,0:0|0:0,0:0:0:0:
272,316,19877,5,8,0:0:0:0:
256,192,20050,12,0,21957,0:0:0:0:
396,76,22651,6,0,P|407:130|391:184,1,112.5,4|0,1:0|0:0,0:0:0:0:
211,179,23345,2,0,P|195:125|206:70,1,112.5,0|0,0:0|0:0,0:0:0:0:
396,76,24038,2,0,P|370:87|342:88,1,56.25,8|0,0:2|0:0,0:0:0:0:
283,20,24385,1,0,0:0:0:0:
206,71,24559,2,0,P|197:118|189:182,1,112.5,8|0,0:0|0:0,0:0:0:0:
236,260,25079,2,0,P|210:271|182:272,1,56.25,8|0,0:2|0:0,0:0:0:0:
102,227,25426,22,0,P|94:281|117:332,1,112.5,4|0,0:1|0:0,0:0:0:0:
182,272,25946,1,0,0:0:0:0:
240,203,26120,2,0,P|300:209|351:220,1,112.5
412,284,26640,1,0,0:0:0:0:
483,227,26813,6,0,P|505:176|497:121,1,112.5,4|0,0:0|0:0,0:0:0:0:
419,166,27333,1,4,0:0:0:0:
361,97,27507,2,0,P|320:101|249:114,1,112.5,8|0,0:0|0:0,0:0:0:0:
41,43,28200,6,0,P|55:95|104:120,1,112.5,4|0,0:1|0:0,0:0:0:0:
178,59,28721,1,0,0:0:0:0:
250,114,28894,2,0,P|243:164|232:225,1,112.5,8|0,0:0|0:0,0:0:0:0:
294,291,29414,1,4,0:0:0:0:
362,235,29587,22,0,P|383:183|374:128,1,112.5,8|0,0:2|0:0,0:0:0:0:
319,56,30108,1,0,0:0:0:0:
250,114,30281,2,0,P|196:127|143:110,1,112.5,4|0,0:0|0:0,0:0:0:0:
86,183,30802,1,0,0:0:0:0:
144,252,30975,6,0,P|210:242|260:236,1,112.5,4|0,0:1|0:0,0:0:0:0:
312,308,31495,1,0,0:0:0:0:
260,380,31668,2,0,P|222:376|148:365,1,112.5,8|0,0:0|0:0,0:0:0:0:
76,312,32189,1,4,0:0:0:0:
144,252,32362,6,0,P|134:196|128:140,1,112.5,4|0,0:0|0:0,0:0:0:0:
204,88,32883,1,4,0:0:0:0:
276,144,33056,2,0,P|272:185|261:255,1,112.5,4|0,0:0|0:0,0:0:0:0:
192,320,33576,1,0,0:0:0:0:
192,320,33663,1,0,0:0:0:0:
192,320,33749,22,0,L|303:306,1,112.5,4|0,0:0|0:0,0:0:0:0:
356,232,34270,1,0,0:0:0:0:
424,288,34443,2,0,P|425:316|421:343,1,56.25,0|0,1:0|1:0,0:0:0:0:
356,232,34790,6,0,P|434:248|483:185,1,168.75,4|0,0:0|0:0,0:0:0:0:
405,121,35483,2,0,P|403:149|407:176,1,56.25,0|0,1:0|0:0,0:0:0:0:
484,88,35831,1,8,0:0:0:0:
484,88,36004,1,0,0:0:0:0:
444,4,36177,1,0,1:0:0:0:
444,4,36351,1,0,1:0:0:0:
352,60,36524,6,0,P|297:64|241:56,1,112.5,4|0,0:0|0:0,0:0:0:0:
168,4,37044,1,0,0:0:0:0:
92,56,37218,2,0,P|95:83|103:110,1,56.25,0|0,1:0|1:0,0:0:0:0:
175,159,37565,22,0,P|97:156|78:231,1,168.75,4|0,0:0|0:0,0:0:0:0:
128,308,38258,2,0,P|155:304|182:296,1,56.25,2|0,0:0|0:0,0:0:0:0:
244,228,38605,2,0,P|271:230|298:239,1,56.25
360,308,38952,1,0,0:0:0:0:
396,140,39299,6,0,P|395:117|389:95,2,45,8|0|0,0:0|0:0|0:0,0:0:0:0:
304,156,39819,1,0,0:0:0:0:
332,368,40339,2,0,P|354:367|376:361,1,45,2|0,0:0|0:0,0:0:0:0:
409,281,40686,2,0,P|366:265|322:257,1,90,0|2,0:0|0:0,0:0:0:0:
152,252,41380,2,0,P|160:296|175:338,1,90
258,363,41900,1,2,0:0:0:0:
316,301,42073,6,0,P|322:276|322:256,1,45,8|0,0:0|0:0,0:0:0:0:
328,172,42420,1,0,0:0:0:0:
41,208,43113,2,0,P|34:186|34:163,1,45,0|0,0:0|0:0,0:0:0:0:
103,116,43460,2,0,P|147:116|192:124,1,90,2|0,0:0|0:0,0:0:0:0:
328,188,44154,2,0,P|327:210|320:231,1,45
261,293,44501,2,0,P|261:315|268:336,1,45,0|0,0:0|0:0,0:0:0:0:
344,376,44848,22,0,P|370:369|386:362,2,45
268,336,45368,1,0,0:0:0:0:
352,132,45888,2,0,P|374:133|396:139,1,45,2|0,0:0|0:0,0:0:0:0:
481,141,46235,2,0,P|496:98|504:54,1,90,0|0,0:0|0:0,0:0:0:0:
352,132,46928,2,0,P|360:176|375:218,1,90,2|0,0:0|0:0,0:0:0:0:
456,248,47449,1,0,0:0:0:0:
412,324,47622,6,0,P|405:345|403:367,2,45,8|0|0,0:0|0:0|0:0,0:0:0:0:
360,40,48663,2,0,P|338:41|316:47,1,45,0|0,0:0|0:0,0:0:0:0:
256,108,49009,2,0,P|211:99|169:84,1,90,2|0,0:0|0:0,0:0:0:0:
16,164,49703,2,0,P|17:186|24:207,1,45,0|0,0:0|0:0,0:0:0:0:
112,208,50050,2,0,P|119:186|119:164,1,45,2|8,0:0|0:0,0:0:0:0:
84,84,50397,6,0,P|62:83|41:76,2,45,0|0|0,0:0|0:0|0:0,0:0:0:0:
169,84,50917,1,2,0:0:0:0:
324,236,51437,2,0,P|323:258|316:279,1,45,0|0,0:0|0:0,0:0:0:0:
252,340,51784,2,0,P|295:328|340:324,1,90,2|0,0:0|0:0,0:0:0:0:
332,152,52478,2,0,P|288:140|243:136,1,90,0|2,0:0|0:0,0:0:0:0:
168,180,52998,1,0,0:0:0:0:
220,248,53172,22,0,P|217:268|212:292,1,45,8|0,0:0|0:0,0:0:0:0:
196,376,53518,1,0,0:0:0:0:
0,164,54212,2,0,P|21:156|43:155,1,45,0|0,0:0|0:0,0:0:0:0:
92,228,54559,2,0,P|135:239|180:243,1,90,2|0,0:0|0:0,0:0:0:0:
240,84,55252,2,0,P|238:61|231:40,2,45,0|0|0,0:0|0:0|0:0,0:0:0:0:
88,162,55946,6,0,P|68:160|43:155,2,45,8|0|0,0:0|0:0|0:0,0:0:0:0:
172,164,56466,1,0,0:0:0:0:
284,360,56986,2,0,P|262:367|240:368,1,45,0|0,0:0|0:0,0:0:0:0:
160,344,57333,2,0,P|148:300|144:255,1,90,0|0,0:0|0:0,0:0:0:0:
268,136,58027,2,0,P|263:180|252:224,1,90,0|0,0:0|0:0,0:0:0:0:
316,284,58547,1,0,0:0:0:0:
392,244,58720,6,0,P|413:251|435:252,2,45,8|0|0,0:0|0:0|0:0,0:0:0:0:
380,160,59241,1,0,0:0:0:0:
228,8,59761,2,0,P|229:30|236:51,1,45,0|0,0:0|0:0,0:0:0:0:
180,116,60108,2,0,P|135:111|91:100,1,90,2|0,0:0|0:0,0:0:0:0:
0,244,60801,2,0,P|21:236|43:235,1,45,8|0,0:0|0:0,0:0:0:0:
96,304,61148,2,0,P|117:311|139:312,1,45,0|0,0:0|3:0,0:0:0:0:
224,280,61495,22,0,L|241:182,1,99.0000030212403,8|0,0:0|0:0,0:0:0:0:
316,132,62016,1,0,0:0:0:0:
380,196,62189,2,0,P|384:245|371:292,1,99.0000030212403,2|0,0:0|0:0,0:0:0:0:
293,336,62709,1,0,0:0:0:0:
223,279,62883,6,0,P|199:280|175:286,1,49.5000015106202
243,191,63229,2,0,P|268:197|292:197,1,49.5000015106202
224,100,63576,2,0,P|174:104|126:114,1,99.0000030212403,2|0,0:0|0:0,0:0:0:0:
64,296,64270,6,0,P|107:318|155:313,2,99.0000030212403,0|0|2,0:0|0:0|0:0,0:0:0:0:
80,208,65137,1,0,0:0:0:0:
48,124,65310,2,0,P|41:92|40:76,1,49.5000015106202
120,16,65657,21,8,0:0:0:0:
120,16,65831,1,0,0:0:0:0:
196,68,66004,2,0,P|196:92|188:115,1,49.5000015106202,0|0,0:0|0:0,0:0:0:0:
132,192,66351,2,0,P|174:201|229:206,1,99.0000030212403,2|0,0:0|0:0,0:0:0:0:
404,64,67044,6,0,P|361:40|313:47,1,99.0000030212403,0|0,0:0|0:0,0:0:0:0:
264,124,67565,1,0,0:0:0:0:
320,192,67738,2,0,P|366:186|417:176,1,99.0000030212403,2|0,0:0|0:0,0:0:0:0:
484,236,68258,1,0,0:0:0:0:
452,320,68431,6,0,P|421:314|402:307,1,49.5000015106202
268,347,68778,2,0,P|292:342|315:335,1,49.5000015106202
340,248,69125,2,0,P|340:198|336:149,1,99.0000030212403,2|0,0:0|0:0,0:0:0:0:
152,68,69819,22,0,P|131:112|141:160,2,99.0000030212403,0|0|2,0:0|0:0|0:0,0:0:0:0:
232,32,70686,1,0,0:0:0:0:
304,84,70859,2,0,P|302:102|297:133,1,49.5000015106202,0|0,0:0|0:0,0:0:0:0:
240,224,71206,5,8,0:0:0:0:
240,224,71380,1,0,0:0:0:0:
151,207,71553,2,0,P|145:183|141:159,1,49.5000015106202,0|0,0:0|0:0,0:0:0:0:
52,144,71900,2,0,P|41:191|55:239,1,99.0000030212403,2|0,0:0|0:0,0:0:0:0:
268,348,72594,6,0,P|228:356|170:365,1,99.0000030212403,8|0,0:0|0:0,0:0:0:0:
243,255,73113,2,0,P|292:261|341:273,1,99.0000030212403,0|0,0:0|0:0,0:0:0:0:
416,328,73634,1,2,0:0:0:0:
416,328,73807,1,0,0:0:0:0:
458,239,73981,22,0,P|457:214|452:190,1,49.5000015106202
370,155,74327,2,0,P|348:167|330:184,1,49.5000015106202,0|0,0:0|0:0,0:0:0:0:
341,273,74674,2,0,P|362:285|386:292,1,49.5000015106202,2|0,0:0|0:0,0:0:0:0:
458,239,75021,1,0,1:0:0:0:
385,57,75368,6,0,P|374:105|370:155,1,99.0000030212403,8|0,0:0|0:0,0:0:0:0:
288,240,75888,2,0,P|281:185|273:142,1,99.0000030212403,0|0,0:0|0:0,0:0:0:0:
200,88,76409,1,2,0:0:0:0:
200,88,76582,1,0,0:0:0:0:
136,148,76755,6,0,P|136:172|144:195,1,49.5000015106202
288,240,77102,2,0,P|263:242|239:235,1,49.5000015106202,8|0,0:0|0:0,0:0:0:0:
135,318,77449,2,0,P|159:320|183:313,1,49.5000015106202
288,240,77796,1,0,1:0:0:0:
314,324,77969,1,0,1:0:0:0:
405,287,78143,22,0,P|421:240|415:191,1,99.0000030212403,4|0,0:0|0:0,0:0:0:0:
352,128,78663,1,0,0:0:0:0:
412,60,78836,2,0,P|431:61|460:67,1,49.5000015106202,0|0,1:0|0:0,0:0:0:0:
416,192,79183,1,0,0:0:0:0:
416,192,79357,1,0,0:0:0:0:
311,203,79530,6,0,P|276:169|265:122,1,99.0000030212403,2|0,0:0|1:0,0:0:0:0:
256,24,80050,1,0,0:0:0:0:
172,68,80224,2,0,P|167:86|164:116,1,49.5000015106202,0|0,0:0|1:0,0:0:0:0:
161,208,80570,1,0,1:0:0:0:
192,288,80744,1,0,0:0:0:0:
84,260,80917,6,0,P|67:209|79:157,1,107.999996704102,4|0,0:0|0:0,0:0:0:0:
164,116,81438,1,0,0:0:0:0:
240,172,81611,2,0,P|239:197|234:225,1,53.9999983520508,0|0,1:0|0:0,0:0:0:0:
339,196,81958,22,0,P|365:117|291:81,1,180,0|0,1:0|0:0,0:0:0:0:
240,172,82825,5,0,0:0:0:0:
240,172,82912,1,0,0:0:0:0:
240,172,82998,2,0,P|241:198|246:224,1,53.0999981364442,8|0,0:0|0:0,0:0:0:0:
339,196,83345,2,0,P|364:187|387:174,1,53.0999981364442,0|0,1:0|0:0,0:0:0:0:
364,72,83692,6,0,P|308:65|253:77,1,112.5,4|0,0:0|0:0,0:0:0:0:
180,140,84212,1,0,0:0:0:0:
104,80,84385,2,0,P|97:54|96:26,2,56.25,0|0|0,1:0|0:0|0:0,0:0:0:0:
180,140,84906,22,0,P|183:195|167:249,1,112.5,2|2,0:0|0:0,0:0:0:0:
80,308,85426,2,0,P|72:280|69:253,1,56.25
172,348,85773,1,0,1:0:0:0:
172,348,85946,1,0,1:0:0:0:
221,238,86119,2,0,P|194:241|167:249,1,56.25
124,128,86466,6,0,P|176:148|231:141,1,112.5,0|0,0:0|0:0,0:0:0:0:
308,84,86987,1,0,0:0:0:0:
373,158,87160,2,0,P|376:174|375:214,2,56.25,0|0|2,1:0|0:0|0:0,0:0:0:0:
231,140,87680,6,0,P|223:195|242:247,1,112.5,0|0,0:0|0:0,0:0:0:0:
321,306,88201,1,0,1:0:0:0:
397,250,88374,1,0,0:0:0:0:
373,158,88547,2,0,P|346:150|318:147,1,56.25,0|0,1:0|1:0,0:0:0:0:
397,250,88894,2,0,P|424:246|451:239,1,56.25,0|0,0:0|0:0,0:0:0:0:
500,157,89241,22,0,L|513:45,1,112.5,8|0,0:0|0:0,0:0:0:0:
429,0,89761,1,0,0:0:0:0:
348,48,89935,2,0,P|345:75|351:103,1,56.25,0|0,1:0|0:0,0:0:0:0:
304,184,90281,1,2,0:0:0:0:
304,184,90455,1,0,0:0:0:0:
227,120,90628,6,0,P|199:119|172:113,2,56.25,2|0|0,0:0|0:0|0:0,0:0:0:0:
264,28,91148,2,0,P|208:17|152:16,1,112.5,0|0,0:0|1:0,0:0:0:0:
56,20,91669,1,0,0:0:0:0:
12,104,91842,1,0,0:0:0:0:
64,184,92016,6,0,P|117:197|170:178,1,112.5,8|0,0:0|0:0,0:0:0:0:
264,152,92536,1,0,0:0:0:0:
264,152,92709,2,0,P|267:179|261:207,1,56.25,0|0,1:0|1:0,0:0:0:0:
192,276,93056,1,0,0:0:0:0:
264,336,93229,1,0,0:0:0:0:
336,268,93402,22,0,P|363:264|391:266,1,56.25,4|0,1:0|0:0,0:0:0:0:
507,338,93749,2,0,P|479:341|451:339,1,56.25,4|0,1:0|0:0,0:0:0:0:
391,266,94096,1,0,1:0:0:0:
448,188,94270,1,0,1:0:0:0:
392,112,94443,2,0,P|364:109|336:113,1,56.25,0|0,0:0|1:0,0:0:0:0:
173,153,94790,6,0,P|219:185|275:187,1,112.5,4|0,0:0|0:0,0:0:0:0:
336,113,95310,1,0,0:0:0:0:
260,52,95484,2,0,P|231:52|204:60,1,56.25,0|0,1:0|0:0,0:0:0:0:
173,153,95830,1,0,0:0:0:0:
80,132,96004,6,0,L|68:20,1,112.5,2|2,0:0|0:0,0:0:0:0:
173,153,96524,2,0,L|166:208,1,56.25,0|0,0:0|0:0,0:0:0:0:
96,272,96871,1,0,1:0:0:0:
96,272,97044,1,0,1:0:0:0:
152,348,97218,2,0,P|180:347|207:339,1,56.25,2|0,0:0|0:0,0:0:0:0:
356,264,97565,22,0,P|304:244|250:258,1,112.5,4|2,1:0|0:0,0:0:0:0:
300,344,98085,2,0,P|351:363|405:349,1,112.5,4|0,0:0|1:0,0:0:0:0:
448,264,98605,1,0,0:0:0:0:
354,152,98779,6,0,P|350:208|356:264,1,112.5,4|0,1:0|0:0,0:0:0:0:
456,164,99299,1,0,1:0:0:0:
412,80,99472,1,0,1:0:0:0:
353,152,99646,2,0,P|324:152|297:145,1,56.25,0|0,3:0|0:0,0:0:0:0:
196,66,99992,2,0,P|223:59|251:59,1,56.25,2|0,3:2|0:0,0:0:0:0:
144,144,100339,6,0,P|89:135|51:95,1,112.5,8|0,0:0|0:0,0:0:0:0:
196,66,100859,1,0,0:0:0:0:
260,136,101033,2,0,P|266:163|266:191,1,56.25,0|0,1:0|0:0,0:0:0:0:
180,244,101380,22,0,P|235:237|291:228,1,112.5,4|0,0:0|0:0,0:0:0:0:
376,180,101900,1,0,0:0:0:0:
448,244,102073,2,0,P|448:272|441:299,1,56.25,0|0,1:0|0:0,0:0:0:0:
364,356,102420,2,0,P|335:356|308:349,1,56.25,0|0,1:0|0:0,0:0:0:0:
251,274,102767,2,0,P|256:232|265:191,1,84.375,0|0,3:0|0:0,0:0:0:0:
265,191,103114,6,0,P|222:193|153:200,1,112.5,4|0,0:0|0:0,0:0:0:0:
83,267,103634,2,0,P|84:295|91:323,2,56.25,0|0|0,0:0|1:0|0:0,0:0:0:0:
152,200,104154,1,4,1:0:0:0:
104,116,104328,1,0,1:0:0:0:
452,64,105888,6,0,P|462:117|431:162,1,112.5,4|0,0:0|0:0,0:0:0:0:
344,120,106409,1,0,0:0:0:0:
250,139,106582,2,0,P|248:167|249:195,2,56.25,0|0|0,1:0|0:0|0:0,0:0:0:0:
312,244,107102,22,0,P|256:249|200:258,1,112.5,4|0,1:0|0:0,0:0:0:0:
148,340,107622,1,0,1:0:0:0:
148,340,107796,1,0,0:0:0:0:
60,300,107969,2,0,P|54:272|52:244,1,56.25,0|0,1:0|0:0,0:0:0:0:
124,180,108316,2,0,P|129:152|131:124,1,56.25,0|0,3:0|0:0,0:0:0:0:
24,36,108663,6,0,P|12:89|36:138,1,112.5,4|0,0:0|0:0,0:0:0:0:
131,124,109183,1,0,0:0:0:0:
216,172,109357,2,0,P|247:167|272:168,2,56.25,0|0|0,1:0|0:0|0:0,0:0:0:0:
200,60,109877,6,0,P|253:76|309:80,1,112.5,4|0,1:0|0:0,0:0:0:0:
396,36,110397,1,0,1:0:0:0:
476,88,110570,1,0,1:0:0:0:
380,188,110744,2,0,P|383:160|391:133,1,56.25,0|0,0:0|0:0,0:0:0:0:
479,189,111091,1,0,0:0:0:0:
479,189,111264,1,0,0:0:0:0:
431,281,111438,22,0,P|403:286|375:284,1,56.25,4|0,1:0|0:0,0:0:0:0:
220,196,111958,1,0,1:0:0:0:
220,196,112044,1,0,3:0:0:0:
220,196,112131,2,0,P|228:222|239:248,1,56.25,4|0,3:1|1:0,0:0:0:0:
328,212,112478,1,0,0:0:0:0:
296,336,112651,6,0,P|241:350|185:352,1,112.5,4|0,0:2|0:0,0:0:0:0:
92,324,113172,1,0,1:0:0:0:
92,324,113345,1,0,3:0:0:0:
132,236,113518,22,0,L|123:199,2,37.5,4|0|0,1:0|3:0|3:0,0:0:0:0:
167,208,113865,2,0,L|175:171,2,37.5,0|0|0,3:0|3:0|3:0,0:0:0:0:
207,228,114212,6,0,P|206:256|212:284,1,56.25,4|0,0:2|0:0,0:0:0:0:
300,72,114732,1,0,1:0:0:0:
300,72,114818,1,0,3:0:0:0:
300,72,114905,2,0,P|273:80|247:91,1,56.25,4|0,3:1|1:0,0:0:0:0:
284,180,115252,1,0,0:0:0:0:
160,136,115425,6,0,P|145:81|143:25,1,112.5,4|0,0:0|1:0,0:0:0:0:
259,36,115946,2,0,P|255:63|247:90,1,56.25,0|0,1:0|3:0,0:0:0:0:
48,148,116293,2,0,P|103:137|160:136,1,112.5,8|0,0:0|0:0,0:0:0:0:
256,304,116987,5,4,0:0:0:0:
256,192,117160,12,0,119587,0:0:0:0:
