osu file format v14

[General]
AudioFilename: title.mp3
AudioLeadIn: 0
PreviewTime: 82993
Countdown: 0
SampleSet: Soft
StackLeniency: 0.5
Mode: 0
LetterboxInBreaks: 0
WidescreenStoryboard: 1

[Editor]
Bookmarks: 22636,24023,25411,26798,28185,29572,30960,32347
DistanceSpacing: 1
BeatDivisor: 8
GridSize: 4
TimelineZoom: 1.7

[Metadata]
Title:Azurite no Hitsugi
TitleUnicode:アズライトの棺
Artist:Ayane
ArtistUnicode:アヤネ
Creator:imoutosan
Version:Kaedeka's Extra
Source:水葬銀貨のイストリア
Tags:suisouginka めと meto metomate uguisukagura ウグイスカグラ visual novel eroge PinkHeart KaedekaShizuru Misure
BeatmapID:1283517
BeatmapSetID:546149

[Difficulty]
HPDrainRate:7
CircleSize:4
OverallDifficulty:7.5
ApproachRate:9.2
SliderMultiplier:2
SliderTickRate:1

[Events]
//Background and Video events
Video,0,"optc.flv"
0,0,"bg_k.jpg",0,0
//Break Periods
//Storyboard Layer 0 (Background)
//Storyboard Layer 1 (Fail)
//Storyboard Layer 2 (Pass)
//Storyboard Layer 3 (Foreground)
//Storyboard Sound Samples

[TimingPoints]
455,693.64161849711,4,2,1,28,1,0
801,-100,4,2,1,20,0,0
1148,-100,4,2,1,22,0,0
1495,-100,4,2,1,24,0,0
1842,-100,4,2,1,26,0,0
2535,-100,4,2,1,20,0,0
3229,-100,4,2,1,24,0,0
3576,-100,4,2,1,16,0,0
3923,-100,4,2,1,18,0,0
4270,-100,4,2,1,20,0,0
4616,-100,4,2,1,22,0,0
5310,-100,4,2,1,16,0,0
6004,-100,4,2,1,26,0,0
6350,-100,4,2,1,18,0,0
6697,-100,4,2,1,20,0,0
7044,-100,4,2,1,22,0,0
7391,-100,4,2,1,24,0,0
8085,-100,4,2,1,18,0,0
8778,-100,4,2,1,30,0,0
9472,-100,4,2,1,25,0,0
10165,-100,4,2,1,20,0,0
10859,-100,4,2,1,10,0,0
11553,-100,4,2,1,22,0,0
11900,-100,4,2,1,18,0,0
12246,-100,4,2,1,20,0,0
12593,-100,4,2,1,22,0,0
12940,-100,4,2,1,24,0,0
13634,-100,4,2,1,18,0,0
14327,-100,4,2,1,30,0,0
14674,-100,4,2,1,22,0,0
15021,-100,4,2,1,24,0,0
15368,-100,4,2,1,27,0,0
15715,-100,4,2,1,30,0,0
16061,-100,4,2,1,22,0,0
16408,-100,4,2,1,24,0,0
16755,-100,4,2,1,27,0,0
17102,-100,4,2,1,35,0,0
21871,-100,4,2,1,5,0,0
21957,-100,4,2,1,35,0,0
22651,-62.5,4,3,1,70,0,0
22738,-62.5,4,3,1,60,0,0
24559,-58.8235294117647,4,3,1,60,0,0
30281,-51.2820512820513,4,3,1,60,0,0
31668,-58.8235294117647,4,3,1,60,0,0
32362,-100,4,3,1,60,0,0
33056,-57.1428571428571,4,3,1,60,0,0
33749,-83.3333333333333,4,2,1,60,0,0
34790,-125,4,2,1,60,0,0
35310,-83.3333333333333,4,2,1,60,0,0
36524,-125,4,2,1,60,0,0
37391,-83.3333333333333,4,2,1,60,0,0
40339,-100,4,2,1,20,0,0
52998,-100,4,2,1,10,0,0
53171,-100,4,2,1,20,0,0
60108,-100,4,2,1,30,0,0
61495,-58.8235294117647,4,2,1,40,0,0
74674,-58.8235294117647,4,2,1,45,0,0
75368,-58.8235294117647,4,2,1,50,0,0
76755,-58.8235294117647,4,2,1,55,0,0
78142,-58.8235294117647,4,2,1,60,0,0
80223,-58.8235294117647,4,2,1,70,0,0
81957,-100,4,2,1,60,0,0
83691,-55.5555555555556,4,2,1,70,0,1
93402,-55.5555555555556,4,2,1,80,0,0
94790,-55.5555555555556,4,2,1,70,0,1
97564,-55.5555555555556,4,2,1,80,0,1
103113,-66.6666666666667,4,2,1,80,0,1
104327,-66.6666666666667,4,2,1,80,0,0
104848,-111.111111111111,4,2,1,80,0,0
105888,-55.5555555555556,4,2,1,80,0,1
111437,-55.5555555555556,4,2,1,85,0,1
114212,-55.5555555555556,4,2,1,90,0,1
116293,-55.5555555555556,4,2,1,80,0,1
116900,-55.5555555555556,4,2,1,5,0,1
116986,-100,4,2,1,60,0,0
117073,-100,4,2,1,5,0,0

[Colours]
Combo1 : 235,245,255
Combo2 : 0,255,255
Combo3 : 255,0,0
Combo4 : 255,91,145
Combo5 : 255,128,0

[HitObjects]
71,108,455,5,2,0:0:0:0:
97,181,801,1,0,0:0:0:0:
175,195,1148,1,0,0:0:0:0:
227,134,1495,1,0,0:0:0:0:
199,59,1842,1,8,0:0:0:0:
121,46,2535,5,0,0:0:0:0:
387,220,3229,5,2,0:0:0:0:
365,278,3576,1,0,0:0:0:0:
303,289,3923,1,0,0:0:0:0:
261,241,4270,1,0,0:0:0:0:
284,181,4616,1,8,0:0:0:0:
346,171,5310,5,0,0:0:0:0:
108,244,6004,21,2,0:0:0:0:
96,311,6350,1,0,0:0:0:0:
150,357,6697,1,0,0:0:0:0:
217,334,7044,1,0,0:0:0:0:
231,265,7391,1,8,0:0:0:0:
176,224,8085,5,0,0:0:0:0:
71,31,8778,5,2,0:0:0:0:
3,98,9472,1,0,0:0:0:0:
27,191,10165,1,2,0:0:0:0:
120,216,10859,1,2,0:0:0:0:
348,104,11553,5,2,0:0:0:0:
367,28,11900,1,0,0:0:0:0:
440,8,12246,1,0,0:0:0:0:
495,64,12593,1,0,0:0:0:0:
476,136,12940,1,8,0:0:0:0:
399,156,13634,21,2,0:0:0:0:
192,172,14327,5,2,0:0:0:0:
129,246,14674,1,0,0:0:0:0:
162,337,15021,1,0,0:0:0:0:
258,353,15368,1,0,0:0:0:0:
320,279,15715,5,8,0:0:0:0:
258,353,16061,1,0,0:0:0:0:
162,337,16408,1,0,0:0:0:0:
129,246,16755,1,0,0:0:0:0:
288,188,17102,5,10,0:0:0:0:
288,188,18489,1,8,0:0:0:0:
256,192,19876,12,0,21871,0:0:0:0:
176,152,21957,38,0,L|200:140,7,25
236,128,22651,5,4,1:0:0:0:
276,128,22738,1,0,0:0:0:0:
312,140,22824,1,0,0:0:0:0:
348,160,22911,1,0,0:0:0:0:
380,188,22998,1,0,0:0:0:0:
420,200,23085,1,0,0:0:0:0:
460,200,23171,2,0,P|485:190|499:178,1,40,0|0,0:0|0:0,0:0:0:0:
440,320,23345,5,0,0:0:0:0:
399,314,23431,1,0,0:0:0:0:
361,295,23518,1,0,0:0:0:0:
336,265,23605,1,0,0:0:0:0:
326,226,23691,1,0,0:0:0:0:
328,188,23778,1,0,0:0:0:0:
348,154,23865,2,0,P|360:138|381:124,1,40
342,57,24038,21,8,0:2:0:0:
314,72,24125,1,0,0:0:0:0:
290,95,24212,1,0,0:0:0:0:
275,123,24298,1,0,0:0:0:0:
270,157,24385,2,0,P|272:175|297:215,1,40
418,213,24559,5,8,0:0:0:0:
428,249,24645,1,0,0:0:0:0:
425,289,24732,1,0,0:0:0:0:
403,321,24819,1,0,0:0:0:0:
371,339,24905,2,0,P|346:344|327:338,1,42.5000008106232
235,227,25079,5,4,0:0:0:0:
210,192,25165,1,0,0:0:0:0:
175,166,25252,2,0,P|146:152|111:148,1,42.5000008106232,0|0,0:0|0:0,0:0:0:0:
14,253,25426,5,4,0:1:0:0:
43,276,25512,1,0,0:0:0:0:
78,289,25599,1,0,0:0:0:0:
114,295,25686,1,0,0:0:0:0:
151,295,25772,1,0,0:0:0:0:
187,287,25859,1,0,0:0:0:0:
214,263,25946,2,0,P|230:239|236:217,1,42.5000008106232,4|0,0:0|0:0,0:0:0:0:
357,139,26119,21,4,0:0:0:0:
396,133,26206,1,0,0:0:0:0:
431,150,26293,1,0,0:0:0:0:
452,183,26379,1,0,0:0:0:0:
451,223,26466,1,0,0:0:0:0:
429,255,26553,1,0,0:0:0:0:
393,271,26639,2,0,P|371:268|350:257,1,42.5000008106232,8|0,0:0|0:0,0:0:0:0:
280,135,26813,5,4,0:0:0:0:
256,171,26900,1,0,0:0:0:0:
224,199,26986,1,0,0:0:0:0:
183,216,27073,1,0,0:0:0:0:
139,222,27160,1,0,0:0:0:0:
97,217,27246,1,0,0:0:0:0:
54,201,27333,2,0,P|26:178|8:151,1,42.5000008106232,4|0,0:0|0:0,0:0:0:0:
42,50,27507,5,8,0:0:0:0:
69,14,27593,1,0,0:0:0:0:
111,0,27680,1,0,0:0:0:0:
156,5,27767,1,0,0:0:0:0:
191,32,27853,1,0,0:0:0:0:
211,69,27940,1,0,0:0:0:0:
222,111,28027,2,0,P|220:135|214:162,1,42.5000008106232,4|0,0:0|0:0,0:0:0:0:
102,270,28200,5,4,0:1:0:0:
58,247,28287,1,0,0:0:0:0:
33,208,28374,1,0,0:0:0:0:
36,161,28460,1,0,0:0:0:0:
68,126,28547,1,0,0:0:0:0:
113,115,28634,1,0,0:0:0:0:
157,131,28720,2,0,P|173:146|186:164,1,42.5000008106232,4|0,0:0|0:0,0:0:0:0:
287,255,28894,21,4,0:0:0:0:
336,265,28981,1,0,0:0:0:0:
385,254,29067,1,0,0:0:0:0:
425,224,29154,1,0,0:0:0:0:
451,180,29241,1,0,0:0:0:0:
450,129,29327,1,0,0:0:0:0:
425,84,29414,2,0,P|407:61|391:47,1,42.5000008106232,4|0,0:0|0:0,0:0:0:0:
269,42,29587,5,8,0:2:0:0:
233,64,29673,1,0,0:0:0:0:
209,99,29760,1,0,0:0:0:0:
200,140,29847,1,0,0:0:0:0:
207,182,29933,1,0,0:0:0:0:
229,218,30020,1,0,0:0:0:0:
267,238,30108,2,0,P|291:247|315:251,1,42.5000008106232
448,188,30281,5,4,0:0:0:0:
484,219,30367,1,0,0:0:0:0:
496,265,30454,1,0,0:0:0:0:
481,311,30541,1,0,0:0:0:0:
443,341,30627,1,0,0:0:0:0:
395,344,30714,1,0,0:0:0:0:
352,324,30801,2,0,P|332:304|324:272,1,48.7500001859665,0|0,0:0|0:0,0:0:0:0:
229,170,30975,5,4,0:1:0:0:
196,127,31061,1,0,0:0:0:0:
144,110,31148,1,0,0:0:0:0:
92,124,31235,1,0,0:0:0:0:
54,162,31322,1,0,0:0:0:0:
43,214,31408,1,0,0:0:0:0:
58,265,31495,2,0,P|76:285|96:296,1,48.7500001859665,4|0,0:0|0:0,0:0:0:0:
208,296,31668,21,8,0:0:0:0:
250,288,31755,1,0,0:0:0:0:
284,262,31842,1,0,0:0:0:0:
305,225,31928,1,0,0:0:0:0:
313,181,32015,1,0,0:0:0:0:
334,143,32102,1,0,0:0:0:0:
368,118,32189,2,0,P|391:110|411:108,1,42.5000008106232,4|0,0:0|0:0,0:0:0:0:
458,202,32362,5,4,0:0:0:0:
470,229,32449,1,0,0:0:0:0:
473,258,32535,1,0,0:0:0:0:
462,285,32622,1,0,0:0:0:0:
439,304,32709,1,0,0:0:0:0:
409,309,32796,1,0,0:0:0:0:
379,302,32882,2,0,L|351:285,1,25,4|0,0:0|0:0,0:0:0:0:
334,143,33056,6,0,L|289:119,1,43.7500004172325,4|0,0:0|0:0,0:0:0:0:
208,24,33229,2,0,L|199:74,1,43.7500004172325
92,88,33402,2,0,L|120:128,1,43.7500004172325,4|0,0:0|0:0,0:0:0:0:
44,208,33576,2,0,L|96:224,1,43.7500004172325,4|0,0:0|0:0,0:0:0:0:
98,321,33749,6,0,L|224:296,1,119.999996337891,4|0,0:0|0:0,0:0:0:0:
320,112,34270,1,0,0:0:0:0:
372,200,34443,1,0,1:0:0:0:
236,160,34616,1,0,1:0:0:0:
408,68,34790,22,0,L|392:200,1,119.999996337891,4|0,0:0|0:0,0:0:0:0:
276,308,35483,22,0,P|269:278|271:249,1,59.9999981689454,0|0,1:0|0:0,0:0:0:0:
468,288,35830,1,8,0:0:0:0:
280,136,36004,1,0,0:0:0:0:
368,268,36177,1,0,1:0:0:0:
484,172,36350,1,0,1:0:0:0:
248,128,36524,6,0,L|164:112,1,80,4|0,0:0|0:0,0:0:0:0:
280,252,37044,1,0,0:0:0:0:
280,252,37218,2,0,L|335:242,1,40,0|0,1:0|1:0,0:0:0:0:
151,278,37564,1,4,0:0:0:0:
121,284,38258,37,2,0:0:0:0:
98,290,38605,5,0,0:0:0:0:
74,296,38952,5,0,0:0:0:0:
51,302,39298,21,8,0:0:0:0:
432,144,40339,6,0,P|424:176|408:200,1,50,2|0,0:0|0:0,0:0:0:0:
237,246,40686,2,0,P|305:246|349:226,1,100,0|2,0:0|0:0,0:0:0:0:
376,40,41379,1,0,0:0:0:0:
324,188,41726,2,0,P|328:224|343:246,1,50,0|2,0:0|0:0,0:0:0:0:
400,304,42073,5,8,0:0:0:0:
456,352,42246,1,0,0:0:0:0:
468,280,42420,1,0,0:0:0:0:
400,304,42593,1,0,0:0:0:0:
204,332,42940,2,0,P|180:332|148:323,2,50,0|0|0,0:0|0:0|0:0,0:0:0:0:
200,192,43460,5,2,0:0:0:0:
72,64,44154,1,0,0:0:0:0:
12,112,44327,1,0,0:0:0:0:
80,140,44501,1,0,0:0:0:0:
360,232,44848,22,0,L|376:284,1,50,0|0,0:0|0:0,0:0:0:0:
312,336,45194,1,0,0:0:0:0:
424,356,45368,2,0,P|464:296|436:220,1,150,0|2,0:0|0:0,0:0:0:0:
268,168,46235,2,0,P|208:200|176:200,1,100,0|0,0:0|0:0,0:0:0:0:
92,96,46928,1,2,0:0:0:0:
12,200,47275,2,0,P|36:216|68:224,1,50,0|0,0:0|0:0,0:0:0:0:
240,235,47622,5,8,0:0:0:0:
285,272,47796,1,0,0:0:0:0:
304,217,47969,1,0,0:0:0:0:
261,183,48142,1,0,0:0:0:0:
84,48,48663,2,0,L|93:116,1,50,0|0,0:0|0:0,0:0:0:0:
52,268,49009,6,0,B|0:224|0:166|0:166|30:160,1,150,2|0,0:0|0:0,0:0:0:0:
144,192,49703,1,0,0:0:0:0:
204,244,49876,1,0,0:0:0:0:
132,268,50050,1,2,0:0:0:0:
280,148,50397,6,0,L|332:160,2,50
396,104,50917,2,0,P|415:180|355:239,1,150,2|0,0:0|0:0,0:0:0:0:
208,272,51784,1,2,0:0:0:0:
108,258,52131,2,0,L|208:272,1,100
208,272,52824,2,0,L|264:280,1,50,2|0,0:0|0:0,0:0:0:0:
68,328,53171,21,8,0:0:0:0:
28,260,53345,1,0,0:0:0:0:
64,192,53518,1,0,0:0:0:0:
140,188,53691,1,0,0:0:0:0:
436,296,54212,2,0,P|448:272|448:240,1,50,0|0,0:0|0:0,0:0:0:0:
376,352,54559,2,0,P|296:364|232:332,1,150,2|0,0:0|0:0,0:0:0:0:
176,256,55252,2,0,L|120:268,2,50,0|0|0,0:0|0:0|0:0,0:0:0:0:
288,168,55946,5,8,0:0:0:0:
305,192,56119,1,0,0:0:0:0:
315,219,56293,1,0,0:0:0:0:
317,249,56466,1,0,0:0:0:0:
288,168,57333,5,2,0:0:0:0:
315,219,57507,1,0,0:0:0:0:
312,270,57680,1,0,0:0:0:0:
284,320,57853,1,0,0:0:0:0:
288,168,58720,5,8,0:0:0:0:
312,270,58894,1,0,0:0:0:0:
248,352,59067,1,0,0:0:0:0:
144,352,59241,1,0,0:0:0:0:
90,174,60108,5,2,0:0:0:0:
144,352,60801,5,2,0:0:0:0:
248,352,60975,1,0,0:0:0:0:
312,270,61148,1,0,0:0:0:0:
288,168,61322,1,0,3:0:0:0:
392,332,61495,6,0,B|451:346|503:320|503:320|495:297|466:270,1,170.000003242493,8|0,0:0|0:0,0:0:0:0:
315,219,62015,1,0,0:0:0:0:
222,270,62189,2,0,L|251:362,1,85.0000016212464,2|0,0:0|0:0,0:0:0:0:
379,263,62535,2,0,P|392:216|380:176,1,85.0000016212464,0|0,0:0|0:0,0:0:0:0:
148,156,62882,5,0,0:0:0:0:
268,200,63056,1,0,0:0:0:0:
112,168,63229,2,0,P|68:180|24:184,1,85.0000016212464,0|0,0:0|0:0,0:0:0:0:
216,32,63576,2,0,P|196:72|200:116,1,85.0000016212464,2|0,0:0|0:0,0:0:0:0:
364,236,63923,1,0,1:0:0:0:
364,236,64270,5,0,0:0:0:0:
228,196,64443,1,0,0:0:0:0:
312,100,64616,2,0,P|360:128|412:140,1,85.0000016212464,0|0,0:0|0:0,0:0:0:0:
472,236,64963,2,0,B|488:296|464:344|464:344|432:344|408:328,1,170.000003242493,2|0,0:0|0:0,0:0:0:0:
256,248,65483,1,0,0:0:0:0:
256,248,65657,22,0,L|348:232,1,85.0000016212464,8|0,0:0|0:0,0:0:0:0:
232,140,66004,2,0,L|132:128,1,85.0000016212464,0|0,0:0|0:0,0:0:0:0:
36,200,66350,2,0,P|76:228|104:252,1,85.0000016212464,2|0,0:0|0:0,0:0:0:0:
192,372,66697,1,0,1:0:0:0:
192,372,67044,6,0,P|176:328|184:276,1,85.0000016212464,0|0,0:0|0:0,0:0:0:0:
288,144,67391,2,0,P|285:186|276:236,1,85.0000016212464,0|0,0:0|0:0,0:0:0:0:
178,290,67738,1,2,0:0:0:0:
404,304,68085,2,0,P|392:256|392:212,1,85.0000016212464,0|0,0:0|0:0,0:0:0:0:
456,80,68431,5,0,0:0:0:0:
304,136,68605,1,0,0:0:0:0:
392,220,68778,2,0,P|440:232|480:232,1,85.0000016212464,0|0,0:0|0:0,0:0:0:0:
268,320,69125,1,2,0:0:0:0:
268,320,69472,2,0,P|224:296|180:284,1,85.0000016212464,0|0,1:0|0:0,0:0:0:0:
16,236,69819,6,0,P|56:222|93:201,1,85.0000016212464,0|0,0:0|0:0,0:0:0:0:
200,76,70165,1,0,0:0:0:0:
200,76,70339,2,0,B|176:144|212:192|212:192|244:192|268:200,1,170.000003242493,0|0,0:0|0:0,0:0:0:0:
448,248,70859,2,0,P|413:272|371:279,1,85.0000016212464,0|0,0:0|0:0,0:0:0:0:
224,284,71206,21,8,0:0:0:0:
316,356,71379,1,0,0:0:0:0:
380,192,71553,2,0,P|388:148|384:108,1,85.0000016212464,0|0,0:0|0:0,0:0:0:0:
232,48,71900,1,2,0:0:0:0:
232,48,72246,2,0,L|248:136,1,85.0000016212464,0|0,1:0|0:0,0:0:0:0:
260,280,72593,6,0,B|168:268|144:228|144:228|161:209|176:200,1,170.000003242493,8|0,0:0|0:0,0:0:0:0:
320,184,73113,2,0,B|384:192|432:164|432:164|428:128|400:108,1,170.000003242493,0|0,0:0|0:0,0:0:0:0:
288,56,73634,2,0,P|240:80|208:84,1,85.0000016212464,2|0,0:0|0:0,0:0:0:0:
64,56,73981,5,0,0:0:0:0:
208,84,74154,2,0,B|248:152|232:208|232:208|176:216,1,170.000003242493,0|0,0:0|0:0,0:0:0:0:
44,168,74674,1,2,0:0:0:0:
192,213,74848,1,0,0:0:0:0:
88,372,75021,1,0,1:0:0:0:
88,372,75368,6,0,B|48:320|64:256|64:256|132:232,1,170.000003242493,8|0,0:0|0:0,0:0:0:0:
272,292,75888,2,0,B|352:300|392:272|392:272|372:216,1,170.000003242493,0|0,0:0|0:0,0:0:0:0:
240,104,76408,2,0,P|244:152|228:188,1,85.0000016212464,2|0,0:0|0:0,0:0:0:0:
108,240,76755,21,0,0:0:0:0:
272,292,76928,1,0,0:0:0:0:
104,324,77102,2,0,P|99:281|108:240,1,85.0000016212464,8|0,0:0|0:0,0:0:0:0:
229,185,77449,1,0,0:0:0:0:
108,240,77622,1,0,0:0:0:0:
272,292,77796,1,0,1:0:0:0:
132,128,77969,1,0,1:0:0:0:
378,29,78142,6,0,P|369:123|366:201,1,170.000003242493,4|0,0:0|0:0,0:0:0:0:
272,292,78663,1,0,0:0:0:0:
450,217,78836,1,0,1:0:0:0:
222,153,79009,1,0,0:0:0:0:
238,373,79183,1,0,0:0:0:0:
68,208,79356,1,0,0:0:0:0:
271,291,79530,6,0,P|313:299|396:284,1,127.50000243187,2|0,0:0|0:0,0:0:0:0:
450,217,79876,2,0,P|406:213|366:197,1,85.0000016212464,0|0,1:0|0:0,0:0:0:0:
184,40,80223,1,0,0:0:0:0:
124,276,80397,1,0,1:0:0:0:
294,160,80570,1,0,1:0:0:0:
21,193,80744,1,0,0:0:0:0:
288,76,80917,6,0,B|344:48|400:64|400:64|399:92|384:120,1,170.000003242493,4|0,0:0|0:0,0:0:0:0:
236,240,81437,1,0,0:0:0:0:
385,116,81611,1,0,1:0:0:0:
184,112,81784,1,0,0:0:0:0:
351,355,81957,22,0,B|439:367|487:335|487:335|479:295|459:283,1,200,0|0,1:0|0:0,0:0:0:0:
372,240,82824,1,0,0:0:0:0:
372,240,82911,1,0,0:0:0:0:
372,240,82998,1,8,0:0:0:0:
240,278,83171,1,0,0:0:0:0:
496,160,83345,1,0,1:0:0:0:
157,41,83518,1,0,0:0:0:0:
334,333,83691,6,0,P|418:329|472:256,1,179.999994506836,4|0,0:0|0:0,0:0:0:0:
240,278,84212,1,0,0:0:0:0:
410,179,84385,2,0,P|458:159|511:164,1,89.9999972534181,0|0,1:0|0:0,0:0:0:0:
282,32,84732,1,0,0:0:0:0:
167,209,84905,6,0,B|124:164|120:104|120:104|154:124|196:128,1,179.999994506836,2|2,0:0|0:0,0:0:0:0:
332,147,85426,2,0,P|377:117|392:76,1,89.9999972534181,0|0,0:0|0:0,0:0:0:0:
178,125,85772,1,0,1:0:0:0:
315,264,85946,2,0,P|337:303|344:348,1,89.9999972534181,0|0,1:0|0:0,0:0:0:0:
390,85,86293,1,0,0:0:0:0:
344,348,86466,6,0,P|240:356|184:308,1,179.999994506836,0|0,0:0|0:0,0:0:0:0:
448,304,86986,1,0,0:0:0:0:
284,252,87160,1,0,1:0:0:0:
472,148,87333,1,0,0:0:0:0:
344,348,87507,1,2,0:0:0:0:
224,152,87680,22,0,P|171:241|187:313,1,179.999994506836,0|0,0:0|0:0,0:0:0:0:
344,348,88200,1,0,1:0:0:0:
64,360,88374,1,0,0:0:0:0:
64,360,88460,1,0,0:0:0:0:
64,360,88547,1,0,1:0:0:0:
280,252,88720,1,0,1:0:0:0:
84,108,88894,2,0,L|104:204,1,89.9999972534181,0|0,0:0|0:0,0:0:0:0:
280,252,89241,6,0,P|292:204|280:152,1,89.9999972534181,8|0,0:0|0:0,0:0:0:0:
112,276,89587,2,0,P|74:271|28:224,1,89.9999972534181,0|0,0:0|0:0,0:0:0:0:
144,48,89934,1,0,1:0:0:0:
0,164,90108,1,0,0:0:0:0:
212,148,90281,2,0,P|248:112|260:72,1,89.9999972534181,2|0,0:0|0:0,0:0:0:0:
112,276,90628,6,0,B|96:340|124:376|124:376|153:354|192:344,1,179.999994506836,2|0,0:0|0:0,0:0:0:0:
340,288,91148,1,0,0:0:0:0:
192,343,91322,1,0,1:0:0:0:
259,72,91495,1,0,1:0:0:0:
440,272,91668,2,0,P|436:312|412:360,1,89.9999972534181,0|0,0:0|0:0,0:0:0:0:
192,344,92015,6,0,B|153:354|124:376|124:376|96:340|112:276,1,179.999994506836,8|0,0:0|0:0,0:0:0:0:
259,72,92535,1,0,0:0:0:0:
68,28,92709,1,0,1:0:0:0:
204,192,92882,1,0,1:0:0:0:
0,236,93056,1,0,0:0:0:0:
168,40,93229,1,0,0:0:0:0:
297,337,93402,21,4,1:0:0:0:
476,132,93576,1,0,0:0:0:0:
473,74,93663,1,0,0:0:0:0:
447,23,93749,1,4,1:0:0:0:
312,112,93923,1,0,0:0:0:0:
422,261,94096,1,0,1:0:0:0:
476,132,94270,1,0,1:0:0:0:
280,224,94443,2,0,P|228:236|188:236,1,89.9999972534181,0|0,0:0|1:0,0:0:0:0:
0,296,94790,6,0,P|44:336|176:328,1,179.999994506836,4|0,0:0|0:0,0:0:0:0:
280,224,95310,1,0,0:0:0:0:
140,76,95483,1,0,1:0:0:0:
104,228,95657,2,0,L|195:213,1,89.9999972534181,0|0,0:0|0:0,0:0:0:0:
384,184,96004,1,2,0:0:0:0:
228,96,96177,6,0,L|139:110,1,89.9999972534181,0|2,0:0|0:0,0:0:0:0:
252,324,96524,2,0,L|336:284,1,89.9999972534181,0|0,0:0|0:0,0:0:0:0:
116,320,96871,1,0,1:0:0:0:
228,96,97044,1,0,1:0:0:0:
333,285,97218,1,2,0:0:0:0:
68,120,97391,1,0,0:0:0:0:
348,28,97564,6,0,B|396:8|449:17,1,89.9999972534181,4|0,1:0|0:0,0:0:0:0:
228,96,97911,1,2,0:0:0:0:
328,288,98085,2,0,B|368:295|416:275,1,89.9999972534181,4|0,0:0|0:0,0:0:0:0:
208,236,98431,1,0,1:0:0:0:
352,160,98605,1,0,0:0:0:0:
232,344,98778,22,0,B|168:368|96:344|96:344|120:304,1,179.999994506836,4|0,1:0|0:0,0:0:0:0:
156,264,99212,1,0,0:0:0:0:
208,236,99298,1,0,1:0:0:0:
415,275,99472,1,0,1:0:0:0:
248,96,99645,53,0,3:0:0:0:
312,144,99761,1,0,3:0:0:0:
388,136,99876,1,0,3:0:0:0:
328,68,99992,1,2,3:2:0:0:
312,144,100108,1,0,0:0:0:0:
336,216,100223,1,0,0:0:0:0:
415,275,100339,22,0,P|476:280|516:264,1,89.9999972534181,8|0,0:0|0:0,0:0:0:0:
336,356,100686,2,0,P|291:351|252:329,1,89.9999972534181,0|0,0:0|0:0,0:0:0:0:
160,136,101033,1,0,1:0:0:0:
336,216,101206,1,0,0:0:0:0:
144,360,101379,6,0,B|84:312|88:232|88:232|120:256|176:256,1,224.999993133545,4|0,0:0|0:0,0:0:0:0:
244,216,101900,1,2,0:0:0:0:
88,232,102073,1,0,1:0:0:0:
252,329,102246,1,0,0:0:0:0:
336,216,102420,21,0,1:0:0:0:
352,144,102535,1,0,3:0:0:0:
332,72,102651,1,0,3:0:0:0:
264,116,102767,1,0,3:0:0:0:
184,128,102882,1,0,3:0:0:0:
112,96,102998,1,0,0:0:0:0:
256,42,103113,54,0,P|264:78|264:116,1,75,4|0,0:0|0:0,0:0:0:0:
136,248,103460,1,0,0:0:0:0:
296,272,103634,1,0,0:0:0:0:
208,204,103807,1,0,1:0:0:0:
324,296,103981,1,2,0:0:0:0:
60,292,104154,21,4,1:0:0:0:
256,42,104327,1,0,1:0:0:0:
208,204,104848,6,0,B|116:208|60:176|60:176|84:144|120:132,1,224.999993133545,8|0,0:0|0:0,0:0:0:0:
208,204,105888,5,4,0:0:0:0:
132,320,106061,2,0,P|172:340|218:342,1,89.9999972534181,0|0,0:0|0:0,0:0:0:0:
316,188,106408,1,0,0:0:0:0:
132,320,106582,1,0,1:0:0:0:
356,300,106755,1,0,0:0:0:0:
208,204,106928,1,0,0:0:0:0:
400,128,107102,6,0,B|468:128|512:148|512:148|488:192|448:200,1,179.999994506836,4|0,1:0|0:0,0:0:0:0:
316,188,107622,1,0,1:0:0:0:
512,276,107796,1,0,0:0:0:0:
252,336,107969,5,0,1:0:0:0:
172,324,108085,1,0,3:0:0:0:
108,276,108200,1,0,3:0:0:0:
188,268,108316,1,0,3:0:0:0:
260,240,108431,1,0,3:0:0:0:
316,188,108547,1,0,3:0:0:0:
216,112,108663,54,0,B|124:92|72:112|72:112|96:140,1,179.999994506836,4|0,0:0|0:0,0:0:0:0:
200,192,109183,1,0,0:0:0:0:
364,104,109356,1,0,1:0:0:0:
184,28,109530,1,0,0:0:0:0:
316,188,109703,1,0,0:0:0:0:
78,316,109876,2,0,P|90:220|94:128,1,179.999994506836,4|0,1:0|0:0,0:0:0:0:
4,20,110397,1,0,1:0:0:0:
179,147,110570,1,0,1:0:0:0:
12,152,110744,21,0,0:0:0:0:
24,100,110830,1,0,0:0:0:0:
65,65,110917,1,0,0:0:0:0:
119,62,111004,1,0,0:0:0:0:
161,96,111090,1,0,0:0:0:0:
179,147,111177,1,0,0:0:0:0:
222,179,111264,1,0,0:0:0:0:
275,181,111350,1,0,0:0:0:0:
323,157,111437,1,4,1:0:0:0:
400,24,111611,5,0,0:0:0:0:
256,92,111784,1,0,0:0:0:0:
372,232,111957,1,0,1:0:0:0:
372,232,112044,1,0,3:0:0:0:
372,232,112131,2,0,P|436:240|464:240,1,89.9999972534181,4|0,3:1|1:0,0:0:0:0:
336,80,112478,1,2,0:0:0:0:
180,296,112651,6,0,B|128:232|144:172|144:172|175:180|200:180,1,179.999994506836,4|0,0:2|0:0,0:0:0:0:
243,186,113085,1,0,0:0:0:0:
296,183,113171,1,0,1:0:0:0:
416,76,113345,1,0,3:0:0:0:
240,44,113518,21,4,1:0:0:0:
284,108,113634,1,0,3:0:0:0:
296,183,113749,1,0,3:0:0:0:
216,152,113865,1,0,3:0:0:0:
140,144,113981,1,0,3:0:0:0:
68,168,114096,1,0,3:0:0:0:
12,220,114212,1,4,0:2:0:0:
148,300,114385,54,0,B|228:324|284:308|284:308|272:284|256:264,1,179.999994506836,0|0,0:0|1:0,0:0:0:0:
228,240,114819,1,0,3:0:0:0:
180,216,114905,1,4,3:1:0:0:
64,276,115079,1,0,1:0:0:0:
312,192,115252,1,0,0:0:0:0:
152,60,115426,22,0,B|74:29|17:40|17:40|27:65|35:77,1,179.999994506836,4|0,0:0|1:0,0:0:0:0:
192,180,115946,1,0,1:0:0:0:
8,216,116119,2,0,L|72:204,1,44.999998626709,0|0,3:0|0:0,0:0:0:0:
228,176,116293,6,0,P|272:268|172:196,1,314.999990386963,8|0,0:0|0:0,0:0:0:0:
192,180,116986,5,4,0:0:0:0:
256,192,117073,12,0,119587,0:0:0:0:
