osu file format v10

[General]
AudioFilename: Arrival of tears.mp3
AudioLeadIn: 1500
PreviewTime: 55119
Countdown: 0
SampleSet: None
StackLeniency: 0.4
Mode: 0
LetterboxInBreaks: 0
EpilepsyWarning: 1

[Editor]
Bookmarks: 4569
DistanceSpacing: 2
BeatDivisor: 4
GridSize: 4

[Metadata]
Title:Arrival of tears
TitleUnicode:Arrival of tears
Artist:Ayane
ArtistUnicode:Ayane
Creator:cRyo[iceeicee]
Version:Insane
Source:11eyes
Tags:akaya galgame tatsh lass opening
BeatmapID:201079
BeatmapSetID:69807

[Difficulty]
HPDrainRate:7
CircleSize:4
OverallDifficulty:7
ApproachRate:9
SliderMultiplier:1.8
SliderTickRate:1

[Events]
//Background and Video events
0,0,"BG.jpg"
//Break Periods
2,87269,98469
2,174269,175869
2,176669,178269
2,179069,180669
2,183869,185469
2,186269,187869
2,188669,190269
//Storyboard Layer 0 (Background)
//Storyboard Layer 1 (Fail)
//Storyboard Layer 2 (Pass)
//Storyboard Layer 3 (Foreground)
//Storyboard Sound Samples
//Background Colour Transformations
3,100,217,0,5

[TimingPoints]
669,300,4,1,1,45,1,0
5469,-100,4,1,2,45,0,0
15069,-100,4,1,2,45,0,0
15144,-100,4,1,1,45,0,0
33669,-133.333333333333,4,1,1,45,0,0
42669,-100,4,1,1,45,0,0
43869,-100,4,1,1,45,0,0
48669,-90.9090909090909,4,1,1,45,0,0
50919,-100,4,1,1,45,0,0
55869,-100,4,1,1,45,0,1
87069,-100,4,1,1,45,0,0
101394,-100,4,1,1,45,0,0
101544,-100,4,1,1,45,0,0
102069,300,4,1,1,45,1,0
120669,-133.333333333333,4,1,1,45,0,0
129669,-100,4,1,1,45,0,0
135369,-90.9090909090909,4,1,1,45,0,0
138069,-100,4,1,1,45,0,0
142869,-100,4,1,1,45,0,1
169269,-100,4,1,1,45,0,1
174069,600,4,1,2,45,1,0
175719,-100,4,1,1,45,0,0
190869,-133.333333333333,4,1,1,45,0,0
191319,-133.333333333333,4,2,1,5,0,0
191619,-133.333333333333,4,1,1,45,0,0
192069,-50,4,1,1,45,0,0
193269,300,4,1,1,45,1,0
214869,300,4,1,1,45,1,0
215019,-133.333333333333,4,1,1,45,0,0
223269,-100,4,1,1,45,0,0
228969,-90.9090909090909,4,1,1,45,0,0
231519,-100,4,1,1,45,0,0
235569,-133.333333333333,4,1,1,45,0,0
252294,-100,4,1,1,45,0,0
253269,-100,4,1,1,45,0,1
255631,-100,4,1,1,45,0,0
255669,-100,4,1,1,45,0,1
286869,-100,4,1,1,45,0,0

[Colours]
Combo1 : 164,72,255
Combo2 : 0,240,240
Combo3 : 202,2,7
Combo4 : 43,149,255

[HitObjects]
256,72,669,5,4,0:0:0
308,312,969,2,0,P|359:267|424:276,1,135
456,276,1269,2,0,P|446:183|436:92,1,180
328,136,1719,1,0,0:0:0
328,136,1794,1,0,0:0:0
328,136,1869,1,0,0:0:0
204,72,2169,6,0,P|152:116|88:108,1,135
56,108,2469,2,0,P|66:201|76:292,1,180
184,248,2919,1,0,0:0:0
184,248,2994,1,0,0:0:0
184,248,3069,1,0,0:0:0
384,356,3369,6,0,P|426:302|404:240,1,135
388,228,3669,2,0,P|391:142|393:32,1,180
92,96,4269,6,0,P|76:148,3,45
170,204,4569,2,0,P|184:248,3,45
196,280,4869,5,0,0:0:0
216,308,4944,1,0,0:0:0
244,328,5019,1,0,0:0:0
280,336,5094,1,0,0:0:0
316,336,5169,1,0,0:0:0
352,328,5244,1,0,0:0:0
384,312,5319,1,0,0:0:0
404,284,5394,1,0,0:0:0
416,252,5469,6,0,P|418:161|420:64,1,180
256,52,5919,1,0,0:0:0
244,152,6069,2,0,P|288:148|340:108,1,90
152,88,6369,2,0,P|134:125|134:173,1,90
188,312,6669,6,0,P|247:323|309:287,1,135
336,256,6969,2,0,P|384:261|432:264,1,90
425,120,7269,2,0,P|384:123|336:128,1,90
212,200,7569,1,0,0:0:0
212,200,7644,1,0,0:0:0
212,200,7719,1,0,0:0:0
212,200,7794,1,0,0:0:0
212,200,7869,6,0,P|152:180|77:200,1,135
52,196,8169,2,0,P|58:151|68:96,1,90
194,103,8469,1,0,0:0:0
136,260,8619,1,0,0:0:0
280,272,8769,1,0,0:0:0
204,332,8919,1,0,0:0:0
296,184,9069,6,0,P|340:188|388:212,1,90
280,80,9369,2,0,P|236:84|188:108,1,90
50,283,9669,2,0,P|94:279|136:260,1,90
280,272,9969,1,0,0:0:0
308,276,10044,1,0,0:0:0
336,280,10119,1,0,0:0:0
364,284,10194,1,0,0:0:0
392,288,10269,6,0,P|432:252|472:256|472:256|496:212|460:140,2,180
312,356,11019,1,0,0:0:0
344,200,11169,1,0,0:0:0
204,244,11319,1,0,0:0:0
136,344,11469,2,0,P|180:344|224:325,1,90
376,120,11769,2,0,P|332:120|287:138,1,90
360,288,12069,2,0,P|439:239|447:155,1,180
312,64,12519,5,0,0:0:0
312,64,12594,1,0,0:0:0
312,64,12669,2,0,P|264:60|204:52,1,90
152,192,12969,1,0,0:0:0
24,136,13119,2,0,P|72:132|132:124,1,90
184,264,13419,1,0,0:0:0
324,220,13569,2,0,P|276:216|235:211,1,90
119,334,13869,5,0,0:0:0
119,334,13944,1,0,0:0:0
119,334,14019,2,0,P|107:284,1,45
20,265,14169,5,0,0:0:0
20,265,14244,1,0,0:0:0
20,265,14319,2,0,P|40:218,1,45
122,205,14469,5,0,0:0:0
122,205,14544,1,0,0:0:0
122,205,14619,2,0,P|110:155,1,45
23,136,14769,5,0,0:0:0
23,136,14844,1,0,0:0:0
23,136,14919,2,0,P|43:89,1,45
124,76,15069,6,0,P|216:73|304:65,1,180
440,160,15519,1,0,0:0:0
364,220,15669,2,0,P|348:176|360:112,1,90
484,240,15969,2,0,P|488:288|472:332,1,90
344,360,16269,6,0,P|288:324|209:344,1,135,0|0,0:0|2:0,0:0:0
200,336,16569,2,0,P|184:288|168:244,1,90
216,136,16869,1,0,0:0:0
216,136,17019,1,0,0:0:0
152,60,17169,2,0,P|128:96|120:148,1,90
172,252,17469,6,0,P|276:268|332:216,1,180
420,108,17919,1,0,0:0:0
488,220,18069,2,0,P|440:216|396:180,1,90
308,80,18369,1,0,0:0:0
216,136,18519,5,0,0:0:0
216,136,18594,1,0,0:0:0
216,136,18669,2,0,P|123:130|32:124,1,180
108,356,19119,2,0,P|152:276|116:196,1,180
36,124,19569,5,0,0:0:0
256,228,19719,1,0,0:0:0
48,272,19869,1,0,0:0:0
316,324,20169,6,0,P|352:308|408:308,1,90
404,160,20469,2,0,P|354:158|318:142,1,90
196,112,20769,1,0,0:0:0
256,228,20919,2,0,P|440:236,1,180
464,104,21369,6,0,P|424:84|356:92,1,90
276,144,21669,1,0,0:0:0
276,144,21744,1,0,0:0:0
276,144,21819,1,0,0:0:0
169,243,21969,2,0,P|213:243|256:228,1,90
116,152,22269,6,0,P|64:212|96:308,1,180
204,356,22719,1,0,0:0:0
316,292,22869,2,0,P|334:247|330:199,1,90,0|0,0:0|0:0,3:0:0
212,84,23169,2,0,P|193:128|197:176,1,90,0|0,0:0|0:0,3:0:0
380,144,23469,5,0,0:0:0
256,232,23619,1,0,0:0:0
312,68,23769,1,0,0:0:0
332,207,23919,2,0,P|432:207|456:128,1,180
408,56,24369,1,0,0:0:0
376,60,24444,1,0,0:0:0
344,64,24519,1,0,0:0:0
312,68,24594,1,0,0:0:0
280,72,24669,6,0,P|216:64|184:108|184:108|156:84|80:92,1,180
24,172,25119,1,0,0:0:0
96,248,25269,2,0,P|120:216|128:164,1,90
24,172,25569,1,0,0:0:0
96,324,25719,2,0,P|128:324|144:308|144:308|156:328|156:328|192:312|276:324,1,180
324,248,26169,6,0,P|284:228|236:224,1,90
356,352,26469,2,0,P|396:332|426:299,1,90
432,192,26769,1,0,0:0:0
432,192,26844,1,0,0:0:0
432,192,26919,1,0,0:0:0
432,192,26994,1,0,0:0:0
432,192,27069,6,0,P|448:128|448:128|416:84|416:84|456:32,2,180
324,248,27819,1,0,0:0:0
260,180,27969,2,0,P|300:156|348:156,1,90
380,324,28269,2,0,P|328:360|264:324|264:324|232:260,1,180
200,104,28719,2,0,P|252:68|316:104|316:104|348:168,1,180
324,248,29169,1,0,0:0:0
324,248,29244,1,0,0:0:0
324,248,29319,1,0,0:0:0
324,248,29394,1,0,0:0:0
324,248,29469,2,0,P|260:268|192:240,1,135,0|0,0:0|2:0,0:0:0
184,232,29769,6,0,P|140:240|88:248,1,90
112,76,30069,2,0,P|119:122|128:176,1,90
36,132,30369,1,0,0:0:0
200,104,30519,2,0,P|282:91|346:155,1,180
404,296,30969,1,0,0:0:0
404,296,31044,1,0,0:0:0
404,296,31119,1,0,0:0:0
324,248,31269,5,0,0:0:0
456,220,31419,1,0,0:0:0
332,356,31569,1,0,0:0:0
492,332,31719,1,0,0:0:0
456,220,31869,6,0,P|441:132|428:36,1,180
256,88,32319,2,0,P|248:148|268:208|256:276,1,180
56,220,32769,2,0,P|70:132|84:36,1,180
256,88,33219,5,0,0:0:0
256,88,33294,1,0,0:0:0
256,88,33369,2,0,P|256:188,1,90
292,320,33669,1,0,0:0:0
312,344,33744,1,0,0:0:0
340,360,33819,1,0,0:0:0
372,364,33894,1,0,0:0:0
400,360,33969,1,0,0:0:0
428,344,34044,1,0,0:0:0
448,320,34119,1,0,0:0:0
456,292,34194,1,0,0:0:0
460,260,34269,6,0,P|452:188|444:112,1,135.000005149842
360,60,34719,1,0,0:0:0
256,88,34869,2,0,P|231:133|247:177,1,101.250003862381,0|0,0:0|2:0,0:0:0
256,192,35169,2,0,P|251:226|242:272,1,67.5000025749208
168,332,35469,1,0,0:0:0
168,332,35619,2,0,P|104:296|48:316,1,135.000005149842
49,314,36069,5,0,0:0:0
80,128,36369,1,0,0:0:0
256,192,36669,2,0,P|320:204|376:148,1,135.000005149842
300,120,37119,5,0,0:0:0
212,264,37269,2,0,P|159:261|100:256,1,101.250003862381,0|0,0:0|2:0,0:0:0
92,280,37569,2,0,P|96:248|80:212,1,67.5000025749208
44,112,37869,5,0,0:0:0
44,112,38019,1,0,0:0:0
256,48,38319,5,0,0:0:0
256,48,38469,1,0,0:0:0
300,120,38619,1,0,0:0:0
300,120,38694,1,0,0:0:0
300,120,38769,2,0,P|352:128|384:104|384:104|440:128,1,135.000005149842
396,324,39369,6,0,P|364:316|324:304,1,67.5000025749208
256,256,39669,2,0,P|292:216|328:216|328:216|404:236,2,135.000005149842
72,176,40719,1,0,0:0:0
72,176,40869,2,0,P|64:208|64:252,1,67.5000025749208
144,344,41169,2,0,P|152:312|152:268,1,67.5000025749208
232,192,41469,6,0,P|298:169|362:173,1,135.000005149842
476,240,41919,1,0,0:0:0
416,304,42069,2,0,P|392:272|388:232,1,67.5000025749208
416,100,42369,2,0,P|440:132|444:172,1,67.5000025749208
416,304,42669,5,0,0:0:0
336,344,42819,1,0,0:0:0
248,344,42969,1,0,0:0:0
164,312,43119,5,0,0:0:0
164,312,43194,1,0,0:0:0
164,312,43269,2,0,P|104:332,1,45
28,248,43419,2,0,P|88:268,1,45
176,184,43569,2,0,P|116:204,1,45
40,120,43719,2,0,P|100:140,1,45
168,88,43869,6,0,P|236:76|280:112|280:112|288:88|352:56,2,180
176,184,44619,1,0,0:0:0
256,264,44769,2,0,P|280:220|280:172,1,90
388,136,45069,6,0,P|369:225|348:320,1,180
162,311,45519,2,0,P|143:225|124:136,1,180
256,56,45969,1,0,0:0:0
300,156,46119,5,0,0:0:0
308,176,46194,1,0,0:0:0
316,196,46269,2,0,P|403:221|467:169,1,180
256,56,46719,2,0,P|168:30|104:82,1,180
200,208,47169,2,0,P|200:160|180:108,1,90
80,176,47469,5,0,0:0:0
80,176,47544,1,0,0:0:0
80,176,47619,1,0,0:0:0
112,288,47769,1,0,0:0:0
224,324,47919,2,0,P|304:284|412:320,1,180
389,302,48369,1,0,0:0:0
464,212,48519,5,0,0:0:0
464,212,48594,1,0,0:0:0
464,212,48669,2,0,P|467:161|472:104,1,99.0000030212403
308,40,48969,2,0,P|312:87|315:138,1,99.0000030212403
211,280,49269,2,0,P|163:284|112:287,1,99.0000030212403
32,123,49569,2,0,P|78:136|126:151,1,99.0000030212403
305,235,49869,2,0,P|296:287|289:338,1,99.0000030212403
464,212,50169,2,0,P|457:166|448:114,1,99.0000030212403
228,72,50469,5,0,0:0:0
380,168,50619,1,0,0:0:0
212,280,50769,1,0,0:0:0
328,348,50919,5,0,0:0:0
328,348,50994,1,0,0:0:0
328,348,51069,2,0,P|404:361|464:288,1,180
283,140,51519,1,0,0:0:0
283,140,51594,1,0,0:0:0
283,140,51669,2,0,P|225:213|248:289,1,180
380,168,52119,5,0,0:0:0
376,144,52194,1,0,0:0:0
372,120,52269,2,0,P|308:56|216:80,1,180
104,236,52719,1,0,0:0:0
112,256,52794,1,0,0:0:0
120,276,52869,2,0,P|200:284|256:212,1,180
256,192,53319,12,0,54669,0:0:0
128,84,55269,37,0,0:0:0
256,144,55569,1,0,0:0:0
384,84,55869,6,0,P|442:149|424:236,1,180
304,292,56319,1,0,0:0:0
304,292,56394,1,0,0:0:0
304,292,56469,1,0,0:0:0
168,200,56619,1,0,0:0:0
168,200,56694,1,0,0:0:0
168,200,56769,1,0,0:0:0
56,332,56919,6,0,P|156:344|212:268,1,180,0|0,0:0|0:0,0:0:0
276,192,57369,2,0,P|324:192|372:216,1,90
456,328,57669,2,0,P|476:284|472:220,1,90
460,136,57969,5,0,0:0:0
428,112,58044,1,0,0:0:0
388,104,58119,1,0,0:0:0
348,104,58194,1,0,0:0:0
308,116,58269,2,0,P|228:128|140:88,1,180
43,276,58719,2,0,P|138:256|196:200,1,180
84,160,59169,1,0,0:0:0
84,160,59244,1,0,0:0:0
84,160,59319,1,0,0:0:0
84,160,59394,1,0,0:0:0
84,160,59469,6,0,P|156:344,1,180
256,376,59919,1,0,0:0:0
344,296,60069,2,0,P|312:268|256:256,1,90
168,88,60369,2,0,P|200:116|256:128,1,90
412,100,60669,1,0,0:0:0
412,100,60969,6,0,P|424:144|424:192,1,90
260,260,61269,2,0,P|292:223|334:210,1,90
424,272,61569,1,0,0:0:0
316,112,61719,2,0,P|236:128|128:148,1,180
52,276,62169,5,0,0:0:0
76,308,62244,1,0,0:0:0
116,316,62319,1,0,0:0:0
156,312,62394,1,0,0:0:0
192,296,62469,2,0,P|256:288|348:332,1,135,0|0,0:0|2:0,0:0:0
344,312,62769,2,0,P|392:304|444:296,1,90
486,129,63069,6,0,P|392:144|316:112,1,180,2|0,0:0|0:0,0:0:0
25,254,63519,2,0,P|120:240|196:272,1,180,2|0,0:0|0:0,0:0:0
344,312,63969,2,0,P|352:264|352:220,1,90
168,72,64269,2,0,P|160:120|160:164,1,90
360,144,64569,2,0,P|318:124|274:120,1,90
96,208,64869,5,0,0:0:0
100,228,64944,1,0,0:0:0
104,252,65019,1,0,0:0:0
108,276,65094,1,0,0:0:0
112,304,65169,2,0,P|120:360,1,45
204,376,65319,2,0,P|210:331,1,45
292,296,65469,6,0,P|340:292|400:288,1,90
460,192,65769,1,0,0:0:0
376,104,65919,2,0,P|348:144|352:200,1,90
432,356,66219,2,0,P|460:316|456:260,1,90
276,220,66519,2,0,P|180:204|84:248,1,180
104,232,66894,1,0,0:0:0
104,232,66969,2,0,P|60:216|16:188,1,90
160,64,67269,2,0,P|180:108|180:184,1,90
204,320,67569,5,0,0:0:0
372,340,67719,1,0,0:0:0
428,196,67869,2,0,P|348:168|276:220,1,180
204,320,68319,2,0,P|124:348|51:296,1,180
56,172,68769,5,0,0:0:0
92,152,68844,1,0,0:0:0
132,148,68919,1,0,0:0:0
172,156,68994,1,0,0:0:0
204,180,69069,2,0,P|284:196|372:152,1,180
448,68,69519,1,0,0:0:0
370,155,69669,2,0,P|359:199|371:246,1,90
480,348,69969,2,0,P|440:320|392:316,1,90
288,352,70269,6,0,P|220:368|164:324,1,135,0|0,0:0|2:0,0:0:0
160,304,70569,2,0,P|168:257|180:200,1,90
36,132,70869,2,0,P|44:173|52:220,1,90
76,340,71169,1,0,0:0:0
184,172,71319,2,0,P|276:144|336:196,1,180
448,296,71769,5,0,0:0:0
448,296,71844,1,0,0:0:0
448,296,71919,1,0,0:0:0
448,296,71994,1,0,0:0:0
448,296,72069,2,0,P|455:251|461:206,1,90
370,59,72369,2,0,P|363:103|356:148,1,90
348,184,72594,1,0,0:0:0
348,184,72669,6,0,P|268:200|180:140,1,180
28,320,73119,2,0,P|108:336|196:276,1,180
136,48,73569,2,0,P|80:124|100:228,1,180
104,244,73944,5,0,0:0:0
132,272,74019,1,0,0:0:0
168,288,74094,1,0,0:0:0
208,292,74169,1,0,0:0:0
248,284,74244,1,0,0:0:0
280,260,74319,1,0,0:0:0
304,228,74394,1,0,0:0:0
328,196,74469,1,0,0:0:0
364,180,74544,1,0,0:0:0
404,172,74619,1,0,0:0:0
444,184,74694,1,0,0:0:0
472,212,74769,1,0,0:0:0
484,252,74844,1,0,0:0:0
484,292,74919,1,0,0:0:0
468,328,74994,1,0,0:0:0
432,348,75069,6,0,P|348:312|248:328,1,180
44,220,75519,2,0,P|128:184|228:200,1,180
468,88,75969,2,0,P|384:52|284:68,1,180
172,108,76419,5,0,0:0:0
172,108,76494,1,0,0:0:0
172,108,76569,1,0,0:0:0
268,200,76719,1,0,0:0:0
268,200,76794,1,0,0:0:0
268,200,76869,2,0,P|312:196|360:160,1,90
464,220,77169,1,0,0:0:0
468,260,77244,1,0,0:0:0
452,296,77319,1,0,0:0:0
420,320,77394,1,0,0:0:0
380,324,77469,6,0,P|280:304|192:340,1,180
64,338,77919,2,0,P|75:247|84:160,1,180
248,21,78369,2,0,P|257:108|268:200,1,180
448,256,78819,5,0,0:0:0
288,316,78969,1,0,0:0:0
436,352,79119,1,0,0:0:0
332,216,79269,1,0,0:0:0
184,316,79419,1,0,0:0:0
52,256,79569,5,0,0:0:0
38,219,79644,1,0,0:0:0
42,181,79719,1,0,0:0:0
65,148,79794,1,0,0:0:0
104,140,79869,2,0,P|188:140|288:116,1,180
465,294,80319,2,0,P|381:294|288:316,1,180
116,216,80769,2,0,P|102:132|84:34,2,180
328,120,81669,6,0,P|372:116|417:111,1,90
312,240,81969,2,0,P|267:243|222:248,1,90
72,272,82269,1,0,0:0:0
72,272,82419,1,0,0:0:0
148,108,82569,1,0,0:0:0
148,108,82719,1,0,0:0:0
328,120,82869,2,0,P|372:124|420:100,1,90
470,207,83169,5,0,0:0:0
459,233,83244,1,0,0:0:0
448,260,83319,1,0,0:0:0
436,286,83394,1,0,0:0:0
424,312,83469,2,0,P|338:328|258:288,1,180
158,198,83919,1,0,0:0:0
158,198,83994,1,0,0:0:0
158,198,84069,2,0,P|146:90,1,90
20,92,84369,1,0,0:0:0
92,292,84519,6,0,P|184:308|264:252,1,180
348,180,84969,2,0,P|354:226|360:284,1,90
344,73,85269,2,0,P|387:77|433:83,1,90
247,208,85569,2,0,P|204:204|158:198,1,90
48,184,85869,5,0,0:0:0
48,184,85944,1,0,0:0:0
48,184,86019,2,0,P|27:239,1,45
92,292,86169,5,0,0:0:0
92,292,86244,1,0,0:0:0
92,292,86319,2,0,P|148:272,1,45
204,332,86469,5,0,0:0:0
204,332,86544,1,0,0:0:0
204,332,86619,2,0,P|232:296,1,45
320,324,86769,5,0,0:0:0
320,324,86844,1,0,0:0:0
320,324,86919,2,0,P|332:268,1,45
360,108,87069,5,0,0:0:0
256,192,99069,12,0,101469,0:0:0
176,108,102069,37,4,0:0:0
176,108,102369,2,0,P|182:154|180:204,1,90,8|0,0:0|0:0,0:0:0
96,280,102669,2,0,P|52:264|-8:268,2,90,0|0|8,0:0|0:0|0:0,0:0:0
196,340,103119,2,0,P|284:356|368:304,1,180
420,212,103569,5,8,0:0:0
324,108,103719,1,0,0:0:0
244,208,103869,2,0,P|288:208|336:188,1,90
416,112,104169,1,8,0:0:0
256,56,104319,1,8,0:0:0
120,156,104469,5,0,0:0:0
404,308,105069,1,0,0:0:0
192,296,105519,5,0,0:0:0
192,296,105594,1,0,0:0:0
192,296,105669,1,0,0:0:0
320,88,106119,5,0,0:0:0
320,88,106194,1,0,0:0:0
320,88,106269,1,0,0:0:0
256,192,106869,5,0,0:0:0
256,192,107169,2,0,P|212:196|160:188,1,90
320,88,107469,2,0,P|364:84|416:92,1,90
464,184,107769,1,0,0:0:0
388,340,107919,2,0,P|336:244|392:180,1,180
320,88,108369,1,0,0:0:0
320,88,108444,1,0,0:0:0
320,88,108519,1,0,0:0:0
320,88,108594,1,0,0:0:0
320,88,108669,6,0,P|276:88|212:104,1,90
100,132,108969,1,0,0:0:0
144,260,109119,1,0,0:0:0
144,260,109194,1,0,0:0:0
144,260,109269,1,0,0:0:0
320,88,110019,5,0,0:0:0
480,152,110169,1,0,0:0:0
432,52,110319,1,0,0:0:0
364,200,110469,2,0,P|280:224|176:200,1,180
40,124,110919,1,0,0:0:0
40,124,111219,5,0,0:0:0
40,124,111294,1,0,0:0:0
40,124,111369,1,0,0:0:0
152,56,111519,1,0,0:0:0
152,56,111594,1,0,0:0:0
152,56,111669,2,0,P|208:124|176:224,1,180
84,284,112119,5,0,0:0:0
20,220,112269,2,0,P|60:200|108:200,1,90
188,280,112569,1,0,0:0:0
300,316,112719,2,0,P|341:242|317:154,1,180
240,56,113169,5,0,0:0:0
240,56,113244,1,0,0:0:0
240,56,113319,1,0,0:0:0
132,160,113469,2,0,P|177:165|233:143,1,90
60,92,113769,2,0,P|40:128|36:184,1,90
32,212,113994,5,0,0:0:0
32,212,114069,2,0,P|80:224|96:264|96:264|189:280,1,180
324,296,114519,1,0,0:0:0
404,212,114669,2,0,P|451:211|491:224,2,90
324,128,115119,5,0,0:0:0
324,128,115194,1,0,0:0:0
324,128,115269,2,0,P|240:116|140:104,1,180
40,260,115719,2,0,P|136:248|220:296,1,180
312,340,116169,1,0,0:0:0
312,340,116244,1,0,0:0:0
312,340,116319,1,0,0:0:0
312,340,116394,1,0,0:0:0
312,340,116469,2,0,P|356:340|408:324,1,90
456,224,116769,6,0,P|510:186|490:117|490:117|520:51,2,180
328,132,117519,2,0,P|232:112|149:157,1,180
188,324,117969,2,0,P|208:280|208:232,1,90
72,76,118269,2,0,P|52:120|52:168,1,90
76,308,118569,5,0,0:0:0
108,332,118644,1,0,0:0:0
148,336,118719,1,0,0:0:0
188,324,118794,1,0,0:0:0
224,308,118869,2,0,P|316:296|396:324,1,180
472,168,119319,2,0,P|380:180|300:152,1,180
164,28,119769,2,0,P|104:100|128:204,1,180
248,260,120219,5,0,0:0:0
248,260,120294,1,0,0:0:0
248,260,120369,2,0,P|264:216|260:168,1,90
96,268,120669,1,0,0:0:0
116,304,120744,1,0,0:0:0
148,332,120819,1,0,0:0:0
184,348,120894,1,0,0:0:0
224,356,120969,1,0,0:0:0
264,356,121044,1,0,0:0:0
304,348,121119,1,0,0:0:0
340,332,121194,1,0,0:0:0
376,312,121269,6,0,P|436:304|520:348,2,135.000005149842
300,156,122169,2,0,P|331:151|373:144,1,67.5000025749208
260,80,122469,1,0,0:0:0
260,80,122619,2,0,P|216:132|232:212,1,135.000005149842
256,320,123069,5,0,0:0:0
256,320,123369,1,0,0:0:0
256,320,123669,2,0,P|326:309|392:300,1,135.000005149842
436,228,124119,1,0,0:0:0
384,156,124269,2,0,P|360:180|348:211,1,67.5000025749208
460,112,124569,2,0,P|432:88|392:72,1,67.5000025749208
316,68,124869,5,0,0:0:0
316,68,125019,2,0,P|254:77|176:88,1,135.000005149842
160,92,125394,1,0,0:0:0
160,92,125469,2,0,P|152:124|151:164,1,67.5000025749208
208,308,125769,1,0,0:0:0
288,248,125919,1,0,0:0:0
136,236,126069,6,0,P|72:252|8:212,1,135.000005149842
56,112,126519,1,0,0:0:0
156,56,126669,2,0,P|192:100|176:196,2,135.000005149842
348,104,127719,5,0,0:0:0
348,104,127869,2,0,P|342:139|336:184,1,67.5000025749208
428,172,128169,2,0,P|422:207|416:252,1,67.5000025749208
396,324,128469,2,0,P|336:360|262:341,1,135.000005149842
196,308,128919,1,0,0:0:0
196,308,129069,2,0,P|202:274|208:232,1,67.5000025749208
144,180,129369,2,0,P|114:195|68:208,1,67.5000025749208
24,104,129669,5,0,0:0:0
104,60,129819,1,0,0:0:0
192,60,129969,1,0,0:0:0
260,120,130119,5,0,0:0:0
260,120,130194,1,0,0:0:0
260,120,130269,2,0,P|276:168,1,45
328,264,130419,2,0,P|342:221,1,45
372,104,130569,2,0,P|388:152,1,45
440,248,130719,2,0,P|454:205,1,45
472,92,130869,6,0,P|444:40|444:40|384:16|312:36,2,180
376,196,131619,1,0,0:0:0
260,120,131769,2,0,P|300:104|360:108,1,90
182,237,132069,2,0,P|169:146|158:53,1,180
24,80,132519,2,0,P|2:165|55:249,1,180
156,324,132969,2,0,P|196:308|248:308,1,90
280,312,133194,5,0,0:0:0
280,312,133269,2,0,P|320:308|384:302,1,90
392,180,133569,1,0,0:0:0
256,192,133719,2,0,P|216:196|152:202,1,90
144,84,134019,1,0,0:0:0
280,72,134169,2,0,P|320:68|384:62,1,90
472,104,134469,6,0,P|508:180|492:276,1,180
392,332,134919,2,0,P|299:317|223:353,1,180
104,304,135369,1,0,0:0:0
108,268,135444,1,0,0:0:0
112,232,135519,1,0,0:0:0
116,196,135594,1,0,0:0:0
120,160,135669,6,0,P|123:108|128:48,1,99.0000030212403
304,172,135969,2,0,P|256:192|212:210,1,99.0000030212403
392,332,136269,2,0,P|395:285|398:233,1,99.0000030212403
408,96,136569,2,0,P|460:99|520:104,1,99.0000030212403
316,256,136869,2,0,P|264:253|204:248,1,99.0000030212403
36,144,137169,2,0,P|82:140|134:137,1,99.0000030212403
292,108,137469,6,0,P|344:88,1,49.5000015106202
356,164,137619,2,0,P|408:144,1,49.5000015106202
420,220,137769,2,0,P|467:203,1,49.5000015106202
426,294,137919,2,0,P|379:311,1,49.5000015106202
304,348,138069,6,0,P|240:328|204:364|204:364|172:356|112:312,1,180
24,260,138519,1,0,0:0:0
24,260,138594,1,0,0:0:0
24,260,138669,2,0,P|84:200|204:224,1,180
320,244,139119,5,0,0:0:0
320,244,139194,1,0,0:0:0
320,244,139269,2,0,P|376:180|360:68,1,180
180,28,139719,1,0,0:0:0
124,192,139869,2,0,P|225:199|281:151,1,180
256,192,140319,12,0,141669,0:0:0
120,260,142269,37,0,0:0:0
256,312,142569,1,0,0:0:0
392,260,142869,6,0,P|396:158|400:68,1,180,4|0,0:0|0:0,0:0:0
308,56,143319,2,0,P|307:93|303:145,1,90
480,236,143619,2,0,P|483:183|484:146,1,90
292,248,143919,2,0,P|208:272|141:217,1,180,4|0,0:0|0:0,0:0:0
88,92,144369,1,0,0:0:0
176,48,144519,1,0,0:0:0
176,48,144594,1,0,0:0:0
176,48,144669,2,0,P|180:96|164:152,1,90
76,268,144969,5,0,0:0:0
212,356,145119,1,0,0:0:0
368,308,145269,2,0,P|376:224|384:124,1,180,4|0,0:0|0:0,0:0:0
168,136,145719,2,0,P|265:146|318:84,1,180
456,100,146169,2,0,P|454:144|448:212,1,90
368,308,146469,6,0,P|272:296|184:332,1,180
56,336,146919,1,0,0:0:0
112,196,147069,2,0,P|128:236|128:288,1,90
28,152,147369,2,0,P|64:116|108:104,1,90
240,168,147669,6,0,P|320:207|408:170,1,180
476,88,148119,1,0,0:0:0
368,52,148269,2,0,P|336:84|320:132,2,90
472,264,148719,6,0,P|388:284|316:216,1,180
199,156,149169,2,0,P|154:162|103:168,1,90
12,84,149469,2,0,P|56:78|101:72,1,90
304,236,149769,2,0,P|259:242|208:248,1,90
316,88,150069,6,0,P|408:72|481:144,1,180,2|0,0:0|0:0,0:0:0
372,336,150519,2,0,P|279:351|206:279,1,180,2|0,0:0|0:0,0:0:0
44,192,150969,2,0,P|107:141|199:156,1,180,2|0,0:0|0:0,0:0:0
352,252,151419,5,0,0:0:0
392,244,151494,1,0,0:0:0
424,220,151569,1,0,0:0:0
440,184,151644,1,0,0:0:0
440,144,151719,1,0,0:0:0
420,108,151794,1,0,0:0:0
380,96,151869,2,0,P|340:92|291:110,1,90
76,300,152169,1,0,0:0:0
107,326,152244,1,0,0:0:0
146,335,152319,1,0,0:0:0
187,337,152394,1,0,0:0:0
228,328,152469,6,0,P|308:318|394:361,1,180
376,232,152919,2,0,P|332:232|280:212,1,90
208,120,153219,1,0,0:0:0
40,220,153369,1,0,0:0:0
96,52,153519,2,0,P|132:136|112:248,1,180
228,328,153969,2,0,P|232:280|256:236,1,90
360,128,154269,1,0,0:0:0
360,128,154344,1,0,0:0:0
360,128,154419,1,0,0:0:0
376,232,154569,6,0,P|416:220|472:216,1,90
312,24,154869,2,0,P|256:88|268:212,1,180
416,336,155319,2,0,P|472:272|460:148,1,180
360,128,155769,1,0,0:0:0
360,128,155844,1,0,0:0:0
360,128,155919,1,0,0:0:0
360,128,155994,1,0,0:0:0
360,128,156069,6,0,P|292:144|292:144|244:104|176:132,1,180
84,196,156519,1,0,0:0:0
176,284,156669,2,0,P|208:252|216:192,1,90
317,53,156969,2,0,P|349:85|360:128,1,90
360,296,157269,1,0,0:0:0
360,296,157569,6,0,P|444:320|508:248,2,180
248,176,158319,2,0,P|156:160|72:214,1,180
248,348,158769,2,0,P|264:304|260:256,1,90
112,152,159069,2,0,P|156:149|218:115,1,90,0|0,0:0|0:0,3:0:0
368,40,159369,1,0,0:0:0
364,164,159519,5,0,0:0:0
364,164,159594,1,0,0:0:0
364,164,159669,2,0,P|413:157|458:152,1,90
256,100,159969,1,0,0:0:0
148,256,160119,2,0,P|98:249|54:244,1,90
256,192,160419,5,0,0:0:0
364,348,160569,2,0,P|413:341|458:336,1,90
464,196,160869,1,0,0:0:0
424,184,160944,1,0,0:0:0
384,192,161019,1,0,0:0:0
352,216,161094,1,0,0:0:0
324,244,161169,1,0,0:0:0
292,268,161244,1,0,0:0:0
252,276,161319,1,0,0:0:0
212,264,161394,1,0,0:0:0
184,236,161469,2,0,P|173:138|164:40,1,180
48,148,161919,5,0,0:0:0
48,148,161994,1,0,0:0:0
48,148,162069,2,0,P|56:229|66:327,1,180
256,200,162519,2,0,P|256:113|256:20,1,180
464,148,162969,2,0,P|455:229|445:327,1,180
280,320,163419,2,0,P|228:312,2,45
172,184,163719,2,0,P|127:177,2,45
172,184,164169,5,0,0:0:0
280,320,164319,1,0,0:0:0
432,224,164469,2,0,P|464:136|444:40,1,180
232,244,164919,2,0,P|328:220|360:116,1,180
160,56,165369,2,0,P|64:80|32:184,1,180
120,280,165819,5,0,0:0:0
120,280,165894,1,0,0:0:0
120,280,165969,2,0,P|136:236|132:184,1,90
256,72,166269,2,0,P|262:116|268:168,1,90
304,324,166569,5,0,0:0:0
472,260,166719,1,0,0:0:0
464,80,166869,2,0,P|372:92|340:180,1,180
376,364,167319,2,0,P|436:284|416:168,1,180
256,72,167769,2,0,P|196:152|216:268,1,180
304,324,168219,1,0,0:0:0
304,324,168294,1,0,0:0:0
304,324,168369,2,0,P|328:280|328:228,1,90
124,224,168669,5,0,0:0:0
328,112,168969,1,0,0:0:0
304,324,169269,6,0,P|350:320|393:319,1,90
213,219,169569,2,0,P|167:223|124:224,1,90
328,112,169869,2,0,P|374:108|417:107,1,90
452,280,170169,1,0,0:0:0
416,300,170244,1,0,0:0:0
376,304,170319,1,0,0:0:0
336,296,170394,1,0,0:0:0
304,272,170469,2,0,P|224:256|136:300,1,180
32,192,170919,5,0,0:0:0
32,192,170994,1,0,0:0:0
32,192,171069,2,0,P|96:200|163:161,1,135
176,144,171369,1,0,0:0:0
328,56,171519,2,0,P|388:136|364:236,1,180
264,328,171969,6,0,P|220:316|156:316,1,90
32,192,172269,2,0,P|76:189|120:177,1,90
280,52,172569,2,0,P|232:48|192:61,1,90
88,268,172869,1,0,0:0:0
200,252,173019,5,0,0:0:0
200,252,173094,1,0,0:0:0
200,252,173169,2,0,P|216:208,1,45
272,132,173319,2,0,P|287:174,1,45
312,292,173469,2,0,P|328:248,1,45
344,96,173619,2,0,P|359:138,1,45
388,320,173769,2,0,P|404:276,1,45
412,64,173919,2,0,P|427:106,1,45
484,204,174069,5,4,0:0:0
148,84,176469,5,4,0:0:0
364,252,178869,5,4,0:0:0
96,272,181269,5,4,0:0:0
256,72,182469,5,0,0:0:0
256,192,183069,1,0,0:0:0
256,312,183669,1,4,0:0:0
456,80,186069,5,4,0:0:0
156,284,188469,5,4,0:0:0
148,236,190869,22,0,P|128:200|80:204|80:204|108:156|80:84,1,202.500007724762
80,85,191919,1,0,0:0:0
204,65,192069,5,0,0:0:0
241,81,192144,1,0,0:0:0
281,94,192219,1,0,0:0:0
320,108,192294,1,0,0:0:0
360,121,192369,2,0,P|463:154,1,90
308,260,192669,5,0,0:0:0
271,276,192744,1,0,0:0:0
231,289,192819,1,0,0:0:0
192,303,192894,1,0,0:0:0
152,316,192969,2,0,P|48:349,1,90
32,176,193269,5,0,0:0:0
64,148,193344,1,0,0:0:0
104,140,193419,1,0,0:0:0
144,144,193494,1,0,0:0:0
180,160,193569,1,0,0:0:0
212,184,193644,1,0,0:0:0
252,192,193719,1,0,0:0:0
292,184,193794,1,0,0:0:0
324,160,193869,6,0,P|332:104,1,45
416,76,194019,2,0,P|409:120,1,45
488,192,194169,2,0,P|496:136,1,45
398,207,194319,2,0,P|392:252,1,45
372,328,194469,5,0,0:0:0
336,344,194544,1,0,0:0:0
296,332,194619,1,0,0:0:0
260,348,194694,1,0,0:0:0
220,340,194769,1,0,0:0:0
180,352,194844,1,0,0:0:0
148,340,194919,1,0,0:0:0
108,352,194994,1,0,0:0:0
72,332,195069,5,0,0:0:0
72,332,195144,1,0,0:0:0
72,332,195219,2,0,P|52:284,1,45
116,224,195369,1,0,0:0:0
116,224,195444,1,0,0:0:0
116,224,195519,2,0,P|133:182,1,45
164,116,195669,5,0,0:0:0
188,84,195744,1,0,0:0:0
224,64,195819,1,0,0:0:0
264,56,195894,1,0,0:0:0
304,60,195969,1,0,0:0:0
344,72,196044,1,0,0:0:0
372,100,196119,1,0,0:0:0
388,136,196194,1,0,0:0:0
400,176,196269,6,0,P|396:240,1,45
320,348,196419,2,0,P|322:303,1,45
280,248,196569,1,0,0:0:0
240,240,196644,1,0,0:0:0
200,244,196719,1,0,0:0:0
164,264,196794,1,0,0:0:0
140,296,196869,6,0,P|128:352,3,45
40,240,197169,2,0,P|28:184,3,45
32,156,197469,1,0,0:0:0
52,120,197544,1,0,0:0:0
88,100,197619,1,0,0:0:0
128,100,197694,1,0,0:0:0
168,100,197769,2,0,P|244:80,1,45
308,152,197919,2,0,P|364:120,1,45
440,84,198069,6,0,P|496:164|464:252,1,180
248,332,198519,2,0,P|295:271|392:268,1,180
308,152,198969,1,0,0:0:0
308,152,199044,1,0,0:0:0
308,152,199119,2,0,P|272:148|272:148|252:164|252:164|212:144|120:156,1,180
88,276,199569,6,0,P|135:269|184:264,1,90
336,248,199869,2,0,P|331:293|324:360,1,90
176,136,200169,2,0,P|181:91|188:24,1,90
308,152,200469,5,0,0:0:0
164,236,200619,1,0,0:0:0
320,348,200769,1,0,0:0:0
416,213,200919,2,0,P|372:221|336:248,1,90
184,344,201219,5,0,0:0:0
52,180,201369,1,0,0:0:0
240,75,201519,2,0,P|263:121|263:121|243:141|243:141|251:185|251:185|203:225|159:237,1,225,0|0,0:0|0:0,3:0:0
128,232,201969,2,0,P|107:277|85:328,1,90
72,152,202269,5,0,0:0:0
72,152,202344,1,0,0:0:0
72,152,202419,2,0,P|8:168,1,45
112,56,202569,1,0,0:0:0
112,56,202644,1,0,0:0:0
112,56,202719,2,0,P|176:72,1,45
240,75,202869,6,0,B|268:71|268:71|284:75|284:75|292:59|292:59|308:71|308:71|324:51|324:51|344:63|344:63|400:19|469:44|512:115|484:191|428:223|344:203,1,450
240,272,203769,1,0,0:0:0
393,126,203919,1,0,0:0:0
432,280,204069,6,0,P|440:336,3,45
320,284,204369,2,0,P|313:239,3,45
256,164,204669,6,0,P|228:152|196:148,2,60
148,72,204969,2,0,P|120:85|97:107,2,60,0|0|0,0:0|0:0|0:0,3:0:0
60,176,205269,6,0,P|68:224,3,45
176,248,205569,2,0,P|168:292,3,45
168,332,205869,1,0,0:0:0
196,364,205944,1,0,0:0:0
236,376,206019,1,0,0:0:0
276,372,206094,1,0,0:0:0
316,360,206169,1,0,0:0:0
348,336,206244,1,0,0:0:0
380,312,206319,1,0,0:0:0
420,300,206394,1,0,0:0:0
460,300,206469,6,0,P|476:244,3,45
480,216,206769,1,0,0:0:0
476,176,206844,1,0,0:0:0
460,140,206919,1,0,0:0:0
428,116,206994,1,0,0:0:0
388,116,207069,2,0,P|340:132,1,45
288,224,207219,2,0,P|247:205,1,45
180,176,207369,5,0,0:0:0
144,160,207444,1,0,0:0:0
116,132,207519,1,0,0:0:0
96,96,207594,1,0,0:0:0
88,56,207669,2,0,P|72:148,1,90
40,328,207969,5,0,0:0:0
188,260,208119,1,0,0:0:0
88,236,208269,1,0,0:0:0
156,372,208419,1,0,0:0:0
232,244,208569,1,0,0:0:0
336,320,208719,2,0,P|428:336|488:248,1,180
476,140,209169,5,0,0:0:0
344,208,209319,1,0,0:0:0
344,208,209394,1,0,0:0:0
344,208,209469,1,0,0:0:0
372,96,209619,1,0,0:0:0
260,152,209769,2,0,P|244:196|260:260,1,90
336,320,210069,5,0,0:0:0
144,272,210219,1,0,0:0:0
224,352,210369,1,0,0:0:0
172,192,210519,2,0,P|128:192|80:216,1,90
120,68,210819,1,0,0:0:0
120,68,210969,2,0,P|164:68|220:84,1,90
360,128,211269,5,0,0:0:0
228,252,211419,1,0,0:0:0
392,324,211569,1,0,0:0:0
476,184,211719,2,0,P|432:196|400:232,1,90
256,328,212019,1,0,0:0:0
256,328,212169,2,0,P|256:148,1,180
132,100,212619,21,8,0:0:0
380,100,212769,1,8,0:0:0
152,224,212919,1,8,0:0:0
360,224,213069,1,0,0:0:0
400,216,213144,1,0,0:0:0
432,192,213219,1,0,0:0:0
452,156,213294,1,0,0:0:0
460,116,213369,2,0,P|453:64|420:30,1,90
266,137,213669,38,0,P|284:96,1,45
201,182,213819,2,0,P|160:164,1,45
246,247,213969,2,0,P|228:288,1,45
311,202,214119,2,0,P|352:220,1,45
344,128,214269,6,0,P|382:104,1,45
192,104,214419,2,0,P|168:65,1,45
168,256,214569,2,0,P|129:279,1,45
320,280,214719,2,0,P|343:318,1,45
256,192,214869,5,0,0:0:0
256,192,216069,6,0,P|256:328,1,135.000005149842
176,368,216519,1,0,0:0:0
96,332,216669,2,0,P|116:304|160:280,1,67.5000025749208
136,200,216969,2,0,P|104:184|76:148,1,67.5000025749208
100,76,217269,6,0,P|164:52|224:72,1,135.000005149842
324,132,217719,1,0,0:0:0
324,132,217869,2,0,P|352:128|388:112,1,67.5000025749208
448,48,218169,2,0,P|465:75|474:115,1,67.5000025749208
444,220,218469,1,0,0:0:0
444,220,218619,2,0,P|432:280|432:280|460:300|464:360,2,135.000005149842
444,220,219294,1,0,0:0:0
444,220,219369,2,0,P|388:246|388:246|362:223|303:234,1,135.000005149842
156,296,219969,6,0,P|120:296|64:284,2,67.5000025749208
256,152,220569,2,0,P|292:152|348:164,1,67.5000025749208
348,240,220869,2,0,P|276:252|212:224,1,135.000005149842,0|0,0:0|0:0,3:0:0
144,188,221319,1,0,0:0:0
132,100,221469,2,0,P|170:104|200:116,1,67.5000025749208
64,236,221769,2,0,P|55:198|56:166,1,67.5000025749208
144,188,222069,6,0,P|168:248|148:324,1,135.000005149842
153,314,222519,1,0,0:0:0
153,314,222669,2,0,P|194:320|252:332,1,67.5000025749208
360,316,222969,2,0,P|319:321|261:333,1,67.5000025749208
256,240,223269,5,0,0:0:0
256,152,223419,1,0,0:0:0
256,64,223569,1,0,0:0:0
384,60,223719,5,0,0:0:0
384,60,223794,1,0,0:0:0
384,60,223869,2,0,P|440:100,1,45
480,144,224019,2,0,P|424:184,1,45
380,224,224169,2,0,P|436:264,1,45
476,308,224319,2,0,P|420:348,1,45
360,316,224469,6,0,P|280:292|184:312,1,180
187,310,224919,1,0,0:0:0
72,304,225069,2,0,P|64:260|56:212,1,90
172,192,225369,2,0,P|180:148|188:100,1,90
304,44,225669,6,0,P|356:104|328:224,1,180
316,312,226119,2,0,P|360:312|408:292,1,90
432,184,226419,1,0,0:0:0
280,148,226569,2,0,P|260:188|256:236,1,90
196,336,226869,6,0,P|104:348|36:296,1,180
108,144,227319,2,0,P|194:178|228:256,1,180
316,312,227769,2,0,P|336:268|356:224,1,90
468,192,228069,5,0,0:0:0
468,192,228144,1,0,0:0:0
468,192,228219,1,0,0:0:0
404,92,228369,1,0,0:0:0
296,136,228519,2,0,P|204:144|136:96,1,180
135,95,228969,1,0,0:0:0
44,152,229119,5,0,0:0:0
44,152,229194,1,0,0:0:0
44,152,229269,2,0,P|45:202|48:264,1,99.0000030212403
184,348,229569,2,0,P|183:298|180:236,1,99.0000030212403
332,248,229869,2,0,P|382:247|444:244,1,99.0000030212403
392,64,230169,2,0,P|348:88|296:112,1,99.0000030212403
180,248,230469,2,0,P|130:247|81:244,1,99.0000030212403
120,64,230769,2,0,P|164:88|216:112,1,99.0000030212403
352,164,231069,5,0,0:0:0
196,272,231219,1,0,0:0:0
360,364,231369,1,0,0:0:0
440,256,231519,5,0,0:0:0
440,256,231594,1,0,0:0:0
440,256,231669,2,0,P|434:162|428:60,1,180
256,112,232119,1,0,0:0:0
256,136,232194,1,0,0:0:0
256,160,232269,2,0,P|256:244|256:340,1,180
72,256,232719,5,0,0:0:0
72,256,232794,1,0,0:0:0
72,256,232869,2,0,P|78:162|84:60,1,180
256,44,233319,1,0,0:0:0
332,212,233469,2,0,P|240:240|168:176,1,180
256,192,233919,12,0,235269,0:0:0
256,88,235869,5,0,2:0:0
256,196,236169,1,0,2:0:0
256,296,236469,1,4,0:0:0
108,104,237519,5,4,0:0:0
352,276,238869,5,4,0:0:0
160,276,240069,5,0,0:0:0
352,108,240669,1,0,0:0:0
160,108,241269,1,0,0:0:0
256,332,242319,5,0,0:0:0
256,192,243669,5,0,0:0:0
256,192,243819,12,4,246069,0:0:0
152,120,247119,5,4,0:0:0
304,232,248169,5,0,0:0:0
464,192,248319,1,0,0:0:0
360,120,248469,1,0,0:0:0
256,288,249669,37,0,0:0:0
360,120,250269,1,0,0:0:0
152,120,250869,1,0,0:0:0
152,120,251619,5,0,0:0:0
360,120,251769,1,0,0:0:0
256,288,251919,1,0,0:0:0
256,192,252069,12,0,252969,2:0:0
456,124,253269,21,4,0:0:0
56,260,253719,1,4,0:0:0
108,80,254169,2,4,P|208:56|260:116,1,180,4|0,0:0|0:0,0:0:0
256,128,254544,1,0,0:0:0
256,152,254619,1,0,0:0:0
256,176,254694,1,0,0:0:0
256,200,254769,1,0,0:0:0
256,224,254844,1,0,0:0:0
256,248,254919,1,0,0:0:0
256,272,254994,1,0,0:0:0
256,296,255069,6,0,P|192:328,1,45
328,336,255219,2,0,P|372:312,1,45
380,212,255369,2,0,P|316:244,1,45
452,268,255519,2,0,P|496:244,1,45
472,168,255669,6,0,P|438:111|387:120|387:120|412:84|404:24,1,180
296,60,256119,1,0,0:0:0
296,60,256194,1,0,0:0:0
296,60,256269,1,0,0:0:0
200,112,256419,2,0,P|152:112|104:96,1,90
56,300,256719,2,0,P|156:304|216:228,1,180
336,204,257169,6,0,P|332:248|328:304,1,90
475,227,257469,2,0,P|479:183|483:127,1,90
392,80,257769,1,0,0:0:0
392,80,257844,1,0,0:0:0
392,80,257919,1,0,0:0:0
392,80,257994,1,0,0:0:0
392,80,258069,6,0,P|310:61|226:101,1,180
292,320,258519,2,0,P|340:241|292:132,1,180
48,116,258969,1,0,0:0:0
36,156,259044,1,0,0:0:0
40,196,259119,1,0,0:0:0
56,232,259194,1,0,0:0:0
88,256,259269,2,0,P|172:216|260:232,1,180
424,184,259719,5,0,0:0:0
432,308,259869,2,0,P|384:304|348:276,1,90
256,144,260169,1,0,0:0:0
256,144,260244,1,0,0:0:0
256,144,260319,1,0,0:0:0
256,144,260394,1,0,0:0:0
256,144,260469,2,0,P|324:128|384:160,1,135
424,184,260769,6,0,P|471:174|511:142,1,90
340,56,261069,2,0,P|292:50|252:62,1,90
144,108,261369,1,0,0:0:0
220,316,261519,2,0,P|299:284|321:185,1,180,0|0,0:0|0:0,3:0:0
256,144,261969,5,0,0:0:0
256,144,262044,1,0,0:0:0
256,144,262119,1,0,0:0:0
116,236,262269,1,0,0:0:0
116,236,262344,1,0,0:0:0
116,236,262419,1,0,0:0:0
56,52,262569,1,0,0:0:0
56,52,262644,1,0,0:0:0
56,52,262719,1,0,0:0:0
144,108,262869,6,0,P|241:98|305:50,1,180,2|0,0:0|0:0,0:0:0
476,268,263319,2,0,P|412:220|314:210,1,180,2|0,0:0|0:0,0:0:0
36,284,263769,2,0,P|100:332|197:341,1,180,2|0,0:0|0:0,0:0:0
256,248,264219,5,0,0:0:0
256,248,264294,1,0,0:0:0
256,248,264369,2,0,P|256:152,1,90
479,147,264669,1,0,0:3:0
488,187,264744,1,0,0:3:0
488,228,264819,1,0,0:3:0
480,268,264894,1,0,0:3:0
456,300,264969,1,0,0:3:0
428,328,265044,1,0,0:3:0
392,344,265119,1,0,0:3:0
352,352,265194,1,0,0:3:0
312,352,265269,6,0,P|216:320|120:340,1,180
60,220,265719,1,0,0:0:0
60,220,265794,1,0,0:0:0
60,220,265869,1,0,0:0:0
200,96,266019,1,0,0:0:0
200,96,266094,1,0,0:0:0
200,96,266169,1,0,0:0:0
312,212,266319,6,0,P|216:237|156:185,1,180
272,32,266769,2,0,P|288:72|292:120,1,90
156,332,267069,2,0,P|160:285|176:245,1,90
312,212,267369,5,0,0:0:0
124,132,267519,1,0,0:0:0
272,32,267669,2,0,P|372:24|432:100,1,180
240,264,268119,2,0,P|244:156|328:124,1,180
468,248,268569,1,0,0:0:0
472,288,268644,1,0,0:0:0
456,324,268719,1,0,0:0:0
424,348,268794,1,0,0:0:0
384,352,268869,6,0,P|300:324|300:324|252:360|196:336,1,180
112,284,269319,1,0,0:0:0
176,188,269469,1,0,0:0:0
176,188,269544,1,0,0:0:0
176,188,269619,2,0,P|208:148,1,45
116,108,269769,1,0,0:0:0
116,108,269844,1,0,0:0:0
116,108,269919,2,0,P|108:64,1,45
200,64,270069,6,0,P|276:40|376:84,1,180
456,204,270519,1,0,0:0:0
356,232,270669,2,0,P|356:184|380:144,1,90
456,100,270969,1,0,0:0:0
420,300,271119,2,0,P|328:320|264:244,1,180
168,204,271569,5,0,0:0:0
168,204,271644,1,0,0:0:0
168,204,271719,1,0,0:0:0
168,204,271794,1,0,0:0:0
168,204,271869,2,0,P|125:208|72:216,1,90
208,92,272169,2,0,P|254:98|297:102,1,90
420,300,272469,6,0,P|341:290|297:194,1,180
356,36,272919,2,0,P|434:45|478:141,1,180
256,336,273369,2,0,P|177:326|133:230,1,180
132,204,273744,5,0,0:0:0
144,164,273819,1,0,0:0:0
168,132,273894,1,0,0:0:0
204,112,273969,1,0,0:0:0
244,104,274044,1,0,0:0:0
284,108,274119,1,0,0:0:0
320,128,274194,1,0,0:0:0
348,160,274269,6,0,P|340:236,1,45
260,288,274419,2,0,P|264:243,1,45
408,264,274569,2,0,P|404:309,1,45
484,216,274719,2,0,P|488:171,1,45
474,76,274869,6,0,P|378:74|320:128,1,180
240,384,275319,2,0,P|324:337|348:260,1,180
184,100,275769,2,0,P|57:159|128:269,1,270
184,356,276369,1,0,0:0:0
184,356,276444,1,0,0:0:0
184,356,276519,1,0,0:0:0
184,356,276594,1,0,0:0:0
184,356,276669,1,0,0:0:0
184,356,276744,1,0,0:0:0
184,356,276819,1,0,0:0:0
184,356,276894,1,0,0:0:0
184,356,276969,38,0,P|236:332,1,45
360,296,277119,2,0,P|376:244,1,45
404,132,277269,6,0,P|328:84|228:96,1,180
108,272,277719,2,0,P|194:278|270:230,1,180
60,52,278169,2,0,P|48:140|36:244,1,180
140,344,278619,5,0,0:0:0
176,360,278694,1,0,0:0:0
216,360,278769,1,0,0:0:0
256,348,278844,1,0,0:0:0
284,320,278919,1,0,0:0:0
296,280,278994,1,0,0:0:0
288,240,279069,2,0,P|280:196,3,45
192,116,279369,22,0,P|148:104,1,45
96,192,279519,2,0,P|52:180,1,45
48,304,279669,6,0,P|133:320|213:280,1,180
464,80,280119,2,0,P|378:63|298:103,1,180
320,312,280569,2,0,P|405:328|485:288,1,180
440,168,281019,5,0,0:0:0
400,156,281094,1,0,0:0:0
360,156,281169,1,0,0:0:0
320,168,281244,1,0,0:0:0
280,180,281319,1,0,0:0:0
240,176,281394,1,0,0:0:0
204,160,281469,6,0,P|176:120,1,45
100,76,281619,2,0,P|80:116,1,45
96,236,281769,2,0,P|116:196,1,45
180,264,281918,2,0,P|205:300,1,45
264,344,282069,6,0,P|309:339|376:332,1,90
409,158,282369,2,0,P|364:163|320:168,1,90
100,76,282669,2,0,P|145:81|190:86,1,90
304,252,282969,1,0,0:0:0
304,252,283044,1,0,0:0:0
304,252,283119,1,0,0:0:0
304,252,283194,1,0,0:0:0
304,252,283269,2,0,P|404:272|468:204,1,180
424,76,283719,5,0,0:0:0
424,76,283794,1,0,0:0:0
424,76,283869,2,0,P|352:88|276:64,1,135
256,60,284169,1,0,0:0:0
48,288,284319,1,0,0:0:0
256,192,284469,12,0,286869,0:0:0
