osu file format v12

[General]
AudioFilename: Arrival of Tears (TV Size).mp3
AudioLeadIn: 0
PreviewTime: 54905
Countdown: 0
SampleSet: None
StackLeniency: 0.7
Mode: 3
LetterboxInBreaks: 0
SpecialStyle: 1
WidescreenStoryboard: 0

[Editor]
DistanceSpacing: 0.83
BeatDivisor: 4
GridSize: 32

[Metadata]
Title:Arrival of Tears (TV Size)
TitleUnicode:Arrival of Tears (TV Size)
Artist:Ayane
ArtistUnicode:Ayane
Creator:-DanteMayCry-
Version:7K Insane
Source:11eyes
Tags:Ayane Simple_Star lass 5pb.games Tatsh
BeatmapID:324972
BeatmapSetID:128302

[Difficulty]
HPDrainRate:9
CircleSize:7
OverallDifficulty:9
ApproachRate:5
SliderMultiplier:1.4
SliderTickRate:1

[Events]
//Background and Video events
0,0,"A56.jpg",0,0
//Break Periods
//Storyboard Layer 0 (Background)
//Storyboard Layer 1 (Fail)
//Storyboard Layer 2 (Pass)
//Storyboard Layer 3 (Foreground)
//Storyboard Sound Samples
//Background Colour Transformations
3,100,163,162,255

[TimingPoints]
305,300,4,3,1,60,1,0
33605,-100,4,3,2,60,0,0
33905,-100,4,3,1,60,0,0
55468,-100,4,3,1,60,0,1
64505,-100,4,3,2,60,0,1
65105,-100,4,3,1,60,0,1
84268,-100,4,3,1,60,0,0

[HitObjects]
475,192,305,128,0,905:0:0:0:0:
402,192,305,1,0,0:0:0:0:
256,192,305,1,0,0:0:0:0:
329,192,605,1,0,0:0:0:0:
402,192,905,1,0,0:0:0:0:
182,192,1205,1,0,0:0:0:0:
402,192,1355,1,4,0:0:0:0:
329,192,1430,1,4,0:0:0:0:
109,192,1505,1,0,0:0:0:0:
36,192,1505,128,0,2105:0:0:0:0:
256,192,1505,1,4,0:0:0:0:
182,192,1805,1,0,0:0:0:0:
109,192,2105,1,0,0:0:0:0:
329,192,2405,1,0,0:0:0:0:
109,192,2555,1,4,0:0:0:0:
182,192,2630,1,4,0:0:0:0:
475,192,2705,128,0,3305:0:0:0:0:
402,192,2705,1,0,0:0:0:0:
256,192,2705,1,4,0:0:0:0:
329,192,3005,1,0,0:0:0:0:
402,192,3305,1,0,0:0:0:0:
329,192,3605,1,0,0:0:0:0:
475,192,3905,128,0,5105:0:0:0:0:
256,192,3905,1,0,0:0:0:0:
109,192,3905,1,0,0:0:0:0:
182,192,4205,1,0,0:0:0:0:
36,192,4205,1,0,0:0:0:0:
256,192,4505,1,0,0:0:0:0:
109,192,4505,1,0,0:0:0:0:
329,192,4805,1,0,0:0:0:0:
182,192,4805,1,0,0:0:0:0:
36,192,5105,128,0,6305:0:0:0:0:
402,192,5105,1,0,0:0:0:0:
256,192,5105,1,0,0:0:0:0:
109,192,5255,1,0,0:0:0:0:
475,192,5405,1,0,0:0:0:0:
329,192,5405,1,0,0:0:0:0:
182,192,5555,1,0,0:0:0:0:
402,192,5705,1,0,0:0:0:0:
256,192,5855,1,0,0:0:0:0:
475,192,6005,1,0,0:0:0:0:
109,192,6005,1,0,0:0:0:0:
182,192,6155,1,0,0:0:0:0:
402,192,6305,128,0,7505:0:0:0:0:
256,192,6305,1,0,0:0:0:0:
475,192,6455,1,0,0:0:0:0:
109,192,6605,1,0,0:0:0:0:
329,192,6605,1,0,0:0:0:0:
256,192,6755,1,0,0:0:0:0:
36,192,6905,1,0,0:0:0:0:
182,192,6905,1,0,0:0:0:0:
329,192,7055,1,0,0:0:0:0:
182,192,7205,1,0,0:0:0:0:
256,192,7205,1,0,0:0:0:0:
475,192,7355,1,0,0:0:0:0:
36,192,7505,1,0,0:0:0:0:
109,192,7505,1,0,0:0:0:0:
329,192,7505,128,0,8705:0:0:0:0:
256,192,7655,1,0,0:0:0:0:
182,192,7805,1,0,0:0:0:0:
475,192,7805,1,0,0:0:0:0:
36,192,7955,1,0,0:0:0:0:
109,192,8105,1,0,0:0:0:0:
402,192,8255,1,0,0:0:0:0:
256,192,8405,1,0,0:0:0:0:
182,192,8405,1,0,0:0:0:0:
475,192,8555,1,0,0:0:0:0:
36,192,8705,1,0,0:0:0:0:
182,192,8705,1,0,0:0:0:0:
109,192,8705,128,0,9905:0:0:0:0:
182,192,9005,1,0,0:0:0:0:
256,192,9155,1,0,0:0:0:0:
329,192,9305,1,0,0:0:0:0:
402,192,9455,1,0,0:0:0:0:
182,192,9605,1,0,0:0:0:0:
256,192,9605,1,0,0:0:0:0:
475,192,9605,128,0,9905:0:0:0:0:
36,192,9755,1,0,0:0:0:0:
402,192,9905,128,0,11105:0:0:0:0:
329,192,9905,128,0,10505:0:0:0:0:
182,192,9905,1,0,0:0:0:0:
182,192,10205,1,0,0:0:0:0:
256,192,10205,1,0,0:0:0:0:
109,192,10355,1,0,0:0:0:0:
256,192,10505,128,0,11105:0:0:0:0:
36,192,10505,1,0,0:0:0:0:
109,192,10655,1,0,0:0:0:0:
329,192,10805,1,0,0:0:0:0:
182,192,10805,1,0,0:0:0:0:
109,192,10955,1,0,0:0:0:0:
475,192,11105,128,0,12305:0:0:0:0:
182,192,11105,1,0,0:0:0:0:
36,192,11105,1,0,0:0:0:0:
109,192,11405,1,0,0:0:0:0:
329,192,11405,1,0,0:0:0:0:
182,192,11555,1,0,0:0:0:0:
36,192,11705,1,0,0:0:0:0:
256,192,11705,1,0,0:0:0:0:
402,192,11705,128,0,12305:0:0:0:0:
109,192,11855,1,0,0:0:0:0:
182,192,12005,1,0,0:0:0:0:
329,192,12005,1,0,0:0:0:0:
36,192,12155,1,0,0:0:0:0:
109,192,12305,1,0,0:0:0:0:
182,192,12305,1,0,0:0:0:0:
256,192,12305,128,0,13505:0:0:0:0:
329,192,12455,1,0,0:0:0:0:
36,192,12605,1,0,0:0:0:0:
182,192,12605,1,0,0:0:0:0:
402,192,12755,1,0,0:0:0:0:
109,192,12905,1,0,0:0:0:0:
475,192,13055,1,0,0:0:0:0:
36,192,13205,1,0,0:0:0:0:
329,192,13205,1,0,0:0:0:0:
109,192,13355,1,0,0:0:0:0:
475,192,13505,128,0,14705:0:0:0:0:
402,192,13505,1,0,0:0:0:0:
182,192,13505,1,0,0:0:0:0:
36,192,13655,1,0,0:0:0:0:
329,192,13805,1,0,0:0:0:0:
109,192,13955,1,0,0:0:0:0:
182,192,14105,1,0,0:0:0:0:
402,192,14255,1,0,0:0:0:0:
256,192,14255,1,0,0:0:0:0:
36,192,14405,1,2,0:0:0:0:
329,192,14405,1,0,0:0:0:0:
109,192,14480,1,2,0:0:0:0:
182,192,14555,1,2,0:0:0:0:
256,192,14630,1,2,0:0:0:0:
402,192,14705,1,0,0:0:0:0:
109,192,14705,1,2,0:0:0:0:
329,192,14855,1,0,0:0:0:0:
109,192,15005,1,8,0:0:0:0:
402,192,15005,1,0,0:0:0:0:
36,192,15155,1,0,0:0:0:0:
109,192,15305,1,0,0:0:0:0:
182,192,15455,1,0,0:0:0:0:
475,192,15605,1,8,0:0:0:0:
256,192,15605,1,0,0:0:0:0:
329,192,15755,1,0,0:0:0:0:
109,192,15905,1,0,0:0:0:0:
256,192,16055,1,0,0:0:0:0:
475,192,16205,1,8,0:0:0:0:
36,192,16205,1,0,0:0:0:0:
182,192,16355,1,0,0:0:0:0:
402,192,16505,1,0,0:0:0:0:
109,192,16655,1,0,0:0:0:0:
329,192,16805,1,8,0:0:0:0:
256,192,16805,1,0,0:0:0:0:
475,192,16955,1,0,0:0:0:0:
36,192,17105,128,0,17705:0:0:0:0:
182,192,17105,1,0,0:0:0:0:
475,192,17405,1,0,0:0:0:0:
329,192,17405,1,8,0:0:0:0:
109,192,17405,1,0,0:0:0:0:
182,192,17555,1,0,0:0:0:0:
109,192,17705,128,0,18305:0:0:0:0:
402,192,17705,1,0,0:0:0:0:
256,192,17705,1,0,0:0:0:0:
475,192,17855,1,0,0:0:0:0:
182,192,18005,1,0,0:0:0:0:
402,192,18005,1,8,0:0:0:0:
256,192,18155,1,0,0:0:0:0:
475,192,18305,128,0,18755:0:0:0:0:
36,192,18305,1,0,0:0:0:0:
329,192,18305,1,0,0:0:0:0:
256,192,18455,1,0,0:0:0:0:
36,192,18605,1,0,0:0:0:0:
109,192,18605,1,8,0:0:0:0:
402,192,18755,128,0,19205:0:0:0:0:
182,192,18755,1,0,0:0:0:0:
329,192,18905,1,0,0:0:0:0:
109,192,19055,1,0,0:0:0:0:
329,192,19205,128,0,19505:0:0:0:0:
256,192,19205,1,8,0:0:0:0:
182,192,19205,1,0,0:0:0:0:
36,192,19355,1,0,0:0:0:0:
109,192,19355,1,8,0:0:0:0:
402,192,19505,1,0,0:0:0:0:
475,192,19505,1,0,0:0:0:0:
36,192,19655,1,0,0:0:0:0:
329,192,19805,1,8,0:0:0:0:
109,192,19805,1,0,0:0:0:0:
36,192,19955,1,0,0:0:0:0:
475,192,20105,1,0,0:0:0:0:
329,192,20255,1,0,0:0:0:0:
182,192,20405,1,8,0:0:0:0:
402,192,20405,1,0,0:0:0:0:
36,192,20555,1,0,0:0:0:0:
402,192,20705,1,0,0:0:0:0:
109,192,20705,1,0,0:0:0:0:
256,192,20855,1,0,0:0:0:0:
36,192,21005,1,0,0:0:0:0:
109,192,21005,1,8,0:0:0:0:
329,192,21155,1,0,0:0:0:0:
475,192,21305,1,0,0:0:0:0:
402,192,21305,1,0,0:0:0:0:
256,192,21455,1,0,0:0:0:0:
109,192,21605,1,0,0:0:0:0:
402,192,21605,1,8,0:0:0:0:
256,192,21755,1,0,0:0:0:0:
475,192,21905,128,0,22505:0:0:0:0:
182,192,21905,1,0,0:0:0:0:
36,192,21905,1,0,0:0:0:0:
402,192,22205,1,0,0:0:0:0:
256,192,22205,1,8,0:0:0:0:
109,192,22505,1,0,0:0:0:0:
36,192,22505,128,0,23105:0:0:0:0:
329,192,22505,1,0,0:0:0:0:
402,192,22655,1,0,0:0:0:0:
182,192,22655,1,0,0:0:0:0:
256,192,22805,1,8,0:0:0:0:
475,192,22805,1,0,0:0:0:0:
402,192,23105,128,0,23405:0:0:0:0:
329,192,23105,1,0,0:0:0:0:
109,192,23105,1,0,0:0:0:0:
182,192,23255,1,0,0:0:0:0:
256,192,23255,1,0,0:0:0:0:
109,192,23405,128,0,23555:0:0:0:0:
475,192,23405,1,0,0:0:0:0:
329,192,23405,1,8,0:0:0:0:
256,192,23555,128,0,24005:0:0:0:0:
182,192,23555,1,0,0:0:0:0:
329,192,23705,1,0,0:0:0:0:
402,192,23855,1,0,0:0:0:0:
36,192,24005,1,0,0:0:0:0:
182,192,24005,1,8,0:0:0:0:
475,192,24005,1,0,0:0:0:0:
329,192,24155,1,8,0:0:0:0:
256,192,24230,1,8,0:0:0:0:
109,192,24305,1,0,0:0:0:0:
182,192,24305,1,0,0:0:0:0:
475,192,24455,1,0,0:0:0:0:
256,192,24605,1,0,0:0:0:0:
329,192,24605,1,8,0:0:0:0:
182,192,24755,1,0,0:0:0:0:
109,192,24905,1,0,0:0:0:0:
402,192,24905,1,0,0:0:0:0:
256,192,25055,1,0,0:0:0:0:
36,192,25205,1,0,0:0:0:0:
329,192,25205,1,8,0:0:0:0:
109,192,25355,1,0,0:0:0:0:
182,192,25505,1,0,0:0:0:0:
475,192,25655,1,0,0:0:0:0:
256,192,25805,1,0,0:0:0:0:
402,192,25805,1,8,0:0:0:0:
36,192,25955,1,0,0:0:0:0:
256,192,26105,1,0,0:0:0:0:
109,192,26105,1,0,0:0:0:0:
475,192,26255,1,0,0:0:0:0:
182,192,26405,1,0,0:0:0:0:
329,192,26405,1,8,0:0:0:0:
36,192,26555,1,0,0:0:0:0:
402,192,26555,1,8,0:0:0:0:
256,192,26705,128,0,27305:0:0:0:0:
329,192,26705,1,0,0:0:0:0:
182,192,26855,1,0,0:0:0:0:
475,192,27005,1,0,0:0:0:0:
402,192,27005,1,8,0:0:0:0:
109,192,27155,1,0,0:0:0:0:
329,192,27305,128,0,27905:0:0:0:0:
475,192,27305,1,0,0:0:0:0:
36,192,27455,1,0,0:0:0:0:
182,192,27455,1,0,0:0:0:0:
402,192,27605,1,0,0:0:0:0:
256,192,27605,1,8,0:0:0:0:
182,192,27755,1,0,0:0:0:0:
402,192,27905,128,0,28355:0:0:0:0:
36,192,27905,1,0,0:0:0:0:
109,192,27905,1,0,0:0:0:0:
182,192,28055,1,0,0:0:0:0:
109,192,28205,1,0,0:0:0:0:
329,192,28205,1,8,0:0:0:0:
475,192,28355,128,0,28805:0:0:0:0:
256,192,28355,1,0,0:0:0:0:
36,192,28505,1,0,0:0:0:0:
402,192,28655,1,0,0:0:0:0:
182,192,28655,1,0,0:0:0:0:
109,192,28805,1,8,0:0:0:0:
329,192,28805,1,0,0:0:0:0:
182,192,28880,1,8,0:0:0:0:
256,192,28955,1,8,0:0:0:0:
329,192,29030,1,8,0:0:0:0:
109,192,29105,1,0,0:0:0:0:
402,192,29105,1,8,0:0:0:0:
36,192,29255,1,0,0:0:0:0:
475,192,29405,1,0,0:0:0:0:
329,192,29405,1,8,0:0:0:0:
109,192,29555,1,0,0:0:0:0:
402,192,29705,1,0,0:0:0:0:
256,192,29705,1,0,0:0:0:0:
36,192,29855,1,0,0:0:0:0:
329,192,30005,1,8,0:0:0:0:
182,192,30005,1,0,0:0:0:0:
402,192,30155,1,0,0:0:0:0:
256,192,30155,1,0,0:0:0:0:
109,192,30305,1,0,0:0:0:0:
329,192,30455,1,0,0:0:0:0:
475,192,30605,1,0,0:0:0:0:
402,192,30605,1,8,0:0:0:0:
109,192,30755,1,0,0:0:0:0:
329,192,30905,1,0,0:0:0:0:
182,192,30905,1,0,0:0:0:0:
109,192,31055,1,0,0:0:0:0:
256,192,31055,1,8,0:0:0:0:
475,192,31205,1,0,0:0:0:0:
182,192,31205,1,8,0:0:0:0:
36,192,31205,1,0,0:0:0:0:
109,192,31355,1,0,0:0:0:0:
182,192,31430,1,0,0:0:0:0:
256,192,31505,1,0,0:0:0:0:
329,192,31505,128,0,31955:0:0:0:0:
475,192,31805,1,0,0:0:0:0:
402,192,31805,1,8,0:0:0:0:
36,192,31955,128,0,32405:0:0:0:0:
109,192,31955,1,0,0:0:0:0:
182,192,32105,1,0,0:0:0:0:
402,192,32255,1,8,0:0:0:0:
256,192,32255,1,0,0:0:0:0:
475,192,32405,128,0,33605:0:0:0:0:
329,192,32405,1,8,0:0:0:0:
109,192,32405,1,0,0:0:0:0:
182,192,32555,1,0,0:0:0:0:
402,192,32705,1,0,0:0:0:0:
329,192,32705,1,0,0:0:0:0:
36,192,32855,1,8,0:0:0:0:
256,192,33005,1,8,0:0:0:0:
182,192,33005,1,0,0:0:0:0:
36,192,33155,1,0,0:0:0:0:
402,192,33305,1,0,0:0:0:0:
329,192,33305,1,8,0:0:0:0:
256,192,33380,1,8,0:0:0:0:
182,192,33455,1,8,0:0:0:0:
109,192,33530,1,8,0:0:0:0:
36,192,33605,1,8,0:0:0:0:
402,192,33605,1,0,0:0:0:0:
109,192,33680,1,8,0:0:0:0:
182,192,33755,1,8,0:0:0:0:
256,192,33830,1,8,0:0:0:0:
36,192,33905,128,0,35105:0:0:0:0:
475,192,33905,1,0,0:0:0:0:
402,192,33905,1,0,0:0:0:0:
329,192,33905,1,0,0:0:0:0:
182,192,34205,1,0,0:0:0:0:
402,192,34355,1,0,0:0:0:0:
256,192,34505,1,0,0:0:0:0:
329,192,34505,1,8,0:0:0:0:
109,192,34805,1,0,0:0:0:0:
256,192,34955,1,0,0:0:0:0:
475,192,35105,128,0,36305:0:0:0:0:
402,192,35105,1,0,0:0:0:0:
109,192,35255,1,0,0:0:0:0:
329,192,35405,1,0,0:0:0:0:
182,192,35555,1,0,0:0:0:0:
36,192,35705,1,0,0:0:0:0:
402,192,35705,1,8,0:0:0:0:
256,192,36005,1,0,0:0:0:0:
36,192,36305,1,0,0:0:0:0:
182,192,36305,1,0,0:0:0:0:
256,192,36305,128,0,37505:0:0:0:0:
329,192,36605,1,0,0:0:0:0:
475,192,36755,1,0,0:0:0:0:
36,192,36905,1,0,0:0:0:0:
402,192,36905,1,8,0:0:0:0:
182,192,37205,1,0,0:0:0:0:
109,192,37505,1,0,0:0:0:0:
475,192,37505,1,0,0:0:0:0:
36,192,37655,1,0,0:0:0:0:
402,192,37805,128,0,38105:0:0:0:0:
182,192,37805,1,0,0:0:0:0:
329,192,37955,1,0,0:0:0:0:
182,192,38105,1,0,0:0:0:0:
109,192,38105,128,0,38405:0:0:0:0:
475,192,38105,1,0,0:0:0:0:
256,192,38255,1,0,0:0:0:0:
329,192,38405,1,8,0:0:0:0:
256,192,38405,128,0,38705:0:0:0:0:
402,192,38705,128,0,39905:0:0:0:0:
36,192,38705,1,0,0:0:0:0:
182,192,38705,1,0,0:0:0:0:
475,192,39005,1,0,0:0:0:0:
182,192,39155,1,0,0:0:0:0:
109,192,39305,1,0,0:0:0:0:
329,192,39305,1,0,0:0:0:0:
36,192,39605,1,8,0:0:0:0:
475,192,39605,1,0,0:0:0:0:
182,192,39755,1,0,0:0:0:0:
36,192,39905,128,0,41105:0:0:0:0:
329,192,39905,1,0,0:0:0:0:
256,192,39905,1,0,0:0:0:0:
475,192,40205,1,0,0:0:0:0:
182,192,40355,1,0,0:0:0:0:
329,192,40505,1,0,0:0:0:0:
109,192,40655,1,0,0:0:0:0:
475,192,40805,1,0,0:0:0:0:
256,192,40805,1,8,0:0:0:0:
329,192,40955,1,0,0:0:0:0:
475,192,41105,128,0,42305:0:0:0:0:
109,192,41105,1,0,0:0:0:0:
182,192,41105,1,0,0:0:0:0:
402,192,41255,1,0,0:0:0:0:
256,192,41405,1,0,0:0:0:0:
109,192,41555,1,0,0:0:0:0:
329,192,41705,1,0,0:0:0:0:
36,192,41855,1,0,0:0:0:0:
402,192,42005,1,0,0:0:0:0:
182,192,42005,1,8,0:0:0:0:
256,192,42305,1,0,0:0:0:0:
329,192,42305,1,0,0:0:0:0:
36,192,42455,1,0,0:0:0:0:
109,192,42455,1,0,0:0:0:0:
329,192,42605,1,0,0:0:0:0:
182,192,42605,1,0,0:0:0:0:
475,192,42755,1,0,0:0:0:0:
402,192,42755,1,0,0:0:0:0:
256,192,42905,1,0,0:0:0:0:
329,192,42905,1,0,0:0:0:0:
36,192,42980,1,0,0:0:0:0:
109,192,43055,1,0,0:0:0:0:
182,192,43130,1,0,0:0:0:0:
475,192,43205,1,0,0:0:0:0:
402,192,43280,1,0,0:0:0:0:
329,192,43355,1,0,0:0:0:0:
256,192,43430,1,0,0:0:0:0:
475,192,43505,1,0,0:0:0:0:
182,192,43505,1,0,0:0:0:0:
36,192,43655,1,0,0:0:0:0:
475,192,43805,1,0,0:0:0:0:
402,192,43805,1,8,0:0:0:0:
109,192,43955,1,0,0:0:0:0:
329,192,44105,1,0,0:0:0:0:
256,192,44255,1,0,0:0:0:0:
475,192,44405,1,0,0:0:0:0:
109,192,44405,1,0,0:0:0:0:
182,192,44405,1,8,0:0:0:0:
402,192,44555,1,0,0:0:0:0:
329,192,44705,1,0,0:0:0:0:
256,192,44855,1,0,0:0:0:0:
36,192,45005,1,0,0:0:0:0:
182,192,45005,1,8,0:0:0:0:
256,192,45155,1,0,0:0:0:0:
329,192,45305,1,0,0:0:0:0:
402,192,45455,1,0,0:0:0:0:
109,192,45605,1,8,0:0:0:0:
475,192,45605,1,0,0:0:0:0:
329,192,45755,1,0,0:0:0:0:
402,192,45905,1,0,0:0:0:0:
256,192,45905,1,0,0:0:0:0:
475,192,45905,128,0,46505:0:0:0:0:
36,192,46055,1,0,0:0:0:0:
329,192,46205,1,0,0:0:0:0:
182,192,46205,1,8,0:0:0:0:
256,192,46355,1,0,0:0:0:0:
329,192,46505,1,0,0:0:0:0:
402,192,46505,128,0,47105:0:0:0:0:
109,192,46655,1,0,0:0:0:0:
182,192,46805,1,8,0:0:0:0:
256,192,46805,1,0,0:0:0:0:
36,192,46955,1,0,0:0:0:0:
329,192,47105,128,0,47705:0:0:0:0:
256,192,47105,1,0,0:0:0:0:
109,192,47255,1,0,0:0:0:0:
36,192,47405,1,0,0:0:0:0:
182,192,47405,1,8,0:0:0:0:
109,192,47555,1,0,0:0:0:0:
256,192,47705,128,0,48005:0:0:0:0:
182,192,47705,1,0,0:0:0:0:
109,192,47855,1,0,0:0:0:0:
36,192,48005,1,8,0:0:0:0:
182,192,48005,128,0,48305:0:0:0:0:
475,192,48155,1,8,0:0:0:0:
109,192,48305,128,0,49505:0:0:0:0:
329,192,48305,1,8,0:0:0:0:
256,192,48305,1,0,0:0:0:0:
182,192,48455,1,0,0:0:0:0:
475,192,48605,1,0,0:0:0:0:
256,192,48605,1,8,0:0:0:0:
329,192,48755,1,0,0:0:0:0:
182,192,48905,1,8,0:0:0:0:
475,192,48905,1,0,0:0:0:0:
36,192,49055,1,0,0:0:0:0:
329,192,49205,1,8,0:0:0:0:
256,192,49205,1,0,0:0:0:0:
182,192,49355,1,0,0:0:0:0:
402,192,49505,1,0,0:0:0:0:
329,192,49505,1,8,0:0:0:0:
475,192,49505,128,0,49805:0:0:0:0:
256,192,49655,1,0,0:0:0:0:
36,192,49805,1,0,0:0:0:0:
182,192,49805,1,8,0:0:0:0:
402,192,49805,128,0,50105:0:0:0:0:
109,192,49955,1,0,0:0:0:0:
329,192,50105,128,0,50405:0:0:0:0:
182,192,50105,1,8,0:0:0:0:
36,192,50105,1,0,0:0:0:0:
109,192,50255,1,8,0:0:0:0:
256,192,50255,1,0,0:0:0:0:
182,192,50405,1,8,0:0:0:0:
256,192,50405,128,0,50705:0:0:0:0:
475,192,50555,1,8,0:0:0:0:
402,192,50630,1,8,0:0:0:0:
36,192,50705,128,0,51305:0:0:0:0:
329,192,50705,1,8,0:0:0:0:
402,192,51155,1,8,0:0:0:0:
329,192,51230,1,0,0:0:0:0:
182,192,51305,128,0,51905:0:0:0:0:
109,192,51305,1,0,0:0:0:0:
256,192,51305,1,8,0:0:0:0:
402,192,51455,1,0,0:0:0:0:
475,192,51605,1,0,0:0:0:0:
256,192,51755,1,8,0:0:0:0:
402,192,51830,1,0,0:0:0:0:
36,192,51905,1,0,0:0:0:0:
109,192,51905,1,8,0:0:0:0:
475,192,51905,128,0,52355:0:0:0:0:
256,192,52055,1,0,0:0:0:0:
182,192,52205,1,0,0:0:0:0:
329,192,52355,128,0,52805:0:0:0:0:
36,192,52355,1,0,0:0:0:0:
109,192,52355,1,8,0:0:0:0:
182,192,52505,1,0,0:0:0:0:
402,192,52505,1,0,0:0:0:0:
36,192,52655,1,0,0:0:0:0:
256,192,52805,128,0,54305:0:0:0:0:
475,192,52805,1,0,0:0:0:0:
182,192,52805,1,0,0:0:0:0:
109,192,53105,1,0,0:0:0:0:
402,192,53255,1,0,0:0:0:0:
36,192,53405,1,0,0:0:0:0:
182,192,53405,1,0,0:0:0:0:
329,192,53555,1,0,0:0:0:0:
182,192,53705,1,0,0:0:0:0:
475,192,53705,1,0,0:0:0:0:
109,192,53780,1,0,0:0:0:0:
36,192,53855,1,0,0:0:0:0:
329,192,53930,1,0,0:0:0:0:
402,192,54005,1,0,0:0:0:0:
475,192,54080,1,0,0:0:0:0:
36,192,54155,1,0,0:0:0:0:
109,192,54230,1,0,0:0:0:0:
329,192,54305,128,0,54755:0:0:0:0:
182,192,54305,1,0,0:0:0:0:
36,192,55505,1,0,0:0:0:0:
109,192,55505,1,0,0:0:0:0:
475,192,55505,1,0,0:0:0:0:
402,192,55505,1,0,0:0:0:0:
329,192,55655,1,0,0:0:0:0:
256,192,55805,1,8,0:0:0:0:
182,192,55805,1,0,0:0:0:0:
109,192,55955,1,0,0:0:0:0:
36,192,56105,128,0,56705:0:0:0:0:
182,192,56105,1,0,0:0:0:0:
329,192,56255,1,0,0:0:0:0:
182,192,56405,1,8,0:0:0:0:
475,192,56405,1,0,0:0:0:0:
329,192,56555,1,0,0:0:0:0:
256,192,56705,128,0,57905:0:0:0:0:
475,192,56705,1,0,0:0:0:0:
402,192,56705,1,0,0:0:0:0:
182,192,56855,1,0,0:0:0:0:
329,192,57005,1,8,0:0:0:0:
36,192,57005,1,0,0:0:0:0:
109,192,57155,1,0,0:0:0:0:
475,192,57305,1,8,0:0:0:0:
182,192,57455,1,0,0:0:0:0:
36,192,57605,1,0,0:0:0:0:
402,192,57605,1,8,0:0:0:0:
475,192,57605,128,0,57905:0:0:0:0:
109,192,57755,1,0,0:0:0:0:
36,192,57905,128,0,59105:0:0:0:0:
182,192,57905,1,0,0:0:0:0:
329,192,58055,1,0,0:0:0:0:
109,192,58205,1,0,0:0:0:0:
182,192,58205,1,8,0:0:0:0:
475,192,58355,128,0,58805:0:0:0:0:
256,192,58355,1,0,0:0:0:0:
402,192,58505,1,0,0:0:0:0:
109,192,58655,1,0,0:0:0:0:
256,192,58805,1,8,0:0:0:0:
329,192,58805,1,0,0:0:0:0:
402,192,58805,128,0,59105:0:0:0:0:
182,192,58955,1,0,0:0:0:0:
329,192,59105,128,0,59555:0:0:0:0:
256,192,59105,1,0,0:0:0:0:
109,192,59105,128,0,59705:0:0:0:0:
475,192,59405,1,0,0:0:0:0:
402,192,59405,1,8,0:0:0:0:
256,192,59555,128,0,59705:0:0:0:0:
402,192,59705,1,0,0:0:0:0:
475,192,59705,128,0,60305:0:0:0:0:
182,192,59705,128,0,60155:0:0:0:0:
329,192,59855,1,0,0:0:0:0:
36,192,60005,1,0,0:0:0:0:
256,192,60005,1,8,0:0:0:0:
329,192,60155,1,0,0:0:0:0:
109,192,60305,1,0,0:0:0:0:
256,192,60305,128,0,61505:0:0:0:0:
402,192,60305,1,0,0:0:0:0:
36,192,60455,1,0,0:0:0:0:
329,192,60605,1,8,0:0:0:0:
182,192,60605,1,0,0:0:0:0:
475,192,60755,1,0,0:0:0:0:
109,192,60905,1,0,0:0:0:0:
329,192,61055,1,0,0:0:0:0:
36,192,61130,1,0,0:0:0:0:
402,192,61205,1,8,0:0:0:0:
182,192,61355,1,0,0:0:0:0:
109,192,61355,1,0,0:0:0:0:
475,192,61505,128,0,62705:0:0:0:0:
329,192,61505,1,0,0:0:0:0:
402,192,61655,1,0,0:0:0:0:
329,192,61805,1,8,0:0:0:0:
256,192,61955,1,0,0:0:0:0:
36,192,62105,1,0,0:0:0:0:
109,192,62105,1,0,0:0:0:0:
402,192,62255,1,0,0:0:0:0:
182,192,62405,1,0,0:0:0:0:
256,192,62405,1,0,0:0:0:0:
402,192,62555,1,8,0:0:0:0:
36,192,62705,128,0,63155:0:0:0:0:
182,192,62705,1,8,0:0:0:0:
329,192,62855,1,0,0:0:0:0:
109,192,63005,1,8,0:0:0:0:
475,192,63005,1,0,0:0:0:0:
256,192,63155,1,0,0:0:0:0:
402,192,63155,128,0,63605:0:0:0:0:
109,192,63305,1,0,0:0:0:0:
182,192,63455,1,8,0:0:0:0:
109,192,63605,128,0,64805:0:0:0:0:
329,192,63605,1,8,0:0:0:0:
256,192,63605,1,0,0:0:0:0:
36,192,63755,1,0,0:0:0:0:
182,192,63905,1,0,0:0:0:0:
256,192,64055,1,0,0:0:0:0:
36,192,64205,1,0,0:0:0:0:
402,192,64205,1,8,0:0:0:0:
329,192,64355,1,0,0:0:0:0:
182,192,64505,1,0,0:0:0:0:
256,192,64580,1,0,0:0:0:0:
329,192,64655,1,0,0:0:0:0:
475,192,64730,1,0,0:0:0:0:
402,192,64805,1,0,0:0:0:0:
329,192,64880,1,0,0:0:0:0:
256,192,64955,1,0,0:0:0:0:
475,192,65105,128,0,66305:0:0:0:0:
182,192,65105,1,0,0:0:0:0:
36,192,65105,1,0,0:0:0:0:
329,192,65255,1,0,0:0:0:0:
109,192,65405,1,0,0:0:0:0:
256,192,65405,1,8,0:0:0:0:
329,192,65555,128,0,65855:0:0:0:0:
182,192,65555,1,0,0:0:0:0:
256,192,65705,1,0,0:0:0:0:
36,192,65855,1,0,0:0:0:0:
402,192,65855,128,0,66155:0:0:0:0:
182,192,66005,1,8,0:0:0:0:
109,192,66005,1,0,0:0:0:0:
256,192,66155,128,0,66905:0:0:0:0:
36,192,66305,1,0,0:0:0:0:
109,192,66455,1,0,0:0:0:0:
329,192,66605,1,8,0:0:0:0:
182,192,66605,1,0,0:0:0:0:
36,192,66755,1,0,0:0:0:0:
475,192,66905,1,0,0:0:0:0:
109,192,66905,1,0,0:0:0:0:
402,192,67055,1,0,0:0:0:0:
329,192,67205,128,0,67355:0:0:0:0:
182,192,67205,1,8,0:0:0:0:
109,192,67355,1,0,0:0:0:0:
402,192,67355,128,0,67505:0:0:0:0:
256,192,67505,128,0,68705:0:0:0:0:
36,192,67505,1,0,0:0:0:0:
475,192,67505,1,0,0:0:0:0:
109,192,67655,1,0,0:0:0:0:
402,192,67805,1,0,0:0:0:0:
182,192,67805,1,8,0:0:0:0:
475,192,67955,1,0,0:0:0:0:
329,192,68105,1,0,0:0:0:0:
36,192,68255,1,0,0:0:0:0:
402,192,68405,1,8,0:0:0:0:
109,192,68405,1,0,0:0:0:0:
329,192,68555,1,0,0:0:0:0:
475,192,68705,128,0,69305:0:0:0:0:
36,192,68705,1,0,0:0:0:0:
109,192,68705,128,0,69905:0:0:0:0:
329,192,68855,1,0,0:0:0:0:
36,192,69005,1,0,0:0:0:0:
182,192,69005,1,8,0:0:0:0:
402,192,69155,128,0,69305:0:0:0:0:
256,192,69155,1,0,0:0:0:0:
329,192,69305,128,0,69755:0:0:0:0:
182,192,69455,1,0,0:0:0:0:
256,192,69530,1,0,0:0:0:0:
475,192,69605,1,0,0:0:0:0:
402,192,69605,1,8,0:0:0:0:
36,192,69755,1,0,0:0:0:0:
475,192,69905,128,0,71105:0:0:0:0:
256,192,69905,1,0,0:0:0:0:
182,192,69905,1,0,0:0:0:0:
329,192,70205,1,8,0:0:0:0:
36,192,70355,1,0,0:0:0:0:
256,192,70505,1,0,0:0:0:0:
182,192,70505,1,0,0:0:0:0:
109,192,70655,1,0,0:0:0:0:
402,192,70805,1,8,0:0:0:0:
36,192,70955,1,0,0:0:0:0:
256,192,71105,128,0,72305:0:0:0:0:
109,192,71105,1,0,0:0:0:0:
329,192,71405,1,8,0:0:0:0:
182,192,71405,1,0,0:0:0:0:
109,192,71555,1,0,0:0:0:0:
402,192,71705,1,0,0:0:0:0:
36,192,71855,1,0,0:0:0:0:
475,192,72005,1,8,0:0:0:0:
329,192,72155,1,0,0:0:0:0:
109,192,72305,1,0,0:0:0:0:
36,192,72305,128,0,72755:0:0:0:0:
402,192,72305,128,0,73505:0:0:0:0:
182,192,72755,1,0,0:0:0:0:
109,192,72755,128,0,73205:0:0:0:0:
256,192,73205,1,0,0:0:0:0:
182,192,73205,128,0,74255:0:0:0:0:
329,192,73505,1,0,0:0:0:0:
475,192,73505,1,0,0:0:0:0:
256,192,73580,1,0,0:0:0:0:
109,192,73655,1,0,0:0:0:0:
36,192,73730,1,0,0:0:0:0:
109,192,73805,1,0,0:0:0:0:
256,192,73955,1,0,0:0:0:0:
329,192,74030,1,0,0:0:0:0:
475,192,74105,1,0,0:0:0:0:
402,192,74180,1,0,0:0:0:0:
329,192,74255,1,0,0:0:0:0:
256,192,74330,1,0,0:0:0:0:
36,192,74405,128,0,74555:0:0:0:0:
475,192,74405,128,0,74555:0:0:0:0:
402,192,74555,128,0,74705:0:0:0:0:
109,192,74555,128,0,74705:0:0:0:0:
256,192,74705,128,0,75155:0:0:0:0:
182,192,74855,1,0,0:0:0:0:
329,192,75005,1,8,0:0:0:0:
36,192,75155,1,0,0:0:0:0:
475,192,75155,128,0,75605:0:0:0:0:
109,192,75305,1,0,0:0:0:0:
402,192,75455,1,0,0:0:0:0:
256,192,75605,1,8,0:0:0:0:
182,192,75605,1,0,0:0:0:0:
109,192,75605,128,0,76505:0:0:0:0:
329,192,75755,1,0,0:0:0:0:
36,192,75905,1,0,0:0:0:0:
182,192,76055,1,0,0:0:0:0:
475,192,76205,1,8,0:0:0:0:
256,192,76205,1,0,0:0:0:0:
402,192,76355,1,0,0:0:0:0:
36,192,76505,128,0,76805:0:0:0:0:
182,192,76505,1,0,0:0:0:0:
329,192,76505,1,0,0:0:0:0:
256,192,76805,1,8,0:0:0:0:
109,192,76805,1,0,0:0:0:0:
329,192,76955,1,0,0:0:0:0:
182,192,77105,128,0,77555:0:0:0:0:
402,192,77105,1,0,0:0:0:0:
475,192,77105,1,0,0:0:0:0:
36,192,77255,1,0,0:0:0:0:
402,192,77405,1,8,0:0:0:0:
109,192,77405,1,0,0:0:0:0:
256,192,77555,128,0,78005:0:0:0:0:
329,192,77555,1,0,0:0:0:0:
475,192,77705,1,0,0:0:0:0:
36,192,77855,1,0,0:0:0:0:
475,192,78005,128,0,78905:0:0:0:0:
182,192,78005,1,8,0:0:0:0:
109,192,78005,1,0,0:0:0:0:
402,192,78155,1,0,0:0:0:0:
329,192,78305,1,0,0:0:0:0:
402,192,78455,1,0,0:0:0:0:
109,192,78605,1,0,0:0:0:0:
256,192,78605,1,8,0:0:0:0:
36,192,78755,1,0,0:0:0:0:
329,192,78905,1,0,0:0:0:0:
182,192,78905,1,0,0:0:0:0:
36,192,79055,1,0,0:0:0:0:
109,192,79205,1,0,0:0:0:0:
182,192,79355,1,0,0:0:0:0:
402,192,79505,128,0,79955:0:0:0:0:
256,192,79505,1,0,0:0:0:0:
475,192,79655,1,0,0:0:0:0:
182,192,79805,1,0,0:0:0:0:
329,192,79805,1,8,0:0:0:0:
109,192,79955,128,0,80405:0:0:0:0:
256,192,79955,1,0,0:0:0:0:
329,192,80105,1,0,0:0:0:0:
475,192,80255,1,0,0:0:0:0:
256,192,80405,128,0,81005:0:0:0:0:
402,192,80405,1,8,0:0:0:0:
329,192,80555,1,0,0:0:0:0:
36,192,80705,1,0,0:0:0:0:
182,192,80705,1,0,0:0:0:0:
109,192,80855,1,0,0:0:0:0:
402,192,81005,1,8,0:0:0:0:
182,192,81005,1,0,0:0:0:0:
36,192,81155,1,0,0:0:0:0:
109,192,81305,1,0,0:0:0:0:
256,192,81455,1,0,0:0:0:0:
475,192,81605,1,0,0:0:0:0:
402,192,81605,1,8,0:0:0:0:
109,192,81755,1,0,0:0:0:0:
329,192,81905,1,8,0:0:0:0:
256,192,81905,1,0,0:0:0:0:
182,192,82055,1,0,0:0:0:0:
475,192,82205,1,0,0:0:0:0:
402,192,82205,1,8,0:0:0:0:
256,192,82355,1,0,0:0:0:0:
36,192,82505,1,0,0:0:0:0:
109,192,82505,1,8,0:0:0:0:
402,192,82655,1,0,0:0:0:0:
182,192,82805,1,0,0:0:0:0:
329,192,82805,1,8,0:0:0:0:
36,192,82955,1,0,0:0:0:0:
256,192,83105,1,8,0:0:0:0:
109,192,83105,1,0,0:0:0:0:
182,192,83255,1,0,0:0:0:0:
475,192,83405,1,0,0:0:0:0:
329,192,83405,1,8,0:0:0:0:
36,192,83480,1,0,0:0:0:0:
109,192,83555,1,0,0:0:0:0:
182,192,83630,1,0,0:0:0:0:
402,192,83705,1,0,0:0:0:0:
256,192,83705,1,0,0:0:0:0:
329,192,83855,1,0,0:0:0:0:
475,192,84005,1,0,0:0:0:0:
402,192,84005,1,0,0:0:0:0:
36,192,84005,1,0,0:0:0:0:
109,192,84005,1,0,0:0:0:0:
256,192,84005,1,0,0:0:0:0:
36,192,84155,128,0,86705:0:0:0:0:
109,192,84155,128,0,87905:0:0:0:0:
475,192,84155,128,0,86705:0:0:0:0:
402,192,84155,128,0,87905:0:0:0:0:
256,192,84155,128,0,86705:0:0:0:0:
