osu file format v12

[General]
AudioFilename: Arrival of Tears (TV Size).mp3
AudioLeadIn: 0
PreviewTime: 54905
Countdown: 0
SampleSet: None
StackLeniency: 0.7
Mode: 3
LetterboxInBreaks: 0
SpecialStyle: 1
WidescreenStoryboard: 1

[Editor]
DistanceSpacing: 0.83
BeatDivisor: 4
GridSize: 32

[Metadata]
Title:Arrival of Tears (TV Size)
TitleUnicode:Arrival of Tears (TV Size)
Artist:Ayane
ArtistUnicode:Ayane
Creator:-DanteMayCry-
Version:4K Hard
Source:11eyes
Tags:Ayane Simple_Star lass 5pb.games Tatsh
BeatmapID:324971
BeatmapSetID:128302

[Difficulty]
HPDrainRate:8
CircleSize:4
OverallDifficulty:8
ApproachRate:5
SliderMultiplier:1.4
SliderTickRate:1

[Events]
//Background and Video events
0,0,"BCC.jpg",0,0
//Break Periods
//Storyboard Layer 0 (Background)
//Storyboard Layer 1 (Fail)
//Storyboard Layer 2 (Pass)
//Storyboard Layer 3 (Foreground)
//Storyboard Sound Samples
//Background Colour Transformations
3,100,163,162,255

[TimingPoints]
305,300,4,3,1,60,1,0
33605,-100,4,3,2,60,0,0
33905,-100,4,3,1,60,0,0
55468,-100,4,3,1,60,0,1
64505,-100,4,3,2,60,0,1
65105,-100,4,3,1,60,0,1
84268,-100,4,3,1,60,0,0

[HitObjects]
448,192,305,1,0,0:0:0:0:
192,192,305,1,0,0:0:0:0:
64,192,305,128,0,905:0:0:0:0:
320,192,605,1,0,0:0:0:0:
192,192,905,1,0,0:0:0:0:
448,192,1205,1,0,0:0:0:0:
192,192,1355,1,4,0:0:0:0:
64,192,1505,1,4,0:0:0:0:
320,192,1505,1,0,0:0:0:0:
448,192,1505,128,0,2105:0:0:0:0:
192,192,1805,1,0,0:0:0:0:
64,192,2105,1,0,0:0:0:0:
192,192,2405,1,0,0:0:0:0:
192,192,2555,1,4,0:0:0:0:
64,192,2705,128,0,3305:0:0:0:0:
320,192,2705,1,4,0:0:0:0:
448,192,2705,1,0,0:0:0:0:
192,192,3005,1,0,0:0:0:0:
320,192,3305,1,0,0:0:0:0:
448,192,3605,1,0,0:0:0:0:
64,192,3905,1,0,0:0:0:0:
320,192,3905,1,0,0:0:0:0:
448,192,4205,1,0,0:0:0:0:
192,192,4205,1,0,0:0:0:0:
64,192,4505,1,0,0:0:0:0:
320,192,4505,1,0,0:0:0:0:
448,192,4805,1,0,0:0:0:0:
192,192,4805,1,0,0:0:0:0:
64,192,5105,1,0,0:0:0:0:
320,192,5105,1,0,0:0:0:0:
448,192,5255,1,0,0:0:0:0:
192,192,5405,1,0,0:0:0:0:
320,192,5405,1,0,0:0:0:0:
64,192,5555,1,0,0:0:0:0:
320,192,5705,1,0,0:0:0:0:
192,192,5855,1,0,0:0:0:0:
448,192,6005,1,0,0:0:0:0:
64,192,6005,1,0,0:0:0:0:
320,192,6155,1,0,0:0:0:0:
64,192,6305,1,0,0:0:0:0:
448,192,6455,1,0,0:0:0:0:
192,192,6605,1,0,0:0:0:0:
320,192,6605,1,0,0:0:0:0:
448,192,6755,1,0,0:0:0:0:
64,192,6905,1,0,0:0:0:0:
192,192,7055,1,0,0:0:0:0:
448,192,7205,1,0,0:0:0:0:
320,192,7205,1,0,0:0:0:0:
64,192,7355,1,0,0:0:0:0:
192,192,7505,1,0,0:0:0:0:
320,192,7655,1,0,0:0:0:0:
192,192,7805,1,0,0:0:0:0:
448,192,7805,1,0,0:0:0:0:
64,192,7955,1,0,0:0:0:0:
320,192,8105,1,0,0:0:0:0:
448,192,8255,1,0,0:0:0:0:
64,192,8405,1,0,0:0:0:0:
192,192,8405,1,0,0:0:0:0:
448,192,8555,1,0,0:0:0:0:
320,192,8705,1,0,0:0:0:0:
192,192,8855,1,0,0:0:0:0:
448,192,9005,1,0,0:0:0:0:
64,192,9005,1,0,0:0:0:0:
192,192,9155,1,0,0:0:0:0:
320,192,9305,1,0,0:0:0:0:
448,192,9455,1,0,0:0:0:0:
64,192,9605,1,0,0:0:0:0:
192,192,9605,1,0,0:0:0:0:
320,192,9755,1,0,0:0:0:0:
448,192,9905,128,0,10505:0:0:0:0:
320,192,10205,1,0,0:0:0:0:
64,192,10205,1,0,0:0:0:0:
192,192,10355,1,0,0:0:0:0:
64,192,10505,1,0,0:0:0:0:
320,192,10505,128,0,11105:0:0:0:0:
192,192,10655,1,0,0:0:0:0:
64,192,10805,1,0,0:0:0:0:
448,192,10805,1,0,0:0:0:0:
448,192,11105,1,0,0:0:0:0:
64,192,11105,128,0,11705:0:0:0:0:
448,192,11405,1,0,0:0:0:0:
320,192,11405,1,0,0:0:0:0:
192,192,11555,1,0,0:0:0:0:
448,192,11705,1,0,0:0:0:0:
320,192,11705,128,0,12305:0:0:0:0:
192,192,11855,1,0,0:0:0:0:
64,192,12005,1,0,0:0:0:0:
448,192,12005,1,0,0:0:0:0:
192,192,12155,1,0,0:0:0:0:
448,192,12305,1,0,0:0:0:0:
64,192,12305,128,0,13505:0:0:0:0:
192,192,12455,1,0,0:0:0:0:
448,192,12605,1,0,0:0:0:0:
320,192,12605,1,0,0:0:0:0:
192,192,12755,1,0,0:0:0:0:
448,192,12905,1,0,0:0:0:0:
192,192,13055,1,0,0:0:0:0:
448,192,13205,1,0,0:0:0:0:
320,192,13205,1,0,0:0:0:0:
192,192,13355,1,0,0:0:0:0:
448,192,13505,128,0,14705:0:0:0:0:
320,192,13505,1,0,0:0:0:0:
192,192,13655,1,0,0:0:0:0:
320,192,13805,1,0,0:0:0:0:
64,192,13955,1,0,0:0:0:0:
192,192,14030,1,0,0:0:0:0:
320,192,14105,1,0,0:0:0:0:
64,192,14255,1,0,0:0:0:0:
320,192,14405,1,2,0:0:0:0:
192,192,14405,1,0,0:0:0:0:
64,192,14555,1,2,0:0:0:0:
192,192,14630,1,2,0:0:0:0:
320,192,14705,1,2,0:0:0:0:
64,192,14855,1,0,0:0:0:0:
448,192,15005,1,8,0:0:0:0:
192,192,15005,1,0,0:0:0:0:
320,192,15155,1,0,0:0:0:0:
448,192,15305,1,0,0:0:0:0:
64,192,15455,1,0,0:0:0:0:
448,192,15605,1,8,0:0:0:0:
320,192,15605,1,0,0:0:0:0:
64,192,15755,1,0,0:0:0:0:
192,192,15905,1,0,0:0:0:0:
448,192,16055,1,0,0:0:0:0:
64,192,16205,1,8,0:0:0:0:
320,192,16205,1,0,0:0:0:0:
448,192,16355,1,0,0:0:0:0:
192,192,16505,1,0,0:0:0:0:
320,192,16655,1,0,0:0:0:0:
64,192,16805,1,8,0:0:0:0:
192,192,16805,1,0,0:0:0:0:
448,192,16955,1,0,0:0:0:0:
320,192,17105,1,0,0:0:0:0:
192,192,17255,1,0,0:0:0:0:
448,192,17405,1,8,0:0:0:0:
64,192,17405,1,0,0:0:0:0:
192,192,17555,1,0,0:0:0:0:
448,192,17705,1,0,0:0:0:0:
192,192,17855,1,0,0:0:0:0:
320,192,18005,1,8,0:0:0:0:
64,192,18005,1,0,0:0:0:0:
448,192,18155,1,0,0:0:0:0:
320,192,18305,1,0,0:0:0:0:
192,192,18455,1,0,0:0:0:0:
448,192,18605,1,0,0:0:0:0:
64,192,18605,1,8,0:0:0:0:
192,192,18755,1,0,0:0:0:0:
448,192,18905,1,0,0:0:0:0:
192,192,19055,1,0,0:0:0:0:
448,192,19205,1,0,0:0:0:0:
320,192,19205,1,8,0:0:0:0:
192,192,19355,1,8,0:0:0:0:
64,192,19355,1,0,0:0:0:0:
448,192,19505,1,0,0:0:0:0:
320,192,19505,1,0,0:0:0:0:
192,192,19655,1,0,0:0:0:0:
448,192,19805,1,8,0:0:0:0:
64,192,19805,1,0,0:0:0:0:
192,192,19955,1,0,0:0:0:0:
448,192,20105,1,0,0:0:0:0:
64,192,20255,1,0,0:0:0:0:
320,192,20405,1,8,0:0:0:0:
192,192,20405,1,0,0:0:0:0:
448,192,20555,1,0,0:0:0:0:
64,192,20705,1,0,0:0:0:0:
192,192,20855,1,0,0:0:0:0:
448,192,21005,1,8,0:0:0:0:
320,192,21005,1,0,0:0:0:0:
64,192,21155,1,0,0:0:0:0:
320,192,21305,1,0,0:0:0:0:
64,192,21455,1,0,0:0:0:0:
448,192,21605,1,0,0:0:0:0:
192,192,21605,1,8,0:0:0:0:
320,192,21755,1,0,0:0:0:0:
448,192,21905,1,0,0:0:0:0:
64,192,22055,1,0,0:0:0:0:
448,192,22205,1,8,0:0:0:0:
320,192,22205,1,0,0:0:0:0:
192,192,22355,1,0,0:0:0:0:
320,192,22505,1,0,0:0:0:0:
448,192,22655,1,0,0:0:0:0:
64,192,22805,1,8,0:0:0:0:
192,192,22805,1,0,0:0:0:0:
320,192,22955,1,0,0:0:0:0:
192,192,23105,1,0,0:0:0:0:
448,192,23105,1,0,0:0:0:0:
320,192,23255,1,0,0:0:0:0:
64,192,23255,1,0,0:0:0:0:
448,192,23405,1,8,0:0:0:0:
192,192,23405,1,0,0:0:0:0:
320,192,23555,1,0,0:0:0:0:
448,192,23705,1,0,0:0:0:0:
64,192,23855,1,0,0:0:0:0:
320,192,24005,1,0,0:0:0:0:
192,192,24005,1,8,0:0:0:0:
448,192,24155,1,8,0:0:0:0:
192,192,24230,1,8,0:0:0:0:
64,192,24305,1,0,0:0:0:0:
320,192,24305,1,0,0:0:0:0:
192,192,24455,1,0,0:0:0:0:
448,192,24605,1,0,0:0:0:0:
192,192,24605,1,8,0:0:0:0:
64,192,24755,1,0,0:0:0:0:
320,192,24905,1,0,0:0:0:0:
448,192,25055,1,0,0:0:0:0:
64,192,25205,1,8,0:0:0:0:
192,192,25205,1,0,0:0:0:0:
448,192,25355,1,0,0:0:0:0:
192,192,25505,1,0,0:0:0:0:
448,192,25655,1,0,0:0:0:0:
64,192,25805,1,8,0:0:0:0:
320,192,25805,1,0,0:0:0:0:
192,192,25955,1,0,0:0:0:0:
448,192,26105,1,0,0:0:0:0:
64,192,26255,1,0,0:0:0:0:
320,192,26405,1,0,0:0:0:0:
192,192,26405,1,8,0:0:0:0:
64,192,26555,1,8,0:0:0:0:
448,192,26555,1,0,0:0:0:0:
320,192,26705,1,0,0:0:0:0:
192,192,26705,1,0,0:0:0:0:
448,192,26855,1,0,0:0:0:0:
64,192,27005,1,0,0:0:0:0:
192,192,27005,1,8,0:0:0:0:
448,192,27155,1,0,0:0:0:0:
320,192,27305,1,0,0:0:0:0:
448,192,27455,1,0,0:0:0:0:
64,192,27605,1,8,0:0:0:0:
192,192,27605,1,0,0:0:0:0:
448,192,27755,1,0,0:0:0:0:
64,192,27905,1,0,0:0:0:0:
320,192,27905,1,0,0:0:0:0:
192,192,28055,1,0,0:0:0:0:
448,192,28205,1,8,0:0:0:0:
320,192,28205,1,0,0:0:0:0:
64,192,28355,1,0,0:0:0:0:
320,192,28505,1,0,0:0:0:0:
64,192,28655,1,0,0:0:0:0:
192,192,28655,1,0,0:0:0:0:
448,192,28805,1,8,0:0:0:0:
320,192,28805,1,0,0:0:0:0:
64,192,28880,1,8,0:0:0:0:
192,192,28955,1,8,0:0:0:0:
320,192,29030,1,8,0:0:0:0:
448,192,29105,1,8,0:0:0:0:
192,192,29255,1,0,0:0:0:0:
64,192,29405,1,8,0:0:0:0:
448,192,29405,1,0,0:0:0:0:
320,192,29555,1,0,0:0:0:0:
192,192,29705,1,0,0:0:0:0:
448,192,29855,1,0,0:0:0:0:
64,192,30005,1,8,0:0:0:0:
192,192,30005,1,0,0:0:0:0:
320,192,30155,1,0,0:0:0:0:
64,192,30305,1,0,0:0:0:0:
448,192,30455,1,0,0:0:0:0:
320,192,30455,1,0,0:0:0:0:
64,192,30605,1,8,0:0:0:0:
192,192,30605,1,0,0:0:0:0:
320,192,30755,1,0,0:0:0:0:
448,192,30905,1,0,0:0:0:0:
64,192,30905,1,0,0:0:0:0:
192,192,31055,1,0,0:0:0:0:
320,192,31055,1,8,0:0:0:0:
448,192,31205,1,8,0:0:0:0:
64,192,31205,1,0,0:0:0:0:
192,192,31355,1,0,0:0:0:0:
320,192,31505,1,0,0:0:0:0:
448,192,31805,1,0,0:0:0:0:
192,192,31805,1,8,0:0:0:0:
64,192,31955,1,0,0:0:0:0:
320,192,31955,1,0,0:0:0:0:
448,192,32105,1,0,0:0:0:0:
320,192,32255,1,8,0:0:0:0:
448,192,32405,1,0,0:0:0:0:
192,192,32405,1,8,0:0:0:0:
64,192,32555,1,0,0:0:0:0:
192,192,32705,1,0,0:0:0:0:
448,192,32855,1,8,0:0:0:0:
64,192,32855,1,0,0:0:0:0:
448,192,33005,1,8,0:0:0:0:
320,192,33005,1,0,0:0:0:0:
64,192,33155,1,0,0:0:0:0:
448,192,33305,1,8,0:0:0:0:
64,192,33380,1,8,0:0:0:0:
192,192,33455,1,8,0:0:0:0:
320,192,33530,1,8,0:0:0:0:
448,192,33605,1,0,0:0:0:0:
64,192,33605,1,0,0:0:0:0:
192,192,33680,1,8,0:0:0:0:
320,192,33755,1,8,0:0:0:0:
448,192,33830,1,8,0:0:0:0:
64,192,33905,128,0,35105:0:0:0:0:
192,192,33905,1,0,0:0:0:0:
320,192,33905,1,0,0:0:0:0:
192,192,34205,1,0,0:0:0:0:
320,192,34355,1,0,0:0:0:0:
448,192,34505,1,8,0:0:0:0:
192,192,34505,1,0,0:0:0:0:
448,192,34805,1,0,0:0:0:0:
320,192,34955,1,0,0:0:0:0:
448,192,35105,128,0,36305:0:0:0:0:
192,192,35105,1,0,0:0:0:0:
320,192,35255,1,0,0:0:0:0:
64,192,35405,1,0,0:0:0:0:
320,192,35555,1,0,0:0:0:0:
64,192,35705,1,8,0:0:0:0:
192,192,35705,1,0,0:0:0:0:
320,192,36005,1,0,0:0:0:0:
64,192,36305,1,0,0:0:0:0:
192,192,36305,128,0,37505:0:0:0:0:
320,192,36605,1,0,0:0:0:0:
448,192,36755,1,0,0:0:0:0:
64,192,36905,1,8,0:0:0:0:
320,192,36905,1,0,0:0:0:0:
448,192,37205,1,0,0:0:0:0:
64,192,37505,1,0,0:0:0:0:
320,192,37505,1,0,0:0:0:0:
448,192,37655,1,0,0:0:0:0:
64,192,37805,128,0,38105:0:0:0:0:
320,192,37805,1,0,0:0:0:0:
192,192,37955,1,0,0:0:0:0:
448,192,38105,128,0,38405:0:0:0:0:
320,192,38105,1,0,0:0:0:0:
192,192,38255,1,0,0:0:0:0:
64,192,38405,128,8,38705:0:0:0:0:
320,192,38405,1,0,0:0:0:0:
448,192,38705,128,0,39905:0:0:0:0:
320,192,38705,1,0,0:0:0:0:
320,192,39005,1,0,0:0:0:0:
64,192,39155,1,0,0:0:0:0:
320,192,39305,1,0,0:0:0:0:
192,192,39305,1,0,0:0:0:0:
64,192,39605,1,8,0:0:0:0:
320,192,39605,1,0,0:0:0:0:
192,192,39755,1,0,0:0:0:0:
320,192,39905,128,0,41105:0:0:0:0:
64,192,39905,1,0,0:0:0:0:
192,192,40205,1,0,0:0:0:0:
448,192,40355,1,0,0:0:0:0:
192,192,40505,1,0,0:0:0:0:
64,192,40655,1,0,0:0:0:0:
448,192,40805,1,0,0:0:0:0:
192,192,40805,1,8,0:0:0:0:
64,192,41105,128,0,42305:0:0:0:0:
192,192,41255,1,0,0:0:0:0:
448,192,41405,1,0,0:0:0:0:
192,192,41555,1,0,0:0:0:0:
448,192,41705,1,0,0:0:0:0:
320,192,41855,1,0,0:0:0:0:
192,192,42005,1,8,0:0:0:0:
448,192,42005,1,0,0:0:0:0:
448,192,42305,1,0,0:0:0:0:
192,192,42305,1,0,0:0:0:0:
64,192,42455,1,0,0:0:0:0:
320,192,42455,1,0,0:0:0:0:
448,192,42605,1,0,0:0:0:0:
192,192,42605,1,0,0:0:0:0:
64,192,42755,1,0,0:0:0:0:
320,192,42755,1,0,0:0:0:0:
448,192,42905,1,0,0:0:0:0:
192,192,42905,1,0,0:0:0:0:
64,192,42980,1,0,0:0:0:0:
192,192,43055,1,0,0:0:0:0:
320,192,43130,1,0,0:0:0:0:
448,192,43205,1,0,0:0:0:0:
320,192,43280,1,0,0:0:0:0:
192,192,43355,1,0,0:0:0:0:
64,192,43430,1,0,0:0:0:0:
448,192,43505,1,0,0:0:0:0:
320,192,43505,1,0,0:0:0:0:
64,192,43655,1,0,0:0:0:0:
448,192,43805,1,8,0:0:0:0:
192,192,43805,1,0,0:0:0:0:
320,192,43955,1,0,0:0:0:0:
448,192,44105,1,0,0:0:0:0:
64,192,44255,1,0,0:0:0:0:
320,192,44405,1,8,0:0:0:0:
192,192,44405,1,0,0:0:0:0:
448,192,44555,1,0,0:0:0:0:
320,192,44705,1,0,0:0:0:0:
192,192,44855,1,0,0:0:0:0:
448,192,45005,1,8,0:0:0:0:
320,192,45005,1,0,0:0:0:0:
64,192,45155,1,0,0:0:0:0:
192,192,45305,1,0,0:0:0:0:
320,192,45455,1,0,0:0:0:0:
192,192,45605,1,8,0:0:0:0:
448,192,45605,1,0,0:0:0:0:
320,192,45755,1,0,0:0:0:0:
448,192,45905,1,0,0:0:0:0:
64,192,45905,1,0,0:0:0:0:
192,192,46055,1,0,0:0:0:0:
320,192,46205,1,0,0:0:0:0:
64,192,46205,1,8,0:0:0:0:
448,192,46355,1,0,0:0:0:0:
320,192,46505,1,0,0:0:0:0:
64,192,46655,1,0,0:0:0:0:
448,192,46805,1,8,0:0:0:0:
192,192,46805,1,0,0:0:0:0:
64,192,46955,1,0,0:0:0:0:
192,192,47105,1,0,0:0:0:0:
320,192,47255,1,0,0:0:0:0:
64,192,47405,1,8,0:0:0:0:
448,192,47405,1,0,0:0:0:0:
192,192,47555,1,0,0:0:0:0:
64,192,47705,1,0,0:0:0:0:
320,192,47705,1,0,0:0:0:0:
192,192,47855,1,0,0:0:0:0:
448,192,48005,1,8,0:0:0:0:
320,192,48005,1,0,0:0:0:0:
64,192,48155,1,8,0:0:0:0:
192,192,48230,1,0,0:0:0:0:
448,192,48305,1,8,0:0:0:0:
320,192,48305,1,0,0:0:0:0:
448,192,48455,1,0,0:0:0:0:
64,192,48455,1,0,0:0:0:0:
192,192,48605,1,0,0:0:0:0:
320,192,48605,1,8,0:0:0:0:
448,192,48755,1,0,0:0:0:0:
64,192,48755,1,0,0:0:0:0:
192,192,48905,1,8,0:0:0:0:
320,192,48905,1,0,0:0:0:0:
320,192,49055,1,0,0:0:0:0:
64,192,49055,1,0,0:0:0:0:
448,192,49205,1,8,0:0:0:0:
192,192,49205,1,0,0:0:0:0:
64,192,49355,1,0,0:0:0:0:
320,192,49355,1,0,0:0:0:0:
448,192,49505,1,8,0:0:0:0:
192,192,49505,1,0,0:0:0:0:
320,192,49655,1,0,0:0:0:0:
448,192,49655,1,0,0:0:0:0:
64,192,49805,1,0,0:0:0:0:
192,192,49805,1,8,0:0:0:0:
448,192,49955,1,0,0:0:0:0:
320,192,49955,1,0,0:0:0:0:
64,192,50105,1,0,0:0:0:0:
320,192,50105,1,8,0:0:0:0:
448,192,50255,1,8,0:0:0:0:
192,192,50255,1,0,0:0:0:0:
64,192,50405,1,8,0:0:0:0:
320,192,50405,1,0,0:0:0:0:
64,192,50555,1,8,0:0:0:0:
448,192,50555,1,0,0:0:0:0:
192,192,50630,1,8,0:0:0:0:
448,192,50705,1,0,0:0:0:0:
320,192,50705,1,8,0:0:0:0:
64,192,50855,1,0,0:0:0:0:
448,192,51155,1,8,0:0:0:0:
320,192,51230,1,0,0:0:0:0:
192,192,51305,1,8,0:0:0:0:
64,192,51305,1,0,0:0:0:0:
448,192,51455,1,0,0:0:0:0:
64,192,51605,1,0,0:0:0:0:
192,192,51755,1,8,0:0:0:0:
320,192,51830,1,0,0:0:0:0:
64,192,51905,1,0,0:0:0:0:
448,192,51905,1,8,0:0:0:0:
192,192,52055,1,0,0:0:0:0:
448,192,52205,1,0,0:0:0:0:
64,192,52355,1,8,0:0:0:0:
192,192,52355,1,0,0:0:0:0:
320,192,52505,1,0,0:0:0:0:
192,192,52505,1,0,0:0:0:0:
448,192,52655,1,0,0:0:0:0:
64,192,52805,1,0,0:0:0:0:
320,192,52805,1,0,0:0:0:0:
192,192,53105,1,0,0:0:0:0:
448,192,53255,1,0,0:0:0:0:
64,192,53405,1,0,0:0:0:0:
320,192,53405,1,0,0:0:0:0:
192,192,53555,1,0,0:0:0:0:
448,192,53705,1,0,0:0:0:0:
320,192,53780,1,0,0:0:0:0:
192,192,53855,1,0,0:0:0:0:
64,192,53930,1,0,0:0:0:0:
448,192,54005,1,0,0:0:0:0:
320,192,54080,1,0,0:0:0:0:
64,192,54155,1,0,0:0:0:0:
192,192,54230,1,0,0:0:0:0:
320,192,54305,128,0,54755:0:0:0:0:
64,192,55505,1,0,0:0:0:0:
448,192,55505,1,0,0:0:0:0:
192,192,55655,1,0,0:0:0:0:
448,192,55805,1,8,0:0:0:0:
320,192,55805,1,0,0:0:0:0:
64,192,55955,1,0,0:0:0:0:
320,192,56105,1,0,0:0:0:0:
64,192,56255,1,0,0:0:0:0:
448,192,56405,1,8,0:0:0:0:
192,192,56405,1,0,0:0:0:0:
64,192,56555,1,0,0:0:0:0:
448,192,56705,1,0,0:0:0:0:
192,192,56855,1,0,0:0:0:0:
64,192,57005,1,8,0:0:0:0:
448,192,57005,1,0,0:0:0:0:
192,192,57155,1,0,0:0:0:0:
320,192,57305,1,8,0:0:0:0:
448,192,57455,1,0,0:0:0:0:
64,192,57605,1,8,0:0:0:0:
192,192,57605,1,0,0:0:0:0:
448,192,57755,1,0,0:0:0:0:
320,192,57905,1,0,0:0:0:0:
192,192,57905,1,0,0:0:0:0:
64,192,58055,1,0,0:0:0:0:
448,192,58205,1,0,0:0:0:0:
192,192,58205,1,8,0:0:0:0:
64,192,58355,1,0,0:0:0:0:
320,192,58505,1,0,0:0:0:0:
448,192,58655,1,0,0:0:0:0:
64,192,58805,1,8,0:0:0:0:
192,192,58805,1,0,0:0:0:0:
448,192,58955,1,0,0:0:0:0:
192,192,59105,128,0,59405:0:0:0:0:
320,192,59105,1,0,0:0:0:0:
448,192,59405,1,8,0:0:0:0:
64,192,59405,1,0,0:0:0:0:
192,192,59555,1,0,0:0:0:0:
320,192,59705,1,0,0:0:0:0:
64,192,59855,1,0,0:0:0:0:
448,192,60005,1,0,0:0:0:0:
192,192,60005,1,8,0:0:0:0:
64,192,60155,1,0,0:0:0:0:
448,192,60305,1,0,0:0:0:0:
192,192,60455,1,0,0:0:0:0:
448,192,60605,1,8,0:0:0:0:
320,192,60605,1,0,0:0:0:0:
64,192,60755,1,0,0:0:0:0:
192,192,60905,1,0,0:0:0:0:
448,192,61055,1,0,0:0:0:0:
64,192,61205,1,8,0:0:0:0:
320,192,61205,1,0,0:0:0:0:
448,192,61355,1,0,0:0:0:0:
192,192,61355,1,0,0:0:0:0:
448,192,61505,1,0,0:0:0:0:
64,192,61655,1,0,0:0:0:0:
192,192,61805,1,8,0:0:0:0:
320,192,61955,1,0,0:0:0:0:
64,192,62105,1,0,0:0:0:0:
448,192,62105,1,0,0:0:0:0:
192,192,62255,1,0,0:0:0:0:
448,192,62405,1,0,0:0:0:0:
320,192,62405,1,0,0:0:0:0:
192,192,62555,1,8,0:0:0:0:
64,192,62705,1,8,0:0:0:0:
448,192,63005,1,8,0:0:0:0:
192,192,63005,1,0,0:0:0:0:
64,192,63155,1,0,0:0:0:0:
320,192,63155,1,0,0:0:0:0:
64,192,63455,1,8,0:0:0:0:
320,192,63455,1,0,0:0:0:0:
448,192,63605,1,8,0:0:0:0:
192,192,63605,1,0,0:0:0:0:
64,192,63755,1,0,0:0:0:0:
320,192,63905,1,0,0:0:0:0:
64,192,64055,1,0,0:0:0:0:
448,192,64205,1,0,0:0:0:0:
192,192,64205,1,8,0:0:0:0:
320,192,64355,1,0,0:0:0:0:
64,192,64505,1,0,0:0:0:0:
448,192,64580,1,0,0:0:0:0:
320,192,64655,1,0,0:0:0:0:
192,192,64730,1,0,0:0:0:0:
448,192,64805,1,0,0:0:0:0:
320,192,64880,1,0,0:0:0:0:
64,192,64955,1,0,0:0:0:0:
192,192,65030,1,0,0:0:0:0:
448,192,65105,1,0,0:0:0:0:
320,192,65105,1,0,0:0:0:0:
64,192,65255,1,0,0:0:0:0:
320,192,65405,1,0,0:0:0:0:
192,192,65405,1,8,0:0:0:0:
448,192,65555,1,0,0:0:0:0:
192,192,65705,1,0,0:0:0:0:
448,192,65855,1,0,0:0:0:0:
64,192,66005,1,8,0:0:0:0:
320,192,66005,1,0,0:0:0:0:
192,192,66155,1,0,0:0:0:0:
64,192,66305,1,0,0:0:0:0:
448,192,66455,1,0,0:0:0:0:
64,192,66605,1,8,0:0:0:0:
192,192,66605,1,0,0:0:0:0:
448,192,66755,1,0,0:0:0:0:
64,192,66905,1,0,0:0:0:0:
320,192,67055,1,0,0:0:0:0:
64,192,67205,1,0,0:0:0:0:
192,192,67205,1,8,0:0:0:0:
448,192,67355,1,0,0:0:0:0:
192,192,67505,1,0,0:0:0:0:
320,192,67505,1,0,0:0:0:0:
64,192,67655,1,0,0:0:0:0:
448,192,67805,1,0,0:0:0:0:
192,192,67805,1,8,0:0:0:0:
320,192,67955,1,0,0:0:0:0:
64,192,68105,1,0,0:0:0:0:
448,192,68255,1,0,0:0:0:0:
192,192,68405,1,8,0:0:0:0:
320,192,68405,1,0,0:0:0:0:
64,192,68555,1,0,0:0:0:0:
448,192,68705,1,0,0:0:0:0:
192,192,68705,1,0,0:0:0:0:
320,192,69005,1,8,0:0:0:0:
64,192,69005,1,0,0:0:0:0:
192,192,69155,1,0,0:0:0:0:
320,192,69305,1,0,0:0:0:0:
64,192,69455,1,0,0:0:0:0:
192,192,69530,1,0,0:0:0:0:
448,192,69605,1,8,0:0:0:0:
320,192,69605,1,0,0:0:0:0:
64,192,69755,1,0,0:0:0:0:
320,192,69905,1,0,0:0:0:0:
64,192,69905,1,0,0:0:0:0:
192,192,70205,1,8,0:0:0:0:
448,192,70355,1,0,0:0:0:0:
64,192,70505,1,0,0:0:0:0:
320,192,70655,1,0,0:0:0:0:
448,192,70805,1,8,0:0:0:0:
192,192,70805,1,0,0:0:0:0:
64,192,70955,1,0,0:0:0:0:
320,192,71105,1,0,0:0:0:0:
192,192,71255,1,0,0:0:0:0:
448,192,71405,1,8,0:0:0:0:
320,192,71405,1,0,0:0:0:0:
64,192,71555,1,0,0:0:0:0:
192,192,71705,1,0,0:0:0:0:
320,192,71855,1,0,0:0:0:0:
192,192,72005,1,8,0:0:0:0:
448,192,72155,1,0,0:0:0:0:
64,192,72305,1,0,0:0:0:0:
320,192,72305,1,0,0:0:0:0:
192,192,72605,1,0,0:0:0:0:
320,192,72755,1,0,0:0:0:0:
64,192,72755,1,0,0:0:0:0:
64,192,73055,1,0,0:0:0:0:
448,192,73205,1,0,0:0:0:0:
192,192,73205,1,0,0:0:0:0:
320,192,73355,1,0,0:0:0:0:
448,192,73505,1,0,0:0:0:0:
64,192,73580,1,0,0:0:0:0:
192,192,73655,1,0,0:0:0:0:
320,192,73730,1,0,0:0:0:0:
448,192,73805,1,0,0:0:0:0:
64,192,73880,1,0,0:0:0:0:
192,192,73955,1,0,0:0:0:0:
448,192,74030,1,0,0:0:0:0:
320,192,74105,1,0,0:0:0:0:
192,192,74180,1,0,0:0:0:0:
64,192,74255,1,0,0:0:0:0:
192,192,74330,1,0,0:0:0:0:
448,192,74405,1,0,0:0:0:0:
192,192,74555,1,0,0:0:0:0:
448,192,74705,1,0,0:0:0:0:
64,192,74855,1,0,0:0:0:0:
320,192,75005,1,8,0:0:0:0:
192,192,75005,1,0,0:0:0:0:
448,192,75155,1,0,0:0:0:0:
448,192,75455,1,0,0:0:0:0:
192,192,75605,1,8,0:0:0:0:
320,192,75605,1,0,0:0:0:0:
64,192,75755,1,0,0:0:0:0:
448,192,75905,1,0,0:0:0:0:
320,192,76055,1,0,0:0:0:0:
192,192,76205,1,8,0:0:0:0:
448,192,76355,1,0,0:0:0:0:
64,192,76505,1,0,0:0:0:0:
320,192,76505,1,0,0:0:0:0:
192,192,76655,1,0,0:0:0:0:
448,192,76805,1,8,0:0:0:0:
320,192,76805,1,0,0:0:0:0:
64,192,76955,1,0,0:0:0:0:
192,192,77105,1,0,0:0:0:0:
448,192,77255,1,0,0:0:0:0:
64,192,77405,1,8,0:0:0:0:
192,192,77405,1,0,0:0:0:0:
448,192,77555,1,0,0:0:0:0:
320,192,77705,1,0,0:0:0:0:
64,192,77855,1,0,0:0:0:0:
448,192,78005,1,0,0:0:0:0:
192,192,78005,1,8,0:0:0:0:
320,192,78455,1,0,0:0:0:0:
64,192,78605,1,0,0:0:0:0:
192,192,78605,1,8,0:0:0:0:
448,192,78905,1,0,0:0:0:0:
192,192,78905,1,0,0:0:0:0:
64,192,79055,1,0,0:0:0:0:
320,192,79205,1,0,0:0:0:0:
64,192,79355,1,0,0:0:0:0:
192,192,79505,1,0,0:0:0:0:
448,192,79805,1,0,0:0:0:0:
320,192,79805,1,8,0:0:0:0:
64,192,79955,1,0,0:0:0:0:
320,192,80255,1,0,0:0:0:0:
448,192,80405,1,8,0:0:0:0:
192,192,80405,1,0,0:0:0:0:
64,192,80705,1,0,0:0:0:0:
320,192,80705,1,0,0:0:0:0:
192,192,80855,1,0,0:0:0:0:
64,192,81005,1,0,0:0:0:0:
448,192,81005,1,8,0:0:0:0:
192,192,81155,1,0,0:0:0:0:
320,192,81305,1,0,0:0:0:0:
448,192,81305,1,0,0:0:0:0:
64,192,81605,1,0,0:0:0:0:
448,192,81605,1,8,0:0:0:0:
192,192,81755,1,0,0:0:0:0:
448,192,81905,1,8,0:0:0:0:
320,192,81905,1,0,0:0:0:0:
64,192,82055,1,0,0:0:0:0:
448,192,82205,1,8,0:0:0:0:
192,192,82355,1,0,0:0:0:0:
64,192,82505,1,0,0:0:0:0:
320,192,82505,1,8,0:0:0:0:
192,192,82655,1,0,0:0:0:0:
448,192,82805,1,0,0:0:0:0:
320,192,82805,1,8,0:0:0:0:
64,192,82955,1,0,0:0:0:0:
192,192,83030,1,0,0:0:0:0:
448,192,83105,1,8,0:0:0:0:
320,192,83105,1,0,0:0:0:0:
448,192,83405,1,8,0:0:0:0:
64,192,83405,1,0,0:0:0:0:
192,192,83480,1,0,0:0:0:0:
320,192,83555,1,0,0:0:0:0:
192,192,83630,1,0,0:0:0:0:
448,192,83705,1,0,0:0:0:0:
64,192,83705,1,0,0:0:0:0:
448,192,84005,1,0,0:0:0:0:
64,192,84005,1,0,0:0:0:0:
64,192,84155,128,0,86705:0:0:0:0:
448,192,84155,128,0,87905:0:0:0:0:
