osu file format v9

[General]
AudioFilename: Acacia.mp3
AudioLeadIn: 2000
PreviewTime: 117065
Countdown: 1
SampleSet: Soft
StackLeniency: 0.7
Mode: 1
LetterboxInBreaks: 1

[Editor]
DistanceSpacing: 0.8
BeatDivisor: 4
GridSize: 8

[Metadata]
Title:Acacia no Ki no Shita de
Artist:Ayane
Creator:Alace
Version:Taiko Futsuu
Source:
Tags:HYPER MOE TRANCE

[Difficulty]
HPDrainRate:6
CircleSize:7
OverallDifficulty:6
ApproachRate:6
SliderMultiplier:1.4
SliderTickRate:2

[Events]
//Background and Video events
0,0,"Acacia.jpg"
//Break Periods
//Storyboard Layer 0 (Background)
//Storyboard Layer 1 (Fail)
//Storyboard Layer 2 (Pass)
//Storyboard Layer 3 (Foreground)
//Storyboard Sound Samples
//Background Colour Transformations
3,100,163,162,255

[TimingPoints]
494,428.571428571429,4,2,1,75,1,0
14208,-100,4,2,1,100,0,0
27922,-100,4,1,1,75,0,0
117065,-100,4,1,1,75,0,1
142136,-100,4,2,1,60,0,1
144494,-100,4,2,1,60,0,0

[Colours]
Combo1 : 255,255,255
Combo2 : 208,232,255
Combo3 : 255,255,255
Combo4 : 255,208,255

[HitObjects]
176,128,494,1,2
160,96,2208,1,2
176,88,3922,1,2
160,56,5636,1,2
160,56,7351,1,2
160,56,9065,1,2
160,56,10779,1,2
160,56,12494,1,2
160,40,14208,1,2
160,40,15065,1,2
160,40,15922,1,2
328,192,16779,1,2
160,40,17636,1,2
216,256,18494,1,2
160,40,19351,1,2
216,256,20208,1,2
160,40,21065,1,2
216,256,21922,1,2
160,40,22779,1,2
224,288,23636,1,2
192,176,24065,1,2
168,64,24494,1,2
176,144,24815,1,2
168,64,25136,1,2
112,72,25351,2,0,B|504:192|480:360|240:344,1,560
160,152,27922,5,0
256,88,28351,1,0
208,112,28565,1,2
208,112,28994,1,2
208,112,29422,1,2
168,72,29636,1,0
256,144,30065,1,0
208,112,30279,1,2
208,112,30708,1,2
208,112,31136,1,2
168,72,31351,1,0
256,144,31780,1,0
208,112,31994,1,2
208,112,32423,1,2
208,112,32851,1,2
192,56,33065,1,0
176,168,33494,1,0
184,112,33708,1,2
184,112,34136,1,2
168,56,34351,1,0
160,0,34565,1,2
200,40,34779,1,0
256,136,35208,1,2
224,88,35422,1,0
256,192,35851,1,0
232,112,36065,1,2
184,88,36279,1,0
200,40,36494,1,0
256,136,36923,1,2
224,88,37137,1,0
256,192,37566,1,0
232,112,37780,1,2
184,88,37994,1,0
200,40,38208,1,0
256,136,38637,1,2
224,88,38851,1,0
256,192,39280,1,0
232,112,39494,1,2
184,88,39708,1,0
144,48,39922,1,2
144,48,40244,1,2
144,48,40565,1,2
144,48,40994,1,2
144,48,41208,1,2
144,48,41422,1,2
160,104,41636,5,0
200,208,42065,1,2
152,104,42494,1,0
160,104,42922,1,2
160,104,43136,1,0
216,128,43351,1,0
320,176,43779,1,2
272,152,43994,1,0
168,112,44422,1,0
224,128,44636,1,2
312,56,45065,1,0
224,120,45494,1,2
312,56,45922,1,0
208,104,46351,1,2
256,80,46565,1,0
312,56,46779,1,2
232,24,47101,1,2
312,56,47422,1,2
208,16,47851,1,2
256,40,48065,1,2
304,64,48279,1,2
248,72,48494,1,0
176,152,48922,1,2
240,64,49351,1,0
176,152,49779,1,2
208,104,49994,1,0
176,152,50208,1,0
248,64,50636,1,2
216,104,50851,1,0
136,184,51279,1,0
176,144,51494,1,2
168,88,51708,1,0
208,120,51922,1,2
208,120,52244,1,2
208,120,52565,1,2
208,120,52994,1,2
208,120,53315,1,2
208,120,53636,1,2
208,120,53958,1,2
208,120,54279,1,2
208,120,54708,1,2
208,120,55029,1,2
120,128,55351,5,0
232,112,55779,1,2
232,112,56208,1,0
232,112,56636,1,2
136,48,57065,1,0
216,16,57386,1,0
208,96,57708,1,0
208,96,57922,1,2
208,96,58351,1,2
144,8,58779,1,0
216,96,59208,1,2
304,160,59636,1,0
216,88,60065,1,2
224,200,60494,1,0
216,120,60815,1,0
224,40,61136,1,0
216,96,61351,1,2
216,96,61779,1,2
104,88,62208,1,0
216,96,62636,1,2
104,88,63065,1,0
216,96,63494,1,2
160,96,63708,1,2
160,96,64136,1,2
160,96,64565,1,2
272,112,64994,1,2
224,80,65208,1,2
216,104,65422,1,2
216,104,65636,1,2
216,104,66065,1,2
216,104,66494,1,2
216,104,66922,1,2
216,104,67136,1,2
208,48,67351,1,2
200,32,67779,1,2
200,32,68208,1,2
200,32,68636,1,2
120,128,69065,5,0
232,112,69493,1,2
232,112,69922,1,0
232,112,70350,1,2
136,48,70779,1,0
216,16,71100,1,0
208,96,71422,1,0
208,96,71636,1,2
208,96,72065,1,2
144,8,72493,1,0
216,96,72922,1,2
304,160,73350,1,0
216,88,73779,1,2
224,200,74208,1,0
216,120,74529,1,0
224,40,74850,1,0
216,96,75065,1,2
216,96,75493,1,2
104,88,75922,1,0
216,96,76350,1,2
104,88,76779,1,0
216,96,77208,1,2
160,96,77422,1,2
160,96,77850,1,2
160,96,78279,1,2
272,112,78708,1,2
216,104,78922,1,2
216,104,79136,1,2
216,104,79350,1,2
216,104,79779,1,2
216,104,80208,1,2
216,104,80636,1,2
216,104,80850,1,2
208,48,81065,1,2
200,32,81493,1,2
200,32,81922,1,2
200,32,82350,1,2
160,72,82565,1,2
120,112,82779,1,2
232,88,83208,1,2
232,88,83636,1,2
232,88,84065,1,2
232,88,84279,1,2
232,88,84494,1,2
232,88,84922,1,2
232,88,85136,1,0
232,88,85565,1,0
232,88,85779,1,2
232,88,85994,1,0
232,88,86208,1,0
232,88,86529,1,0
232,88,86851,1,0
232,88,87279,1,2
232,88,87494,1,2
232,88,87708,1,2
232,88,87922,1,0
232,88,88244,1,0
232,88,88565,1,0
232,88,88994,1,2
232,88,89208,1,2
232,88,89422,1,2
176,72,89636,5,0
120,64,90065,1,2
176,72,90279,1,0
120,64,90708,1,0
176,56,90922,1,2
208,104,91136,1,0
232,48,91351,1,0
200,152,91779,1,2
216,96,91994,1,0
224,64,92422,1,0
224,64,92636,1,2
224,64,92851,1,0
224,64,93065,1,0
224,64,93494,1,2
224,64,93708,1,0
224,64,94136,1,0
224,64,94351,1,2
224,64,94565,1,0
224,64,94779,1,2
224,64,95101,1,2
224,64,95422,1,2
224,64,95636,1,2
224,64,96065,1,2
224,64,96494,1,2
224,64,96815,1,2
224,64,97136,1,2
224,64,97565,1,2
176,96,97779,1,0
224,64,97994,1,2
224,64,98208,1,0
224,64,98636,1,2
224,64,99065,1,0
224,64,99494,1,2
224,64,99922,1,0
224,64,100244,1,0
224,64,100565,1,0
224,64,100994,1,2
224,64,101208,1,2
224,64,101422,1,2
280,48,101636,1,0
200,72,101958,1,0
280,48,102279,1,0
176,80,102708,1,2
232,64,102922,1,2
288,48,103136,1,2
176,72,103351,5,0
120,64,103780,1,2
176,72,103994,1,0
120,64,104423,1,0
176,56,104637,1,2
208,104,104851,1,0
232,48,105066,1,0
200,152,105494,1,2
216,96,105709,1,0
224,64,106137,1,0
224,64,106351,1,2
224,64,106566,1,0
224,64,106780,1,0
224,64,107208,1,2
224,64,107423,1,0
224,64,107851,1,0
256,112,108065,1,2
224,64,108280,1,0
224,64,108494,1,2
224,64,108816,1,2
224,64,109137,1,2
224,64,109351,1,2
224,64,109780,1,2
224,64,110209,1,2
224,64,110530,1,2
224,64,110851,1,2
224,64,111280,1,2
224,64,111708,1,2
224,64,111923,1,2
224,64,112351,1,2
224,64,112780,1,2
224,64,113209,1,2
112,64,113636,1,0
168,64,113851,1,0
168,64,114065,1,0
168,64,114279,1,0
160,120,114494,1,0
168,64,114708,1,0
160,120,114922,1,0
168,64,115136,1,0
120,96,115351,2,0,B|448:128|80:312|-32:344,1,490
16,288,117065,5,2
56,216,117386,1,2
96,144,117708,1,2
144,112,118136,1,0
232,40,118351,1,0
136,80,118779,1,2
136,80,119101,1,2
136,80,119422,1,2
136,80,119851,1,0
136,80,120065,1,0
200,32,120494,1,2
192,112,120815,1,2
200,32,121136,1,2
192,88,121565,1,0
200,56,121779,1,0
176,104,122208,1,2
232,8,122636,1,2
176,104,123065,1,2
232,8,123494,1,2
200,56,123708,1,2
176,104,123922,1,0
232,8,124351,1,2
200,56,124565,1,0
168,168,124994,1,0
184,112,125208,1,2
184,112,125422,1,0
184,112,125851,1,0
184,112,126065,1,2
168,56,126279,1,0
184,112,126708,1,0
184,112,126922,1,2
200,56,127136,1,0
200,56,127351,1,2
200,56,127779,1,2
200,56,128208,1,2
200,56,128636,1,2
200,56,129065,1,2
200,56,129386,1,2
200,56,129708,1,2
200,56,130136,1,0
200,56,130351,1,0
200,56,130565,1,0
16,288,130779,5,2
56,216,131100,1,2
96,144,131422,1,2
144,112,131851,1,0
232,40,132065,1,0
136,80,132493,1,2
136,80,132815,1,2
136,80,133136,1,2
136,80,133565,1,0
136,80,133779,1,0
200,32,134208,1,2
192,112,134529,1,2
200,32,134850,1,2
192,88,135279,1,0
200,56,135493,1,0
176,104,135922,1,2
232,8,136350,1,2
176,104,136779,1,2
232,8,137208,1,2
200,56,137422,1,2
176,104,137636,1,0
232,8,138065,1,2
200,56,138279,1,0
168,168,138708,1,0
184,112,138922,1,2
184,112,139136,1,0
184,112,139565,1,0
184,112,139779,1,2
168,56,139993,1,0
184,112,140208,1,2
184,112,140636,1,2
200,56,141065,1,2
168,56,141386,1,2
168,56,141708,1,2
200,56,141922,1,2
152,88,142136,2,0,B|416:120|496:208|16:304|48:336|-24:376|376:352,1,770
