osu file format v9

[General]
AudioFilename: Acacia.mp3
AudioLeadIn: 2000
PreviewTime: 117065
Countdown: 1
SampleSet: Soft
StackLeniency: 0.7
Mode: 0
LetterboxInBreaks: 1

[Editor]
DistanceSpacing: 0.8
BeatDivisor: 2
GridSize: 4

[Metadata]
Title:Acacia no Ki no Shita de
Artist:Ayane
Creator:Alace
Version:Hard
Source:
Tags:HYPER MOE TRANCE

[Difficulty]
HPDrainRate:7
CircleSize:5
OverallDifficulty:7
ApproachRate:7
SliderMultiplier:1.6
SliderTickRate:0.5

[Events]
//Background and Video events
0,0,"Acacia.jpg"
//Break Periods
//Storyboard Layer 0 (Background)
//Storyboard Layer 1 (Fail)
//Storyboard Layer 2 (Pass)
//Storyboard Layer 3 (Foreground)
//Storyboard Sound Samples
//Background Colour Transformations
3,100,163,162,255

[TimingPoints]
494,428.571428571429,4,2,1,75,1,0
23636,-100,4,2,1,50,0,0
27922,-100,4,1,1,65,0,0
51815,-100,4,2,0,70,0,0
54494,-200,4,2,0,40,0,0
55351,-100,4,2,1,70,0,0
89636,-100,4,2,1,80,0,0
113529,-100,4,1,1,70,0,0
116636,-66.6666666666667,4,2,1,40,0,0
117065,-100,4,1,1,80,0,0
140101,-100,4,1,1,65,0,0
140851,-100,4,1,1,50,0,0

[Colours]
Combo1 : 255,255,255
Combo2 : 208,232,255
Combo3 : 255,255,255
Combo4 : 255,208,255

[HitObjects]
160,304,494,2,0,B|96:328|56:264,2,120,4|0|0
160,304,1565,1,0
256,288,1886,1,0
352,304,2208,1,2
256,64,3065,1,2
352,304,3922,1,2
256,288,4244,1,0
160,304,4565,1,0
160,304,4994,1,0
256,288,5315,1,0
352,304,5636,2,0,B|416:328|456:264,2,120,2|0|0
352,304,6708,2,0,B|296:192,1,120
256,96,7351,5,2
192,168,7672,1,0
152,80,7994,1,0
152,80,8422,2,0,B|32:48,2,120,0|0|2
256,352,9922,1,2
360,80,10779,1,2
320,168,11101,1,0
256,96,11422,1,0
256,96,11851,2,0,B|144:152,1,120
56,216,12494,5,2
144,256,12815,1,0
208,328,13136,1,0
208,328,13565,2,0,B|320:272,1,120
456,272,14208,5,6
384,208,14529,1,2
360,112,14851,1,2
240,56,15279,1,2
250,153,15600,1,2
211,246,15922,1,2
131,298,16243,1,2
34,309,16565,1,2
240,360,16994,5,2
252,263,17315,1,2
310,181,17637,1,2
400,148,17958,1,2
497,159,18280,1,2
416,328,18708,5,2
317,329,19029,1,2
229,282,19351,1,2
184,198,19672,1,2
181,101,19994,1,2
408,128,20422,5,2
308,125,20744,1,2
218,163,21065,1,2
128,200,21386,1,2
29,198,21708,1,2
104,336,22136,5,2
183,274,22458,1,2
278,252,22779,1,2
372,229,23100,1,2
451,169,23422,1,2
384,56,23636,5,0
256,256,24065,1,0
128,56,24494,1,0
256,192,25351,12,0,27922
192,120,28351,5,8
240,72,28565,1,0
136,152,28994,1,0
72,168,29208,1,8
128,280,29636,2,0,B|168:224|240:232,1,120
248,256,30065,2,0,B|320:304,1,80,8|0
424,360,30708,1,0
424,360,30922,1,8
312,216,31351,6,0,B|376:200|416:136,1,120
384,128,31779,2,0,B|296:96,1,80,8|0
184,72,32422,1,0
120,56,32636,1,8
16,168,33065,6,0,B|80:192|104:256,1,120
128,264,33494,2,0,B|208:232,1,80,8|0
320,192,34136,1,8
384,168,34351,1,8
224,128,34779,6,0,B|128:40,1,120
104,56,35208,2,0,B|24:80,1,80,8|0
64,200,35851,1,0
88,264,36065,1,8
112,328,36279,1,0
152,240,36494,6,0,B|248:328,1,120
272,312,36923,2,0,B|352:288,1,80,8|0
312,168,37566,1,0
288,104,37780,1,8
264,40,37994,1,0
224,128,38208,6,0,B|102:80,1,120
86,103,38637,2,0,B|19:154,1,80,8|0
100,252,39280,1,0
145,303,39494,1,8
191,354,39708,1,0
200,264,39922,6,0,B|328:283,1,120
340,257,40351,2,0,B|392:192,1,80,8|0
292,115,40994,1,0
237,75,41208,1,8
181,36,41422,1,8
88,88,41636,6,0,B|152:96|176:168,1,120
184,192,42065,2,0,B|208:232|256:216,1,80,8|0
272,280,42494,2,0,B|176:288|144:376,1,160,0|8
88,352,43136,1,0
24,296,43351,6,0,B|72:240|40:176,1,120
72,160,43779,2,0,B|48:120|80:80,1,80,8|0
136,96,44208,2,0,B|296:136,1,160,0|8
352,152,44851,1,0
424,216,45065,6,0,B|376:264|360:336,1,120
336,328,45494,2,0,B|256:360,1,80,8|0
216,312,45922,2,0,B|208:224|112:208,1,160,0|8
48,208,46565,1,0
72,104,46779,5,0
128,72,46994,1,0
128,72,47101,1,0
128,72,47208,1,8
128,136,47422,1,8
184,104,47636,2,0,B|256:144,1,80,0|8
328,280,48065,2,0,B|256:240,1,80,8|0
352,216,48494,6,0,B|416:192|440:136,1,120,0|0
448,104,48922,1,8
384,104,49136,2,0,B|368:64|320:64,1,80,8|0
264,96,49565,2,0,B|216:95|200:135,1,80,0|8
192,168,49886,1,0
200,200,49994,1,0
128,216,50208,6,0,B|97:277|118:334,1,120
134,363,50636,1,8
180,319,50850,2,0,B|218:337|254:304,1,80,8|0
274,243,51279,2,0,B|308:210|292:170,1,80,0|8
277,141,51600,1,0
250,124,51708,1,0
160,120,51922,5,2
40,200,52244,1,2
176,248,52565,1,2
176,248,52994,2,4,B|248:352,1,120,2|2
424,280,53636,5,2
264,224,53958,1,2
384,104,54279,1,2
384,104,54708,2,0,B|272:48,1,120,0|4
276,50,55779,5,8
216,80,55994,2,0,B|128:80,2,80,2|0|2
248,136,56636,2,0,B|336:136,1,80,8|2
392,136,57065,2,0,B|432:168|432:208|392:240,1,120
368,256,57494,1,8
312,288,57708,1,2
248,296,57922,1,0
192,264,58136,1,2
192,264,58244,1,0
192,264,58351,1,8
160,208,58565,1,2
152,144,58779,1,4
64,360,59208,5,8
120,328,59422,2,0,B|112:288|64:264,2,80,2|0|2
172,368,60065,2,0,B|188:320|236:320,1,80,8|2
292,304,60494,2,0,B|412:280,1,120
444,272,60922,1,8
412,216,61136,2,0,B|348:160|260:224|180:176,1,240,0|8
124,144,61994,1,2
64,280,62422,5,2
120,312,62636,1,8
176,344,62851,1,2
304,344,63279,5,2
248,312,63494,1,8
192,280,63708,1,2
320,280,64136,5,2
376,312,64350,1,8
432,344,64565,1,2
432,344,64672,1,2
432,344,64779,1,0
384,192,65208,5,8
432,128,65422,1,0
352,120,65636,1,2
256,248,66065,1,2
160,120,66494,1,2
64,248,66922,1,2
120,304,67136,2,0,B|184:368|272:328,1,160,2|2
304,256,67779,1,8
344,184,67994,2,0,B|408:120|496:160,1,160,2|2
480,224,68636,1,8
464,288,68851,1,2
376,352,69065,5,4
320,320,69279,1,2
320,320,69386,1,0
320,320,69494,1,8
256,320,69708,2,0,B|208:320|184:368,2,80,2|0|2
272,256,70351,2,0,B|320:256|344:208,1,80,8|2
392,184,70779,2,0,B|336:136|360:64,1,120
328,64,71208,2,0,B|248:32,1,80,8|2
196,64,71636,1,0
136,40,71851,1,2
136,40,71958,1,0
136,40,72065,1,8
80,72,72279,1,2
20,48,72494,1,4
80,256,72922,5,8
144,232,73136,2,0,B|200:288,2,80,2|0|2
192,184,73779,2,0,B|136:128,1,80,8|2
168,72,74208,2,0,B|224:32|288:56,1,120
312,64,74636,1,8
344,120,74851,2,8,B|304:192|352:288|312:360,1,240,0|8
248,368,75708,1,2
120,216,76136,5,2
48,168,76351,1,8
128,128,76565,1,2
120,320,76994,5,2
200,360,77209,1,8
192,272,77423,1,2
336,168,77851,5,2
256,128,78066,1,8
264,216,78280,1,2
264,216,78386,1,2
264,216,78494,1,0
32,96,78922,5,8
80,192,79136,1,0
136,280,79351,1,2
328,208,79779,1,2
224,24,80208,1,2
32,96,80636,1,2
80,168,80851,2,0,B|152:128|232:112,1,160,2|2
272,192,81494,1,8
312,272,81708,2,0,B|389:256|461:216,1,160,2|2
448,96,82351,5,8
360,120,82565,1,2
384,32,82779,1,2
216,96,83208,1,2
280,256,83636,1,2
112,320,84065,1,2
72,240,84279,1,0
152,200,84494,1,2
120,120,84708,1,0
120,120,84815,1,0
120,120,84922,1,8
40,160,85136,1,8
240,304,85565,5,2
312,288,85779,1,8
376,248,85994,1,2
432,200,86208,2,0,B|488:160|480:88,1,120,4|0
448,88,86636,2,0,B|368:64,1,80,8|2
304,48,87065,1,0
232,32,87279,1,2
232,32,87386,1,0
232,32,87494,1,8
160,16,87708,1,2
128,96,87922,6,0,B|60:109|38:178,1,120
67,191,88350,2,0,B|130:245,1,80,8|2
183,286,88779,1,0
242,330,88993,1,2
242,330,89100,1,0
242,330,89208,1,8
301,374,89422,1,2
336,288,89636,6,0,B|408:248|496:256,1,160,4|8
472,184,90279,1,2
408,144,90494,1,0
352,96,90708,1,2
352,96,90815,1,0
352,96,90922,1,8
312,32,91136,1,2
256,88,91351,6,0,B|160:96|104:160,1,160,0|8
48,240,91994,2,0,B|136:248|192:336,1,160,2|2
248,336,92636,1,8
248,336,92744,1,0
248,336,92851,1,2
316,360,93065,2,0,B|404:336|476:368,1,160,0|8
388,272,93708,2,0,B|300:296|228:264,1,160,2|2
172,232,94351,1,8
172,232,94458,1,0
172,232,94565,1,2
100,208,94779,1,0
124,144,94994,1,2
124,144,95101,1,0
124,144,95208,1,8
196,168,95422,1,2
272,196,95636,6,0,B|336:148|416:124,2,160,0|8|4
224,244,96708,1,2
224,244,96815,1,0
224,244,96922,2,0,B|184:268|136:268,1,80,8|2
280,312,97565,1,2
352,312,97779,1,8
424,312,97994,1,2
496,264,98208,5,0
456,200,98422,1,2
456,200,98529,1,0
456,200,98636,2,0,B|376:168,1,80,8|2
408,64,99065,2,0,B|340:117,1,80,0|2
272,8,99494,2,0,B|284:93,1,80,8|2
240,240,99922,6,0,B|224:104,1,120
225,120,100351,1,8
168,192,100565,2,0,B|192:360,1,160,2|2
328,320,101208,2,0,B|248:336,1,80,8|2
360,248,101636,6,0,B|462:156,1,120
449,167,102065,1,8
359,162,102279,2,0,B|235:278,1,160,2|2
345,366,102922,2,0,B|286:309,1,80,8|2
184,192,103351,5,4
184,192,103779,1,8
248,160,103994,1,2
320,160,104208,1,0
384,136,104422,1,2
384,136,104529,1,0
384,136,104636,2,0,B|464:112,1,80,8|2
472,200,105065,6,0,B|384:200|328:264,1,160,0|8
232,336,105708,2,0,B|152:336|96:264,1,160,2|2
56,208,106351,1,8
56,208,106458,1,0
56,208,106565,1,2
40,136,106779,2,0,B|120:96|200:112,1,160,0|8
320,152,107422,2,0,B|240:192|160:176,1,160,2|2
168,248,108065,1,8
168,248,108172,1,0
168,248,108279,1,2
184,320,108494,1,0
256,304,108708,1,2
256,304,108815,1,0
256,304,108922,1,8
240,232,109137,1,2
368,256,109351,5,0
208,152,109779,1,8
384,80,110208,1,4
408,152,110422,1,2
408,152,110529,1,0
408,152,110636,2,0,B|488:128,1,80,8|2
376,216,111065,2,0,B|436:273,1,80,0|2
320,256,111494,2,0,B|300:337,1,80,8|2
256,232,111922,2,0,B|256:160|280:72,1,160,4|8
279,74,112565,1,2
192,168,112779,2,0,B|192:240|168:328,1,160,4|8
168,325,113422,1,2
288,320,113636,5,0
288,320,113851,1,0
336,232,114065,1,0
336,232,114279,1,0
376,144,114494,1,0
376,144,114708,1,0
416,56,114922,1,0
416,56,115136,1,0
320,88,115351,5,0
307,70,115458,1,0
287,61,115565,1,0
266,64,115672,1,0
249,76,115779,1,0
242,95,115886,1,0
240,112,115994,1,0
243,133,116101,1,0
233,152,116208,1,0
216,165,116315,1,0
195,167,116422,1,0
176,159,116529,1,0
160,144,116636,2,4,B|136:112,8,29.9999991059304
120,224,117279,5,0
120,224,117386,1,0
120,224,117494,2,0,B|184:272,1,80,8|0
256,304,117922,1,0
256,304,118029,1,0
328,272,118244,1,0
328,272,118351,1,8
400,240,118565,1,0
472,208,118779,5,0
256,104,119208,1,8
40,208,119636,1,0
104,296,119851,5,0
104,296,119958,1,0
104,296,120065,2,0,B|152:280|168:232,1,80,8|0
208,312,120494,1,0
264,256,120708,1,0
264,256,120815,1,0
264,256,120922,2,0,B|224:224|208:176,1,80,8|0
144,152,121351,1,0
144,152,121458,1,0
216,112,121672,1,0
216,112,121779,1,8
272,48,121994,1,0
192,32,122208,5,0
448,192,122636,1,8
192,352,123065,1,0
120,288,123279,5,0
120,288,123386,1,0
120,288,123494,2,0,B|96:248|48:248,1,80,8|0
8,184,123922,2,0,B|88:152|128:80,1,160,0|8
200,48,124565,1,0
176,208,124994,1,0
208,280,125208,1,8
256,216,125422,1,0
288,288,125636,2,0,B|376:296|456:264,1,160,0|8
392,192,126279,5,0
320,128,126494,1,0
224,128,126708,1,0
152,64,126922,1,8
56,80,127136,1,0
64,192,127351,6,0,B|16:208,1,40
112,272,127672,2,0,B|160:256,1,40,0|8
224,152,127994,2,0,B|176:168,1,40,8|0
272,232,128315,2,0,B|320:216,1,40,0|8
376,200,128636,1,8
440,176,128851,1,0
344,96,129065,6,0,B|371:53,1,40
256,62,129386,2,0,B|228:104,1,40,0|8
242,226,129708,2,0,B|269:183,1,40,8|0
155,192,130029,2,0,B|127:234,1,40,0|8
93,281,130350,1,8
57,340,130565,1,0
168,344,130779,5,0
256,328,130994,1,0
256,328,131101,1,0
256,328,131208,1,8
344,312,131422,1,0
432,296,131636,2,0,B|416:240,1,40
432,144,131958,2,0,B|448:200,1,40,0|8
432,296,132279,1,0
432,144,132494,5,0
256,280,132922,1,8
80,144,133351,1,0
80,256,133565,5,0
80,256,133672,1,0
80,256,133779,2,0,B|152:216,2,80,8|0|0
256,232,134422,1,0
256,232,134529,1,0
256,232,134636,2,0,B|184:272,1,80,8|0
312,280,135065,2,0,B|384:240|472:248,1,160,0|8
466,247,135708,1,0
416,160,135922,5,0
344,112,136136,1,0
344,112,136244,1,0
344,112,136351,1,8
264,104,136565,1,0
264,104,136672,1,0
192,136,136886,1,0
192,136,136994,1,0
80,192,137208,5,8
144,232,137422,1,0
144,232,137529,1,0
144,232,137636,2,0,B|216:280|304:232,1,160,0|8
336,304,138279,2,0,B|408:256|496:304,1,160
496,224,138922,1,8
424,200,139136,1,0
424,200,139244,1,0
424,200,139351,2,0,B|320:176,1,80
256,96,139779,2,0,B|360:120,1,80,8|0
424,56,140208,5,0
256,240,140636,1,0
88,56,141065,1,0
256,40,141386,1,0
424,56,141708,1,0
256,192,141922,12,4,144494
