osu file format v9

[General]
AudioFilename: Over the Starlight.mp3
AudioLeadIn: 2000
PreviewTime: 43751
Countdown: 0
SampleSet: Normal
StackLeniency: 0.7
Mode: 0
LetterboxInBreaks: 1

[Editor]
DistanceSpacing: 1
BeatDivisor: 4
GridSize: 8

[Metadata]
Title:Over the Starlight
Artist:Ayana Taketatsu
Creator:wcx19911123
Version:Over the Star
Source:K-ON!
Tags:Nakano Azusa HTT HO-KAGO TEA TIME

[Difficulty]
HPDrainRate:4
CircleSize:3
OverallDifficulty:2
ApproachRate:2
SliderMultiplier:1.2
SliderTickRate:0.5

[Events]
//Background and Video events
0,0,"BG.jpg"
//Break Periods
2,12067,26307
2,70067,76307
2,128067,134307
2,206067,212182
//Storyboard Layer 0 (Background)
//Storyboard Layer 1 (Fail)
//Storyboard Layer 2 (Pass)
//Storyboard Layer 3 (Foreground)
//Storyboard Sound Samples
//Background Colour Transformations
3,100,163,162,255

[TimingPoints]
-133,500,4,1,1,60,1,0
1621,-100,4,2,1,60,0,0
5121,-100,4,1,1,60,0,0
5621,-100,4,2,1,60,0,0
6121,-100,4,1,1,60,0,0
6621,-100,4,2,1,60,0,0
7121,-100,4,1,1,60,0,0
7621,-100,4,2,1,60,0,0
8121,-100,4,1,1,60,0,0
8621,-100,4,2,1,40,0,0
9121,-100,4,1,1,60,0,0
10867,-100,4,2,1,60,0,0
11867,-100,4,2,1,60,0,1
11992,-100,4,2,1,60,0,0
28121,-100,4,1,1,60,0,0
28621,-100,4,2,1,60,0,0
30121,-100,4,1,1,60,0,0
30621,-100,4,2,1,60,0,0
32121,-100,4,1,1,60,0,0
32621,-100,4,2,1,60,0,0
34121,-100,4,1,1,60,0,0
34621,-100,4,2,1,60,0,0
36121,-100,4,1,1,60,0,0
36621,-100,4,2,1,60,0,0
38121,-100,4,1,1,60,0,0
38621,-100,4,2,1,60,0,0
40121,-100,4,1,1,60,0,0
40621,-100,4,2,1,60,0,0
42121,-100,4,1,1,60,0,0
42621,-100,4,2,1,60,0,0
43121,-100,4,1,1,60,0,0
50121,-100,4,2,1,60,0,0
50621,-100,4,1,1,60,0,0
51121,-100,4,2,1,60,0,0
51621,-100,4,1,1,60,0,0
53121,-100,4,2,1,60,0,0
53742,-100,4,2,1,60,0,1
54121,-100,4,1,1,60,0,1
54621,-100,4,2,1,60,0,1
55121,-100,4,1,1,60,0,1
55621,-100,4,2,1,60,0,1
56121,-100,4,1,1,60,0,1
56621,-100,4,2,1,60,0,1
57121,-100,4,1,1,60,0,1
57621,-100,4,2,1,60,0,1
58121,-100,4,1,1,60,0,1
58621,-100,4,2,1,60,0,1
59121,-100,4,1,1,60,0,1
59621,-100,4,2,1,60,0,1
60121,-100,4,1,1,60,0,1
60621,-100,4,2,1,60,0,1
61121,-100,4,1,1,60,0,1
61621,-100,4,2,1,60,0,1
62121,-100,4,1,1,60,0,1
62621,-100,4,2,1,60,0,1
63121,-100,4,1,1,60,0,1
63621,-100,4,2,1,60,0,1
64121,-100,4,1,1,60,0,1
64621,-100,4,2,1,60,0,1
65121,-100,4,1,1,60,0,1
65621,-100,4,2,1,60,0,1
66121,-100,4,1,1,60,0,1
66621,-100,4,2,1,60,0,1
67121,-100,4,1,1,60,0,1
67621,-100,4,2,1,60,0,1
68121,-100,4,1,1,60,0,1
68621,-100,4,2,1,60,0,1
69121,-100,4,1,1,60,0,1
69621,-100,4,2,1,60,0,1
69992,-100,4,2,1,60,0,0
78121,-100,4,1,1,60,0,0
78621,-100,4,2,1,60,0,0
79121,-100,4,1,1,60,0,0
79621,-100,4,2,1,60,0,0
80121,-100,4,1,1,60,0,0
80621,-100,4,2,1,60,0,0
81246,-100,4,1,1,60,0,0
81621,-100,4,2,1,60,0,0
82121,-100,4,1,1,60,0,0
82621,-100,4,2,1,60,0,0
83121,-100,4,1,1,60,0,0
83621,-100,4,2,1,40,0,0
84121,-100,4,1,1,60,0,0
84496,-100,4,2,1,60,0,0
85121,-100,4,1,1,60,0,0
85621,-100,4,2,1,60,0,0
86121,-100,4,1,1,60,0,0
86621,-100,4,2,1,60,0,0
88121,-100,4,1,1,60,0,0
88621,-100,4,2,1,60,0,0
89246,-100,4,1,1,60,0,0
89621,-100,4,2,1,60,0,0
90121,-100,4,1,1,60,0,0
90621,-100,4,2,1,60,0,0
92121,-100,4,1,1,60,0,0
92496,-100,4,2,1,60,0,0
93121,-100,4,1,1,60,0,0
93621,-100,4,2,1,40,0,0
94121,-100,4,1,1,60,0,0
94621,-100,4,2,1,60,0,0
95121,-100,4,1,1,60,0,0
95621,-100,4,2,1,60,0,0
96121,-100,4,1,1,60,0,0
96621,-100,4,2,1,60,0,0
97121,-100,4,1,1,60,0,0
97621,-100,4,2,1,60,0,0
98121,-100,4,1,1,60,0,0
98621,-100,4,2,1,60,0,0
99121,-100,4,1,1,60,0,0
99621,-100,4,2,1,60,0,0
100121,-100,4,1,1,60,0,0
100621,-100,4,2,1,60,0,0
101121,-100,4,1,1,60,0,0
106746,-100,4,2,1,80,0,0
107121,-100,4,1,1,60,0,0
111742,-100,4,2,1,60,0,1
112121,-100,4,1,1,60,0,1
112621,-100,4,2,1,60,0,1
113121,-100,4,1,1,60,0,1
113621,-100,4,2,1,60,0,1
114121,-100,4,1,1,60,0,1
114621,-100,4,2,1,60,0,1
115246,-100,4,1,1,60,0,1
115496,-100,4,2,1,60,0,1
116121,-100,4,1,1,60,0,1
116621,-100,4,2,1,60,0,1
117121,-100,4,1,1,60,0,1
117621,-100,4,2,1,60,0,1
118121,-100,4,1,1,60,0,1
118621,-100,4,2,1,60,0,1
119121,-100,4,1,1,60,0,1
119621,-100,4,2,1,60,0,1
120121,-100,4,1,1,60,0,1
120621,-100,4,2,1,60,0,1
121121,-100,4,1,1,60,0,1
121621,-100,4,2,1,60,0,1
122121,-100,4,1,1,60,0,1
122621,-100,4,2,1,60,0,1
123246,-100,4,1,1,60,0,1
123496,-100,4,2,1,60,0,1
124121,-100,4,1,1,60,0,1
124621,-100,4,2,1,60,0,1
125121,-100,4,1,1,60,0,1
125621,-100,4,2,1,60,0,1
126121,-100,4,1,1,60,0,1
126621,-100,4,2,1,60,0,1
127121,-100,4,1,1,60,0,1
127621,-100,4,2,1,60,0,1
127992,-100,4,2,1,60,0,0
136121,-100,4,1,1,60,0,0
136621,-100,4,2,1,60,0,0
137246,-100,4,1,1,60,0,0
137621,-100,4,2,1,60,0,0
138121,-100,4,1,1,60,0,0
138621,-100,4,2,1,60,0,0
139121,-100,4,1,1,60,0,0
139621,-100,4,2,1,60,0,0
140121,-100,4,1,1,60,0,0
140621,-100,4,2,1,60,0,0
141246,-100,4,1,2,60,0,0
143621,-100,4,2,1,60,0,0
144121,-100,4,1,1,60,0,0
144621,-100,4,2,1,60,0,0
145246,-100,4,1,1,60,0,0
145621,-100,4,2,1,60,0,0
146121,-100,4,1,1,60,0,0
146621,-100,4,2,1,60,0,0
147246,-100,4,1,1,60,0,0
147621,-100,4,2,1,60,0,0
148121,-100,4,1,1,60,0,0
148621,-100,4,2,1,60,0,0
149121,-100,4,1,1,60,0,0
149621,-100,4,2,1,60,0,0
151367,-100,4,1,1,60,0,0
151867,-100,4,1,1,60,0,1
151992,-100,4,2,1,60,0,0
153371,-100,4,1,1,60,0,0
154371,-100,4,2,1,60,0,0
155371,-100,4,1,1,60,0,0
156121,-100,4,2,1,60,0,0
157371,-100,4,1,1,60,0,0
158121,-100,4,2,1,40,0,0
158621,-100,4,1,1,60,0,0
158996,-100,4,2,1,60,0,0
159621,-100,4,1,1,60,0,0
160121,-100,4,2,1,60,0,0
160621,-100,4,1,1,60,0,0
161121,-100,4,2,1,60,0,0
161621,-100,4,1,1,60,0,0
162121,-100,4,2,1,60,0,0
162621,-100,4,1,1,60,0,0
163121,-100,4,2,1,60,0,0
163621,-100,4,1,1,60,0,0
164121,-100,4,2,1,60,0,0
164621,-100,4,1,1,60,0,0
165121,-100,4,2,1,60,0,0
165621,-100,4,1,1,60,0,0
166121,-100,4,2,1,60,0,0
166746,-100,4,1,1,60,0,0
167121,-100,4,2,1,60,0,0
167746,-100,4,1,1,60,0,0
168121,-100,4,2,1,60,0,0
168371,-100,4,2,1,40,0,0
168746,-100,4,1,1,60,0,0
169121,-100,4,2,1,60,0,0
169746,-100,4,1,1,60,0,0
170121,-100,4,2,1,60,0,0
170746,-100,4,1,1,60,0,0
171121,-100,4,2,1,60,0,0
171621,-100,4,1,1,60,0,0
173621,-100,4,2,1,40,0,0
179121,-100,4,1,1,60,0,0
179621,-100,4,2,1,60,0,0
180121,-100,4,1,1,60,0,0
180621,-100,4,2,1,60,0,0
181246,-100,4,1,1,60,0,0
181742,-100,4,2,1,60,0,1
182121,-100,4,1,1,60,0,1
182621,-100,4,2,1,60,0,1
183121,-100,4,1,1,60,0,1
183621,-100,4,2,1,60,0,1
184121,-100,4,1,1,60,0,1
184621,-100,4,2,1,60,0,1
185121,-100,4,1,1,60,0,1
185621,-100,4,2,1,60,0,1
186121,-100,4,1,1,60,0,1
186621,-100,4,2,1,60,0,1
187121,-100,4,1,1,60,0,1
187621,-100,4,2,1,60,0,1
188121,-100,4,1,1,60,0,1
188621,-100,4,2,1,60,0,1
189246,-100,4,1,1,60,0,1
189621,-100,4,2,1,60,0,1
190121,-100,4,1,1,60,0,1
190621,-100,4,2,1,60,0,1
191246,-100,4,1,1,60,0,1
191621,-100,4,2,1,60,0,1
192121,-100,4,1,1,60,0,1
192621,-100,4,2,1,60,0,1
193246,-100,4,1,1,60,0,1
193621,-100,4,2,1,60,0,1
194121,-100,4,1,1,60,0,1
194621,-100,4,2,1,60,0,1
195121,-100,4,1,1,60,0,1
195621,-100,4,2,1,60,0,1
196121,-100,4,1,1,60,0,1
196621,-100,4,2,1,60,0,1
197246,-100,4,1,1,60,0,1
197621,-100,4,2,1,60,0,1
198121,-100,4,1,1,60,0,1
198621,-100,4,2,1,60,0,1
199121,-100,4,1,1,60,0,1
199621,-100,4,2,1,60,0,1
200246,-100,4,1,1,60,0,1
200621,-100,4,2,1,60,0,1
201121,-100,4,1,1,60,0,1
201621,-100,4,2,1,60,0,1
202121,-100,4,1,1,60,0,1
202621,-100,4,2,1,60,0,1
203121,-100,4,1,1,60,0,1
203621,-100,4,2,1,60,0,1
204121,-100,4,1,1,60,0,1
204621,-100,4,2,1,60,0,1
205246,-100,4,1,1,60,0,1
205621,-100,4,2,1,60,0,1
205992,-100,4,2,1,60,0,0
213996,-100,4,1,1,60,0,0
214246,-100,4,2,1,60,0,0
214496,-100,4,1,1,60,0,0
214746,-100,4,2,1,60,0,0
215871,-100,4,1,1,60,0,0
216246,-100,4,2,1,60,0,0
216496,-100,4,1,1,60,0,0
216746,-100,4,2,1,60,0,0
216996,-100,4,1,1,60,0,0
217246,-100,4,2,1,60,0,0
217871,-100,4,1,1,60,0,0
218246,-100,4,2,1,60,0,0
218496,-100,4,1,1,60,0,0
218746,-100,4,2,1,60,0,0
219871,-100,4,1,1,60,0,0
220246,-100,4,2,1,60,0,0
220496,-100,4,1,1,60,0,0
220746,-100,4,2,1,60,0,0
220996,-100,4,1,1,60,0,0
221246,-100,4,2,1,60,0,0
221996,-100,4,1,1,60,0,0
222246,-100,4,2,1,60,0,0
222496,-100,4,1,1,60,0,0
222746,-100,4,2,1,60,0,0
222996,-100,4,1,1,60,0,0
223246,-100,4,2,1,60,0,0
223871,-100,4,1,1,60,0,0
224246,-100,4,2,1,60,0,0
224496,-100,4,1,1,60,0,0
224746,-100,4,2,1,60,0,0
224996,-100,4,1,1,60,0,0
225246,-100,4,2,1,60,0,0
225996,-100,4,1,1,60,0,0
226246,-100,4,2,1,60,0,0
226496,-100,4,1,1,60,0,0
226746,-100,4,2,1,60,0,0
226996,-100,4,1,1,60,0,0
227246,-100,4,2,1,60,0,0
227996,-100,4,1,1,60,0,0
228246,-100,4,2,1,60,0,0
228496,-100,4,1,1,60,0,0
228746,-100,4,2,1,60,0,0
228996,-100,4,1,1,60,0,0
229246,-100,4,2,1,60,0,0
229996,-100,4,1,1,60,0,0
230246,-100,4,2,1,60,0,0
230496,-100,4,1,1,60,0,0
230746,-100,4,2,1,60,0,0
230996,-100,4,1,1,60,0,0
231246,-100,4,2,1,60,0,0
231996,-100,4,1,1,60,0,0
232246,-100,4,2,1,60,0,0
232496,-100,4,1,1,60,0,0
232746,-100,4,2,1,60,0,0
232996,-100,4,1,1,60,0,0
233246,-100,4,2,1,60,0,0
233996,-100,4,1,1,60,0,0
234246,-100,4,2,1,60,0,0
234496,-100,4,1,1,60,0,0
234746,-100,4,2,1,60,0,0
234996,-100,4,1,1,60,0,0
235246,-100,4,2,1,60,0,0
235996,-100,4,1,1,60,0,0
236246,-100,4,2,1,60,0,0
236496,-100,4,1,1,60,0,0
236746,-100,4,2,1,60,0,0
236996,-100,4,1,1,60,0,0
237246,-100,4,2,1,60,0,0
237867,-100,4,2,1,60,0,1
237992,-100,4,2,1,60,0,0
238867,-100,4,2,1,40,0,0
239867,-100,4,2,1,20,0,0
240867,-100,4,2,1,0,0,0

[Colours]
Combo1 : 243,221,146
Combo2 : 157,253,157
Combo3 : 255,155,205

[HitObjects]
200,80,867,2,0,B|256:48|328:88,1,120
376,144,1742,5,2
256,352,2742,1,2
136,144,3742,1,2
324,288,4742,2,0,B|256:224|180:296,1,150
256,184,5867,6,0,B|256:64,2,120
136,184,7367,2,0,B|136:320,1,120
256,304,8367,1,0
376,304,8867,2,0,B|376:184,1,120,4|0
256,192,9867,12,4,11867
128,144,27867,6,0,B|160:80|216:64,2,120
336,184,29742,2,0,B|336:336,1,150
216,328,30867,2,0,B|216:184,1,120
216,120,31742,6,0,B|288:120|320:24,1,150
416,96,32867,2,0,B|360:136|384:232,1,120
408,288,33742,2,0,B|232:288,1,150
296,208,34742,2,0,B|144:208,1,150
144,88,35867,6,0,B|64:96|40:176,2,120
352,80,37742,2,0,B|352:240,1,150
256,304,38867,1,0
256,304,39367,1,0
168,304,39742,6,0,B|168:128,1,150
48,136,40867,2,0,B|64:64|136:40,1,120
208,40,41742,2,0,B|368:40,1,150
312,120,42742,2,0,B|472:120,1,150
408,224,43867,6,4,B|408:272|456:320,2,90
296,272,45117,2,0,B|304:336,2,60
240,248,45867,2,4,B|240:200|288:152,2,90
120,272,47117,2,0,B|80:320,2,60
80,224,47867,6,4,B|80:120,2,90
168,144,49117,2,0,B|168:64,2,60
216,176,49867,2,0,B|336:176,3,120
288,288,51867,2,0,B|440:304|496:168,1,240,0|4
424,88,53367,1,0
336,88,53742,6,0,B|184:88,1,150,4|0
96,88,54742,2,0,B|96:256,1,150
96,328,55742,2,0,B|256:328,1,150
336,328,56742,2,0,B|336:176,1,150
368,64,57867,5,4
256,16,58367,1,0
144,64,58867,1,0
256,112,59367,2,0,B|216:176|144:184,1,120
48,152,60367,2,0,B|32:224|96:280,1,120
184,320,61367,1,0
184,320,61742,6,0,B|256:368|336:320,1,150,4|0
384,256,62742,2,0,B|432:184|384:104,1,150
328,48,63742,2,0,B|256:0|176:48,1,150
120,104,64742,2,0,B|72:176|120:256,1,150
208,168,65867,5,4
312,224,66367,1,0
208,280,66867,1,0
312,336,67367,2,0,B|376:320|416:264,1,120
432,152,68367,2,0,B|360:168|328:216,1,120
256,120,69367,1,0
256,240,69867,1,4
288,72,77867,6,0,B|424:72,1,120,4|0
456,184,78867,1,0
336,184,79367,1,0
216,184,79867,2,0,B|72:184,1,120
48,72,80867,2,0,B|128:72,2,60
96,184,81867,5,0
152,288,82367,1,0
272,288,82867,2,0,B|416:288,1,120
464,192,83867,1,4
344,192,84367,2,0,B|272:192,2,60
296,80,85367,1,0
176,80,85867,6,0,B|96:88|72:160,2,120
56,256,87742,2,0,B|208:256,1,150
328,256,88867,2,0,B|328:320,2,60
416,240,89742,6,0,B|480:184|472:96,1,150
352,128,90867,1,0
160,40,91742,2,0,B|184:128|288:128,1,150
272,216,92742,2,0,B|187:215|163:303,1,150
48,264,93867,5,4
48,144,94367,1,0
160,88,94867,2,0,B|264:32,1,120
344,80,95742,2,0,B|192:160,1,150
304,224,96867,1,0
416,176,97367,1,0
416,264,97742,6,0,B|376:352|272:344,1,150
176,336,98867,1,0
224,224,99367,1,0
264,144,99742,2,0,B|312:72|384:64,1,150
400,152,100742,2,0,B|336:184|304:264,1,150
192,304,101867,6,4,B|80:304,2,90
104,224,103117,2,0,B|56:168,2,60
136,176,103867,6,4,B|152:64,2,90
240,112,105117,2,0,B|272:176,2,60
288,80,105867,6,4,B|392:64,2,90
344,152,106992,1,0
424,192,107367,2,0,B|376:264|296:224,1,120
232,312,108367,5,0
184,200,108867,1,0
104,288,109367,2,0,B|48:248|64:168,1,120
104,72,110367,1,0
224,72,110867,2,0,B|288:40|360:80,1,120
392,144,111742,6,0,B|392:304,1,150,4|0
304,296,112742,2,0,B|136:296,1,150
152,208,113742,2,0,B|152:56,1,150
240,64,114742,2,0,B|344:64,1,90
392,64,115367,6,0,B|456:64,2,60,0|0|4
432,176,116367,1,0
392,288,116867,1,0
288,344,117367,2,0,B|296:272|264:216,1,120
240,112,118367,1,0
136,56,118867,1,0
40,136,119367,1,0
40,224,119742,6,0,B|56:288|152:344,1,150,4|0
224,328,120742,2,0,B|216:264|128:216,1,150
56,168,121742,2,0,B|80:112|192:112,1,150
280,104,122742,2,0,B|384:104,1,90
392,160,123367,6,0,B|456:160,2,60,0|0|4
408,280,124367,1,0
304,344,124867,1,0
344,232,125367,1,0
240,296,125867,5,0
280,184,126367,1,0
176,248,126867,2,0,B|72:160,2,120,0|0|4
416,232,135867,6,0,B|400:296|320:312,1,120,4|0
344,192,136867,2,0,B|344:120|272:80,1,120
264,208,137867,2,0,B|264:280|200:320,1,120
136,216,138867,1,0
48,136,139367,1,0
136,56,139867,6,0,B|272:56,1,120
376,56,140867,2,0,B|456:56,2,60
372,176,141867,2,0,B|372:272|256:352|140:276|140:168,1,360
40,112,143867,6,0,B|144:24,1,120
240,80,144867,2,0,B|296:32,2,60
144,152,145867,2,0,B|256:192,1,120
352,120,146867,2,0,B|408:80,2,60
448,192,147867,5,0
412,304,148367,1,0
292,304,148867,1,0
256,192,149367,1,0
256,192,149867,12,4,151867
256,80,152867,5,0
48,192,153867,1,0
256,304,154867,1,0
464,192,155867,2,0,B|328:192,2,120
256,80,157867,5,0
256,80,158367,1,4
136,80,158867,2,0,B|56:80,2,60
64,176,159867,6,0,B|56:256|112:288,1,120
216,328,160867,1,0
336,336,161367,1,0
288,224,161867,2,0,B|360:224|416:176,1,120
480,104,162867,1,0
368,64,163367,1,0
248,48,163867,6,0,B|248:128|184:168,1,120
128,64,164867,1,0
128,64,165367,1,0
40,152,165867,2,0,B|40:248,1,90
40,328,166617,1,0
40,328,166867,2,0,B|128:328,1,90
216,328,167617,5,0
216,328,167867,2,0,B|320:328,1,90
392,328,168617,1,4
392,328,168867,2,0,B|392:232,1,90
392,152,169617,1,0
392,152,169867,2,0,B|392:56,2,90
336,128,170867,6,0,B|224:80,1,120
112,128,171867,2,0,B|112:56,3,60
56,64,172867,2,0,B|56:200,1,120
56,272,173742,6,0,B|208:336,1,150,4|2
200,240,174742,2,0,B|352:304,1,150,0|2
424,328,175742,2,0,B|424:160,1,150,4|2
424,88,176742,2,0,B|336:88,1,90
272,88,177367,2,0,B|208:88,2,60,2|0|4
208,192,178367,1,0
96,152,178867,1,0
48,264,179367,6,0,B|160:320,1,120
272,320,180367,1,0
392,320,180867,2,0,B|472:320,2,60
392,232,181742,6,0,B|392:120|328:88,1,150,4|0
264,56,182742,2,0,B|192:24|112:56,1,150
56,112,183742,2,0,B|24:192|56:264,1,150,0|0
120,320,184742,2,0,B|200:368|288:328,1,150
368,280,185867,5,0
272,208,186367,1,0
256,88,186867,1,0
144,48,187367,2,0,B|80:72|64:144,1,120
184,160,188367,1,0
112,256,188867,2,0,B|32:256,2,60
176,320,189742,6,0,B|248:360|320:352,1,150,4|0
408,336,190742,2,0,B|392:280|344:264,1,90
304,240,191367,1,0
216,256,191742,2,0,B|208:168|296:144,1,150,4|0
376,184,192742,2,0,B|424:160|432:104,1,90
440,56,193367,1,0
320,24,193867,5,4
304,144,194367,1,0
208,72,194867,1,0
88,96,195367,2,0,B|40:136|32:200,1,120
152,200,196367,1,0
120,312,196867,2,0,B|48:312,2,60
208,312,197742,6,0,B|264:352|360:352,1,150,4|0
432,304,198742,2,0,B|368:256|288:256,1,150
200,240,199742,2,0,B|208:184|272:160,1,90,4|0
304,144,200367,1,0
392,120,200742,2,0,B|360:48|272:32,1,150
160,64,201867,5,4
184,184,202367,1,0
208,304,202867,1,0
104,360,203367,2,0,B|48:328|40:240,1,120
72,144,204367,1,0
160,64,204867,2,0,B|240:64,2,60
160,64,205867,1,4
256,80,213742,6,0,B|344:80,1,90,4|0
408,80,214367,2,0,B|480:80,2,60
408,168,215242,1,0
408,288,215742,6,0,B|296:288,1,90
256,288,216367,2,0,B|184:288,1,60
136,288,216867,2,0,B|64:288,2,60
136,200,217742,6,0,B|136:112,1,90
136,48,218367,2,0,B|208:48,1,60
256,48,218867,2,0,B|344:48,1,90
288,152,219742,6,0,B|400:152,1,90
440,152,220367,2,0,B|440:216,1,60
440,272,220867,2,0,B|440:336,2,60
352,272,221742,6,0,B|320:320|256:328,1,90,4|0
224,328,222367,2,0,B|184:328|152:312,1,60
112,296,222867,2,0,B|80:280|56:248,2,60
152,216,223742,6,0,B|208:240|264:224,1,90,4|0
296,224,224367,2,0,B|336:224|360:208,1,60
408,192,224867,2,0,B|440:192|472:168,2,60
368,112,225742,6,0,B|328:136|272:136,1,90,4|0
224,144,226367,2,0,B|184:152|152:136,1,60
112,112,226867,2,0,B|80:96|64:64,2,60
152,32,227742,6,0,B|208:16|248:24,1,90,4|0
304,24,228367,2,0,B|344:24|384:40,1,60
416,56,228867,2,0,B|456:72|472:104,2,60
392,144,229742,6,0,B|408:208|376:248,1,90,4|0
344,272,230367,1,0
288,304,230617,1,0
232,328,230867,2,0,B|184:336|144:328,2,60
216,240,231742,6,0,B|264:224|320:184,1,90,4|0
344,168,232367,1,0
384,120,232617,1,0
416,72,232867,2,0,B|432:32|432:8,2,60
328,48,233742,6,0,B|288:40|232:48,1,90,4|0
176,56,234367,1,0
120,80,234617,2,0,B|88:88|72:120,1,60
48,168,235117,1,0
40,224,235367,1,0
120,264,235742,6,0,B|160:304|200:320,1,90,4|0
248,328,236367,1,0
304,320,236617,1,0
328,264,236867,1,0
312,208,237117,1,0
256,192,237367,1,0
256,192,237867,12,0,241367
