osu file format v9

[General]
AudioFilename: Over the Starlight.mp3
AudioLeadIn: 2000
PreviewTime: 43751
Countdown: 0
SampleSet: Normal
StackLeniency: 0.7
Mode: 0
LetterboxInBreaks: 1

[Editor]
DistanceSpacing: 0.5
BeatDivisor: 4
GridSize: 8

[Metadata]
Title:Over the Starlight
Artist:Ayana Taketatsu
Creator:wcx19911123
Version:Over the Light
Source:K-ON!
Tags:Nakano Azusa HTT HO-KAGO TEA TIME

[Difficulty]
HPDrainRate:6
CircleSize:4
OverallDifficulty:6
ApproachRate:7
SliderMultiplier:2.4
SliderTickRate:0.5

[Events]
//Background and Video events
0,0,"BG.jpg"
//Break Periods
2,12067,26967
2,70067,76967
2,128066,134967
2,206067,212842
//Storyboard Layer 0 (Background)
//Storyboard Layer 1 (Fail)
//Storyboard Layer 2 (Pass)
//Storyboard Layer 3 (Foreground)
//Storyboard Sound Samples
//Background Colour Transformations
3,100,163,162,255

[TimingPoints]
-133,500,4,1,1,60,1,0
1621,-100,4,2,1,60,0,0
2246,-100,4,1,1,60,0,0
2496,-100,4,2,1,60,0,0
3246,-100,4,1,1,60,0,0
3496,-100,4,2,1,60,0,0
4246,-100,4,1,1,60,0,0
4496,-100,4,2,1,60,0,0
5246,-100,4,1,1,60,0,0
5496,-100,4,1,1,30,0,0
5746,-100,4,1,1,50,0,0
7246,-100,4,1,1,40,0,0
7742,-100,4,1,1,60,0,0
7871,-100,4,2,1,60,0,0
8496,-100,4,1,1,40,0,0
8746,-100,4,1,1,50,0,0
8996,-100,4,1,1,60,0,0
9246,-100,4,1,1,70,0,0
9746,-100,4,1,1,60,0,0
11867,-100,4,1,1,60,0,1
11992,-100,4,2,1,60,0,0
28246,-100,4,1,1,60,0,0
28496,-100,4,2,1,60,0,0
29246,-100,4,1,1,60,0,0
29496,-100,4,2,1,60,0,0
30246,-100,4,1,1,60,0,0
30496,-100,4,2,1,60,0,0
31246,-100,4,1,1,60,0,0
31496,-100,4,2,1,60,0,0
32246,-100,4,1,1,60,0,0
32496,-100,4,2,1,60,0,0
33246,-100,4,1,1,60,0,0
33496,-100,4,2,1,60,0,0
34117,-100,4,1,1,40,0,0
34246,-100,4,1,1,60,0,0
34496,-100,4,2,1,60,0,0
35117,-100,4,1,1,40,0,0
35246,-100,4,1,1,60,0,0
35496,-100,4,2,1,60,0,0
36246,-100,4,1,1,60,0,0
36496,-100,4,2,1,60,0,0
37246,-100,4,1,1,60,0,0
37496,-100,4,2,1,60,0,0
38246,-100,4,1,1,60,0,0
38496,-100,4,2,1,60,0,0
38746,-100,4,1,1,40,0,0
39246,-100,4,1,1,60,0,0
39496,-100,4,2,1,60,0,0
40246,-100,4,1,1,60,0,0
40496,-100,4,2,1,60,0,0
41246,-100,4,1,1,60,0,0
41496,-100,4,2,1,60,0,0
42246,-100,4,1,1,60,0,0
42496,-100,4,1,1,40,0,0
43246,-100,4,1,1,60,0,0
43496,-100,4,1,1,50,0,0
49496,-100,4,2,1,60,0,0
49746,-100,4,1,1,60,0,0
49996,-100,4,2,1,60,0,0
50246,-100,4,1,1,60,0,0
50496,-100,4,2,1,60,0,0
50746,-100,4,1,1,60,0,0
50996,-100,4,2,1,60,0,0
51246,-100,4,1,1,60,0,0
53742,-100,4,1,1,60,0,1
69992,-100,4,1,1,60,0,0
77996,-100,4,2,1,60,0,0
78246,-100,4,1,1,60,0,0
78496,-100,4,2,1,60,0,0
78746,-100,4,1,1,60,0,0
78996,-100,4,2,1,60,0,0
79246,-100,4,1,1,60,0,0
79496,-100,4,2,1,60,0,0
79746,-100,4,1,1,60,0,0
79996,-100,4,2,1,60,0,0
80246,-100,4,1,1,60,0,0
80496,-100,4,2,1,60,0,0
80746,-100,4,1,1,60,0,0
80996,-100,4,2,1,60,0,0
81246,-100,4,1,1,60,0,0
81996,-100,4,2,1,60,0,0
82246,-100,4,1,1,60,0,0
82496,-100,4,2,1,60,0,0
82746,-100,4,1,1,60,0,0
82996,-100,4,2,1,60,0,0
83246,-100,4,1,1,60,0,0
83496,-100,4,2,1,60,0,0
83746,-100,4,1,1,60,0,0
83996,-100,4,2,1,60,0,0
84246,-100,4,1,1,60,0,0
84492,-100,4,2,1,60,0,0
84746,-100,4,1,1,60,0,0
85621,-100,4,2,1,60,0,0
86246,-100,4,1,1,60,0,0
86496,-100,4,2,1,60,0,0
87246,-100,4,1,1,60,0,0
87496,-100,4,2,1,60,0,0
88117,-100,4,1,1,60,0,0
88246,-100,4,2,1,60,0,0
88496,-100,4,1,1,60,0,0
88746,-100,4,2,1,60,0,0
88996,-100,4,1,1,60,0,0
89246,-100,4,2,1,60,0,0
90246,-100,4,1,1,60,0,0
90496,-100,4,2,1,60,0,0
91246,-100,4,1,1,60,0,0
91496,-100,4,2,1,60,0,0
92117,-100,4,1,1,60,0,0
92246,-100,4,2,1,60,0,0
92496,-100,4,1,1,60,0,0
92742,-100,4,2,1,60,0,0
93117,-100,4,1,1,60,0,0
93246,-100,4,2,1,60,0,0
93496,-100,4,1,1,60,0,0
93746,-100,4,2,1,60,0,0
94246,-100,4,1,1,60,0,0
94496,-100,4,2,1,60,0,0
95246,-100,4,1,1,60,0,0
95496,-100,4,2,1,60,0,0
96117,-100,4,1,1,60,0,0
96242,-100,4,2,1,60,0,0
96617,-100,4,1,1,60,0,0
96742,-100,4,2,1,60,0,0
96996,-100,4,1,1,60,0,0
97246,-100,4,2,1,60,0,0
98246,-100,4,1,1,60,0,0
98496,-100,4,2,1,60,0,0
99246,-100,4,1,1,60,0,0
99496,-100,4,2,1,60,0,0
100117,-100,4,1,1,60,0,0
100246,-100,4,2,1,60,0,0
100496,-100,4,1,1,60,0,0
100742,-100,4,2,1,60,0,0
101117,-100,4,1,1,60,0,0
101246,-100,4,2,1,60,0,0
101621,-100,4,1,1,60,0,0
107996,-100,4,2,1,60,0,0
108246,-100,4,1,1,60,0,0
108496,-100,4,2,1,60,0,0
108746,-100,4,1,1,60,0,0
108996,-100,4,2,1,60,0,0
109246,-200,4,1,1,60,0,0
109996,-100,4,1,1,60,0,0
111742,-100,4,1,1,60,0,1
127246,-200,4,1,1,60,0,1
127992,-100,4,1,1,60,0,0
135621,-100,4,2,1,60,0,0
136246,-100,4,1,1,60,0,0
136496,-100,4,2,1,60,0,0
137246,-100,4,1,1,60,0,0
137496,-100,4,2,1,60,0,0
138246,-100,4,1,1,60,0,0
138496,-100,4,2,1,60,0,0
139367,-100,4,1,1,60,0,0
139621,-100,4,2,1,60,0,0
140246,-100,4,1,1,60,0,0
140496,-100,4,2,1,60,0,0
141367,-100,4,1,1,60,0,0
141992,-100,4,1,1,0,0,0
143367,-100,4,1,1,60,0,0
143496,-100,4,2,1,60,0,0
143746,-100,4,1,1,60,0,0
143996,-100,4,2,1,60,0,0
144867,-100,4,1,1,60,0,0
144992,-100,4,2,1,60,0,0
145867,-100,4,1,1,60,0,0
145996,-100,4,2,1,60,0,0
146746,-100,4,1,1,60,0,0
146996,-100,4,2,1,60,0,0
147246,-100,4,1,1,60,0,0
147496,-100,4,2,1,60,0,0
147746,-100,4,1,1,60,0,0
147996,-100,4,2,1,60,0,0
148246,-100,4,1,1,60,0,0
148496,-100,4,2,1,60,0,0
148746,-100,4,1,1,60,0,0
148996,-100,4,2,1,60,0,0
149246,-100,4,1,1,60,0,0
149496,-100,4,2,1,60,0,0
151867,-100,4,1,2,60,0,1
151992,-100,4,1,2,60,0,0
173742,-100,4,2,1,60,0,0
175742,-100,4,2,1,40,0,0
177867,-100,4,2,1,20,0,0
178121,-100,4,2,1,40,0,0
179121,-100,4,2,1,60,0,0
180117,-100,4,1,1,60,0,0
180246,-100,4,2,1,60,0,0
180996,-100,4,1,1,60,0,0
181246,-100,4,2,1,60,0,0
181742,-100,4,2,1,60,0,1
182117,-100,4,1,1,60,0,1
182246,-100,4,2,1,60,0,1
182617,-100,4,1,1,60,0,1
182742,-100,4,2,1,60,0,1
183117,-100,4,1,1,60,0,1
183246,-100,4,2,1,60,0,1
183617,-100,4,1,1,60,0,1
183742,-100,4,2,1,60,0,1
184117,-100,4,1,1,60,0,1
184242,-100,4,2,1,60,0,1
184617,-100,4,1,1,60,0,1
184742,-100,4,2,1,60,0,1
185117,-100,4,1,1,60,0,1
185246,-100,4,2,1,60,0,1
185496,-100,4,1,1,60,0,1
185746,-100,4,2,1,60,0,1
187617,-100,4,1,1,60,0,1
187742,-100,4,2,1,60,0,1
188117,-100,4,1,1,60,0,1
188246,-100,4,2,1,60,0,1
188617,-100,4,1,1,60,0,1
188746,-100,4,2,1,60,0,1
189617,-100,4,1,1,60,0,1
189742,-100,4,2,1,60,0,1
190117,-100,4,1,1,60,0,1
190246,-100,4,2,1,60,0,1
190617,-100,4,1,1,60,0,1
190742,-100,4,2,1,60,0,1
191117,-100,4,1,1,60,0,1
191242,-100,4,2,1,60,0,1
191617,-100,4,1,1,60,0,1
191742,-100,4,2,1,60,0,1
192117,-100,4,1,1,60,0,1
192246,-100,4,2,1,60,0,1
193117,-100,4,1,1,60,0,1
193246,-100,4,2,1,60,0,1
193617,-100,4,1,1,60,0,1
193746,-100,4,2,1,60,0,1
195617,-100,4,1,1,60,0,1
195742,-100,4,2,1,60,0,1
196117,-100,4,1,1,60,0,1
196246,-100,4,2,1,60,0,1
196617,-100,4,1,1,60,0,1
196746,-100,4,2,1,60,0,1
197117,-100,4,1,1,60,0,1
197246,-100,4,2,1,60,0,1
197617,-100,4,1,1,60,0,1
197742,-100,4,2,1,60,0,1
198121,-100,4,1,1,60,0,1
198246,-100,4,2,1,60,0,1
198621,-100,4,1,1,60,0,1
198746,-100,4,2,1,60,0,1
199121,-100,4,1,1,60,0,1
199246,-100,4,2,1,60,0,1
199621,-100,4,1,1,60,0,1
199746,-100,4,2,1,60,0,1
200121,-100,4,1,1,60,0,1
200246,-100,4,2,1,60,0,1
200621,-100,4,1,1,60,0,1
200746,-100,4,2,1,60,0,1
201121,-100,4,1,1,60,0,1
201246,-100,4,2,1,60,0,1
201621,-100,4,1,1,60,0,1
201746,-100,4,2,1,60,0,1
203121,-100,4,1,1,40,0,1
203746,-100,4,1,1,60,0,1
205246,-200,4,1,1,60,0,1
205992,-100,4,1,1,60,0,0
213371,-100,4,2,1,60,0,0
214121,-100,4,1,1,60,0,0
214246,-100,4,2,1,60,0,0
214621,-100,4,1,1,60,0,0
214746,-100,4,2,1,60,0,0
215121,-100,4,1,1,60,0,0
215246,-100,4,2,1,60,0,0
215621,-100,4,1,1,60,0,0
215746,-100,4,2,1,60,0,0
216121,-100,4,1,1,60,0,0
216246,-100,4,2,1,60,0,0
216621,-100,4,1,1,60,0,0
216746,-100,4,2,1,60,0,0
217121,-100,4,1,1,60,0,0
217246,-100,4,2,1,60,0,0
217621,-100,4,1,1,60,0,0
217746,-100,4,2,1,60,0,0
218121,-100,4,1,1,60,0,0
218246,-100,4,2,1,60,0,0
218621,-100,4,1,1,60,0,0
218746,-100,4,2,1,60,0,0
219121,-100,4,1,1,60,0,0
219246,-100,4,2,1,60,0,0
219621,-100,4,1,1,60,0,0
219746,-100,4,2,1,60,0,0
220121,-100,4,1,1,60,0,0
220246,-100,4,2,1,60,0,0
220621,-100,4,1,1,60,0,0
220746,-100,4,2,1,60,0,0
221121,-100,4,1,1,60,0,0
221246,-100,4,2,1,60,0,0
222121,-100,4,1,1,60,0,0
222246,-100,4,2,1,60,0,0
222621,-100,4,1,1,60,0,0
222746,-100,4,2,1,60,0,0
223121,-100,4,1,1,60,0,0
223246,-100,4,2,1,60,0,0
224121,-100,4,1,1,60,0,0
224246,-100,4,2,1,60,0,0
224621,-100,4,1,1,60,0,0
224746,-100,4,2,1,60,0,0
225121,-100,4,1,1,60,0,0
225246,-100,4,2,1,60,0,0
226121,-100,4,1,1,60,0,0
226246,-100,4,2,1,60,0,0
226621,-100,4,1,1,60,0,0
226746,-100,4,2,1,60,0,0
227121,-100,4,1,1,60,0,0
227246,-100,4,2,1,60,0,0
228121,-100,4,1,1,60,0,0
228246,-100,4,2,1,60,0,0
228621,-100,4,1,1,60,0,0
228746,-100,4,2,1,60,0,0
229121,-100,4,1,1,60,0,0
229246,-100,4,2,1,60,0,0
230121,-100,4,1,1,60,0,0
230246,-100,4,2,1,60,0,0
230621,-100,4,1,1,60,0,0
230746,-100,4,2,1,60,0,0
231121,-100,4,1,1,60,0,0
231246,-100,4,2,1,60,0,0
232121,-100,4,1,1,60,0,0
232246,-100,4,2,1,60,0,0
232621,-100,4,1,1,60,0,0
232746,-100,4,2,1,60,0,0
233121,-100,4,1,1,60,0,0
233246,-100,4,2,1,60,0,0
234121,-100,4,1,1,60,0,0
234246,-100,4,2,1,60,0,0
234621,-100,4,1,1,60,0,0
234746,-100,4,2,1,60,0,0
235121,-100,4,1,1,60,0,0
235246,-100,4,2,1,60,0,0
235621,-100,4,1,1,60,0,0
235746,-100,4,2,1,60,0,0
236121,-100,4,1,1,60,0,0
236246,-100,4,2,1,60,0,0
236621,-100,4,1,1,60,0,0
236746,-100,4,2,1,60,0,0
237121,-100,4,1,1,60,0,0
237246,-100,4,2,1,60,0,0
237867,-100,4,2,1,60,0,1
237992,-100,4,2,1,60,0,0
238867,-100,4,2,1,40,0,0
239867,-100,4,2,1,20,0,0
240867,-100,4,2,1,0,0,0

[Colours]
Combo1 : 243,221,146
Combo2 : 157,253,157
Combo3 : 255,155,205

[HitObjects]
200,88,867,1,0
200,88,992,2,0,B|256:48|328:96,1,120
312,86,1367,1,0
464,240,1742,6,0,B|368:312,1,120
312,264,2117,2,0,B|408:192,1,120,2|0
200,264,2742,2,0,B|104:192,1,120
48,240,3117,2,0,B|144:312,1,120,2|0
160,96,3742,6,0,B|256:168,1,120
256,168,4117,2,0,B|352:96,1,120,2|0
328,312,4742,1,0
184,312,4992,1,0
256,312,5117,1,2
400,312,5367,2,0,B|448:192,1,120
488,64,5867,5,0
256,312,6367,1,0
24,64,6867,1,0
296,152,7367,5,0
296,152,7492,1,0
296,152,7617,1,0
296,152,7742,2,0,B|272:272,1,120
208,232,8117,2,0,B|232:114,1,120,2|0
344,24,8617,5,0
424,280,8867,1,4
168,360,9117,1,0
88,104,9367,1,0
256,192,9867,1,0
256,192,9992,12,4,11867
448,88,27867,5,0
480,232,28117,1,2
368,320,28367,1,0
256,232,28617,1,0
288,88,28867,2,0,B|232:64|168:88,2,120,0|2|0
80,160,29742,6,0,B|136:184|200:160,1,120
192,232,30117,2,0,B|256:232|304:168,1,120,2|0
376,64,30617,1,0
376,208,30867,1,0
272,304,31117,1,2
128,304,31367,1,0
32,192,31617,5,0
32,192,31742,2,0,B|40:112|128:112,1,120
104,184,32117,2,0,B|224:184,1,120,2|0
264,48,32617,1,0
296,184,32867,2,0,B|352:176|384:104,2,120,0|2|0
96,264,33742,6,0,B|216:264,1,120
240,336,34117,2,0,B|112:336,2,120,0|0|0
312,336,34742,2,0,B|424:288,1,120
368,240,35117,2,0,B|456:152,1,120
200,24,35867,5,0
328,96,36117,1,2
200,168,36367,1,0
72,96,36617,1,0
144,224,36867,2,0,B|208:272|272:208,2,120,0|2|0
344,312,37742,6,0,B|288:352|224:352,1,120
160,352,38117,2,0,B|88:344|32:288,1,120,2|0
16,168,38617,1,0
96,48,38867,2,0,B|40:24,2,60
232,104,39367,1,0
440,40,39742,6,0,B|440:160,1,120
368,184,40117,2,0,B|368:64,1,120,2|0
368,64,40617,1,0
448,184,40867,2,0,B|440:256|368:296|288:264|288:152,1,240
112,64,41742,5,0
192,184,41992,1,0
192,184,42117,1,2
48,192,42367,2,0,B|48:312,1,120
120,288,42742,2,0,B|224:344,1,120
240,272,43117,2,0,B|360:248,1,120
64,88,43867,5,4
256,192,44242,1,4
448,88,44617,1,4
192,224,45117,1,0
64,296,45367,1,0
192,224,45617,1,0
64,296,45867,5,4
256,192,46242,1,4
448,296,46617,1,4
192,160,47117,1,0
64,88,47367,1,0
192,160,47617,1,0
64,88,47867,5,4
256,192,48242,1,4
448,296,48617,1,4
192,160,49117,1,0
192,160,49242,1,0
192,160,49367,2,0,B|192:24,1,120
272,160,49867,2,0,B|400:160,1,120
272,240,50367,2,0,B|272:376,1,120
192,240,50867,2,0,B|56:240,1,120
144,112,51367,6,0,B|256:40|384:120,1,240
256,192,52117,2,0,B|256:256,2,60
256,192,52617,1,0
304,328,52867,1,0
280,344,52992,1,0
256,352,53117,1,0
232,344,53242,1,0
208,328,53367,1,0
72,160,53742,6,0,B|48:216|64:280,1,120,4|0
128,248,54117,2,0,B|120:184|168:136,1,120
264,32,54617,1,0
264,32,54742,1,0
248,176,54992,1,0
248,176,55117,2,0,B|296:216|312:280,2,120
304,128,55742,6,0,B|352:168|376:240,1,120,4|0
370,225,56117,1,0
448,104,56367,1,0
448,248,56617,1,0
448,248,56742,1,0
336,336,56992,1,0
336,336,57117,1,0
112,328,57367,2,0,B|168:336|240:320,1,120
256,312,57867,5,4
280,304,58367,1,0
304,296,58867,1,0
448,48,59367,5,0
448,48,59492,1,0
448,48,59617,1,0
448,48,59742,2,0,B|376:40|312:56,1,120,4|0
360,120,60117,2,0,B|296:136|208:120,1,120
240,124,60617,1,0
112,64,60867,1,0
40,192,61117,1,0
112,320,61367,1,0
328,296,61742,6,0,B|256:320|192:320,1,120,4|0
216,248,62117,1,0
216,248,62367,2,0,B|144:248|72:216,1,120
56,168,62742,1,0
200,176,62992,1,0
200,176,63117,1,0
192,32,63367,2,0,B|264:40|320:88,1,120
248,120,63742,6,0,B|320:160|384:168,1,120,4|0
359,163,64117,1,0
464,64,64367,1,0
464,208,64617,1,0
464,208,64742,1,0
320,240,64992,1,0
320,240,65117,1,0
416,352,65367,2,0,B|344:352|296:328,1,120
272,320,65867,5,4
248,304,66367,1,0
224,288,66867,1,0
320,224,67367,5,0
320,224,67492,1,0
320,224,67617,1,0
320,224,67742,2,0,B|256:224|176:208,1,120,4|0
144,168,68117,2,0,B|208:192|264:192,1,120
344,24,68617,5,0
88,104,68867,1,0
168,360,69117,1,0
424,280,69367,1,0
256,192,69867,1,4
208,56,77867,6,0,B|88:56,3,120,4|2|0|0
40,192,78867,1,0
184,192,79117,1,2
328,192,79367,1,0
472,192,79617,1,0
424,328,79867,6,0,B|304:328,3,120,0|2|0|0
160,328,80867,1,0
288,256,81117,1,2
160,184,81367,1,0
408,40,81867,6,0,B|408:160,3,120,0|2|0|0
360,296,82867,1,0
224,352,83117,1,2
88,312,83367,1,0
24,184,83617,1,0
72,48,83867,6,0,B|192:48,2,120,0|2|0
88,120,84492,2,0,B|224:120,1,120,0|4
352,120,84992,1,0
496,120,85242,1,0
424,120,85367,1,0
200,296,85867,6,0,B|168:224|208:152,2,120,0|2|0
288,176,86617,1,0
336,232,86742,1,0
392,280,86867,2,0,B|344:332|260:308|232:224|296:168,1,240
72,184,87742,6,0,B|117:138|184:106,1,120
169,113,88117,1,0
313,116,88367,2,0,B|254:131|203:170,1,120
293,51,88867,2,0,B|358:30|430:45,2,120
272,264,89742,6,0,B|312:312|368:344,1,120
384,272,90117,1,2
384,272,90367,2,0,B|432:312|504:328,1,120
408,208,90867,2,0,B|280:192|176:120,1,240
400,80,91742,6,0,B|320:80|264:112,1,120
224,144,92117,1,0
360,200,92367,1,0
304,336,92617,1,0
304,336,92742,1,0
168,280,92992,1,0
168,280,93117,1,4
48,152,93367,2,0,B|32:216|24:296,1,120
120,160,93867,5,0
184,32,94117,1,2
208,176,94367,1,0
104,72,94617,1,0
248,96,94867,2,0,B|368:72|488:112,1,240
464,328,95742,6,0,B|440:256|384:224,1,120
376,216,96117,1,0
352,208,96242,1,0
328,200,96367,2,0,B|264:184|200:184,1,120
184,184,96742,1,0
160,184,96867,2,0,B|88:192|32:224,2,120
328,328,97742,6,0,B|256:328|200:296,1,120
152,344,98117,2,0,B|112:272|192:224,1,120,2|0
312,192,98617,1,0
312,48,98867,2,0,B|392:48|416:120|400:192|296:192,1,240
104,144,99742,5,0
104,264,99992,1,0
104,264,100117,2,0,B|104:128,1,120
248,144,100617,1,0
176,144,100742,1,0
248,16,100992,1,0
176,16,101117,1,0
304,80,101367,1,0
176,336,101867,6,4,B|72:304|16:232,2,180
464,296,103117,1,0
328,336,103367,1,0
464,296,103617,1,0
320,72,103867,6,4,B|408:40|504:48,2,180
48,168,105117,1,0
176,112,105367,1,0
48,168,105617,1,0
272,312,105867,6,4,B|368:352|464:352,2,180
464,208,106992,1,0
392,80,107242,1,0
392,80,107367,1,0
464,208,107617,1,0
208,136,107867,6,0,B|88:136,1,120
208,216,108367,2,0,B|208:344,1,120
288,216,108867,2,0,B|416:216,1,120
288,136,109367,6,0,B|288:16,1,120
208,136,110117,2,0,B|144:136,2,60
208,136,110617,1,0
296,248,110867,5,0
368,248,110992,1,0
224,248,111242,5,0
152,248,111367,1,0
288,80,111742,6,0,B|408:80,1,120
480,80,112117,2,0,B|480:208,1,120
480,200,112617,1,0
480,200,112742,1,0
480,344,112992,1,0
480,344,113117,1,0
352,272,113367,2,0,B|216:272,1,120
232,344,113742,6,0,B|104:344,1,120
112,344,114117,1,0
32,224,114367,2,0,B|168:224,1,120
152,224,114742,1,0
32,144,114992,1,0
32,144,115117,1,0
152,72,115367,1,0
272,144,115617,1,0
400,208,115867,5,0
416,208,116367,1,0
432,208,116867,1,0
448,208,117367,5,0
452,208,117492,1,0
456,208,117617,1,0
460,208,117742,2,0,B|460:272|420:336,1,120
368,280,118117,1,0
240,344,118367,1,0
336,240,118617,1,0
232,336,118867,1,0
304,208,119117,1,0
224,328,119367,1,0
272,184,119617,5,0
272,184,119742,2,0,B|200:168|136:168,1,120,4|0
88,208,120117,2,0,B|168:208|240:224,2,120
40,152,120742,1,0
184,144,120992,1,0
184,144,121117,1,0
56,72,121367,2,0,B|120:56|200:64,1,120
248,72,121742,6,0,B|240:152|256:224,1,120
296,136,122117,2,0,B|296:216|312:256,2,120
296,136,122742,1,0
424,64,122992,1,0
424,64,123117,1,0
496,192,123367,1,0
424,320,123617,1,0
352,192,123867,5,0
344,208,124367,1,0
336,224,124867,1,0
328,240,125367,5,0
324,244,125492,1,0
320,248,125617,1,0
316,252,125742,2,0,B|252:276|196:276,1,120
128,280,126117,1,0
16,184,126367,1,0
56,48,126617,1,0
200,48,126867,1,0
240,184,127117,1,0
352,272,127367,2,0,B|432:176,1,120,0|4
144,280,135867,6,0,B|256:336|376:280,1,240,4|0
256,192,136617,1,0
368,104,136867,2,0,B|256:48|136:104,2,240
496,168,138117,1,0
352,192,138367,1,0
456,88,138617,1,0
432,232,138867,6,0,B|448:312,1,60
388,338,139117,2,0,B|375:280,1,60,0|0
375,280,139367,2,0,B|256:336|144:280,1,240
16,216,140117,1,0
160,192,140367,1,0
56,296,140617,1,0
80,152,140867,6,0,B|64:72,1,60
123,45,141117,2,0,B|136:103,1,60,0|0
136,103,141367,2,0,B|256:48|368:104,4,240
256,192,143617,1,0
400,192,143867,6,0,B|400:312,2,120,0|2|0
400,192,144617,1,0
328,192,144742,1,0
256,192,144867,2,0,B|256:312,2,120,0|2|0
256,192,145617,1,0
184,192,145742,1,0
112,192,145867,2,0,B|112:312,2,120,0|2|0
112,192,146617,1,0
40,64,146867,5,0
184,32,147117,1,2
328,32,147367,1,0
472,64,147617,1,2
360,164,147867,2,0,B|256:224,1,120,0|2
151,164,148367,2,0,B|256:224,1,120,0|2
360,283,148867,2,0,B|256:224,1,120,0|2
151,283,149367,2,0,B|256:224,1,120,0|2
256,192,149867,12,0,151867
208,144,151992,6,0,B|208:272,1,120
208,336,152367,2,0,B|336:336,1,120,0|2
472,328,152867,1,0
472,184,153117,1,2
472,256,153242,1,0
472,40,153617,1,2
328,40,153867,5,0
400,40,153992,2,0,B|400:160,1,120
400,232,154367,2,0,B|248:232,1,120,0|2
136,232,154867,1,0
136,88,155117,1,2
136,160,155242,1,0
352,160,155617,1,2
352,304,155867,5,0
352,232,155992,2,0,B|232:280,1,120
240,208,156367,2,0,B|120:256,1,120,0|2
128,112,156867,1,0
0,176,157117,1,2
64,144,157242,1,0
256,48,157617,1,2
376,128,157867,5,0
312,96,157992,2,0,B|192:160,1,120
208,224,158367,2,0,B|313:167,1,120,0|2
232,288,158867,1,0
360,224,159117,1,2
296,256,159242,1,0
496,168,159617,1,2
496,24,159867,5,0
496,96,159992,2,0,B|368:96,1,120
376,96,160367,1,0
248,32,160617,1,2
328,152,160867,1,0
200,88,161117,1,2
264,120,161242,1,0
48,128,161617,6,0,B|48:64,2,60,2|0|0
48,200,161992,2,0,B|168:200,1,120
240,200,162367,1,0
384,200,162617,1,2
240,200,162867,1,0
384,200,163117,1,2
384,200,163242,1,0
208,328,163617,1,2
352,328,163867,5,0
280,328,163992,1,0
136,328,164242,1,0
64,328,164367,1,0
136,200,164617,1,2
208,72,164867,1,0
64,72,165117,1,2
136,72,165242,1,0
240,256,165617,1,2
384,232,165867,6,0,B|400:128|328:64,2,180
128,152,166867,2,0,B|112:256|184:320,2,180
328,336,167867,2,0,B|432:352|496:280,2,180,0|0|4
184,48,168867,2,0,B|80:32|16:104,2,180
480,240,169867,2,0,B|496:136|424:72,1,180
32,144,170492,1,0
32,144,170617,1,0
32,144,170742,2,0,B|-24:208|48:272,1,120
80,200,171117,2,0,B|144:176|200:216,2,120,4|0|0
136,336,171867,5,0
400,312,172117,1,0
376,48,172367,1,0
112,72,172617,1,0
256,192,172867,1,0
256,192,172992,1,0
256,192,173242,1,0
256,192,173367,1,0
184,320,173617,5,0
120,280,173742,2,0,B|120:160,1,120,4|0
120,88,174117,2,0,B|240:88,1,120
376,48,174617,1,0
432,96,174742,2,0,B|432:232,1,120
432,288,175117,2,0,B|296:288,1,120
232,168,175617,5,0
272,232,175742,2,0,B|136:232,1,120,4|0
80,232,176117,2,0,B|80:360,1,120
224,352,176617,1,0
152,352,176742,1,0
296,352,176992,5,0
368,352,177117,1,0
368,208,177367,1,0
224,208,177617,1,0
224,64,177867,5,4
208,56,178367,1,0
192,48,178867,1,0
176,40,179367,5,0
172,40,179492,1,0
168,40,179617,1,0
164,40,179742,2,0,B|80:24|48:128,1,120,4|0
136,112,180117,2,0,B|128:200|224:208,1,120
320,128,180617,1,0
320,128,180867,2,0,B|248:80|192:152,2,120,4|0|0
416,16,181617,5,0
368,72,181742,2,0,B|424:128|360:200,1,120,4|0
304,208,182117,2,0,B|336:272|416:248,1,120
272,304,182617,1,0
216,352,182742,2,0,B|176:288|240:232,1,120
176,192,183117,2,0,B|144:264|32:216,1,120
32,88,183617,5,0
32,88,183742,2,0,B|104:96|112:168,1,120,4|0
40,160,184117,1,0
40,304,184367,1,0
184,304,184617,1,0
112,304,184742,2,0,B|120:232|192:232,1,120
184,304,185117,1,0
200,160,185367,2,0,B|256:208|328:152,1,120
400,48,185867,5,2
416,56,186367,1,2
432,64,186867,1,2
320,328,187367,5,0
320,328,187492,1,0
320,328,187617,1,0
320,328,187742,2,0,B|408:336|424:232,1,120
344,256,188117,2,0,B|360:192|440:200,2,120,0|4|0
256,32,188867,1,2
256,32,189117,1,2
256,32,189367,1,2
120,88,189617,5,0
184,120,189742,2,0,B|232:176|184:240,1,120,4|0
144,288,190117,2,0,B|96:232|144:168,2,120,4|0|0
208,320,190742,1,0
352,328,190992,1,0
280,336,191117,1,0
416,296,191367,2,0,B|488:256|448:168,1,120
392,224,191742,6,0,B|368:152|448:112,1,120,4|0
472,64,192117,1,0
328,72,192367,1,0
296,288,192742,1,0
208,176,192992,1,0
240,240,193117,1,0
200,104,193367,1,0
56,72,193617,1,0
32,216,193867,5,2
48,224,194367,1,2
64,232,194867,1,2
304,72,195367,5,0
304,72,195492,1,0
304,72,195617,1,0
304,72,195742,2,0,B|448:72,1,120,4|0
416,144,196117,1,0
288,80,196367,1,0
400,152,196617,1,0
272,88,196867,1,0
384,160,197117,1,0
256,96,197367,1,0
304,232,197617,5,0
368,272,197742,2,0,B|328:336|240:288,1,120,4|0
224,232,198117,1,0
96,304,198367,2,0,B|168:264|144:176,1,120
72,224,198742,1,0
72,80,198992,1,0
56,152,199117,1,0
120,24,199367,2,0,B|184:-24|240:32,1,120
176,72,199742,6,0,B|224:112|288:72,1,120,4|0
320,136,200117,1,0
272,272,200367,2,0,B|200:224|256:144,1,120
304,208,200742,1,0
424,288,200992,1,0
376,232,201117,1,0
384,88,201367,2,0,B|328:32|248:88,1,120
48,48,201867,5,2
256,336,202367,1,2
464,48,202867,1,2
256,248,203367,5,0
256,248,203492,1,0
256,248,203617,1,0
216,192,203742,2,0,B|152:296,1,120
153,294,204117,1,0
272,144,204367,2,0,B|336:248,1,120
216,40,204867,2,0,B|176:160,1,120
280,0,205367,2,0,B|312:120,1,120,0|4
240,128,213742,6,0,B|304:72|368:144,1,120,4|0
348,124,214117,1,0
368,264,214367,2,0,B|296:248|296:160,1,120
312,320,214867,1,0
312,320,214992,1,0
312,320,215117,1,0
312,320,215242,2,0,B|240:264|136:296,1,180
80,336,215742,6,0,B|48:256|120:224,1,120
106,231,216117,1,0
72,88,216367,1,0
200,24,216617,1,0
232,168,216867,1,0
232,168,216992,1,0
232,168,217117,1,0
232,168,217242,2,0,B|320:224|424:168,1,180
376,112,217742,6,0,B|440:96|496:136|488:224|424:248,1,180
384,344,218367,1,0
248,304,218617,1,0
112,264,218867,1,0
96,256,218992,1,0
80,248,219117,1,0
64,240,219242,2,0,B|16:144|56:64,1,180
120,104,219742,6,0,B|160:48|232:48,1,120,4|0
221,48,220117,1,0
304,160,220367,1,0
432,88,220617,1,0
448,232,220867,1,0
320,304,221117,1,4
184,264,221367,1,0
112,56,221742,6,0,B|56:104|48:176,1,120,4|0
56,176,222117,1,0
64,192,222242,1,0
72,208,222367,1,0
152,328,222617,1,0
432,72,222867,1,0
432,72,223117,1,0
432,72,223367,1,0
424,288,223742,6,0,B|464:224|464:168,1,120,4|0
448,168,224117,1,0
432,160,224242,1,0
416,152,224367,1,0
400,144,224492,1,0
384,136,224617,1,0
40,320,224867,1,0
40,320,225117,1,0
40,320,225367,1,0
40,104,225742,6,0,B|96:152|184:120,1,120,4|0
168,120,226117,1,0
184,112,226242,1,0
200,104,226367,1,0
216,96,226492,1,0
232,88,226617,1,0
456,328,226867,1,0
456,328,227117,1,0
456,328,227367,1,0
456,112,227742,6,0,B|392:144|392:240,1,120,4|0
400,232,228117,1,0
408,256,228242,1,0
416,280,228367,1,0
280,328,228617,1,0
40,48,228867,1,0
40,48,229117,1,0
40,48,229367,1,0
256,56,229742,6,0,B|328:56|416:96,1,120,4|0
432,128,230117,1,0
360,152,230242,1,0
344,224,230367,1,0
488,176,230617,5,0
472,248,230742,1,0
400,272,230867,1,0
152,312,231117,1,0
264,80,231367,1,0
48,48,231742,6,0,B|112:72|160:128,1,120,4|0
112,176,232117,1,0
184,176,232242,1,0
216,240,232367,1,0
72,240,232617,5,0
112,304,232742,1,0
184,304,232867,1,0
440,320,233117,1,0
464,64,233367,1,0
248,32,233742,6,0,B|312:72|336:136,1,120,4|0
376,176,234117,1,0
392,248,234242,1,0
336,296,234367,1,0
320,224,234492,1,0
304,152,234617,5,0
248,200,234742,1,0
264,272,234867,1,0
112,64,235117,1,0
400,64,235367,1,0
256,32,235617,5,0
256,32,235742,2,0,B|256:216,1,180,4|0
384,144,236367,1,0
384,288,236617,1,0
256,352,236867,1,0
128,288,237117,1,0
128,144,237367,1,0
256,80,237867,5,4
256,192,237992,12,0,241367
