osu file format v14

[General]
AudioFilename: Balance Kiss.mp3
AudioLeadIn: 0
PreviewTime: -1
Countdown: 0
SampleSet: None
StackLeniency: 0.5
Mode: 3
LetterboxInBreaks: 1
SpecialStyle: 0
WidescreenStoryboard: 0

[Editor]
DistanceSpacing: 1
BeatDivisor: 4
GridSize: 8
TimelineZoom: 1.7

[Metadata]
Title:Balance KISS
TitleUnicode:Balance KISS
Artist:Ayana Taketatsu & Yuiko Tatsumi
ArtistUnicode:Ayana Taketatsu & Yuiko Tatsumi
Creator:llRaMall452
Version:Easy
Source:
Tags:Ako-nee :* Riko-nee :*
BeatmapID:709623
BeatmapSetID:318687

[Difficulty]
HPDrainRate:5
CircleSize:4
OverallDifficulty:5
ApproachRate:5
SliderMultiplier:1.4
SliderTickRate:1

[Events]
//Background and Video events
0,0,"349145-kiss-x-sis.jpg",0,0
//Break Periods
//Storyboard Layer 0 (Background)
//Storyboard Layer 1 (Fail)
//Storyboard Layer 2 (Pass)
//Storyboard Layer 3 (Foreground)
//Storyboard Sound Samples

[TimingPoints]
3498.70588235294,705.882352941176,4,1,0,100,1,0

[HitObjects]
64,192,3498,5,0,0:0:0:0:
320,192,3851,128,0,4204:0:0:0:0:
320,192,4204,1,0,0:0:0:0:
448,192,4557,1,0,0:0:0:0:
192,192,4734,128,0,5086:0:0:0:0:
448,192,5086,128,0,5439:0:0:0:0:
64,192,5616,1,0,0:0:0:0:
192,192,5792,1,0,0:0:0:0:
320,192,5969,1,0,0:0:0:0:
448,192,6145,128,0,6675:0:0:0:0:
320,192,6851,1,0,0:0:0:0:
192,192,7028,128,0,7381:0:0:0:0:
64,192,7734,1,0,0:0:0:0:
192,192,8086,1,0,0:0:0:0:
320,192,8263,1,0,0:0:0:0:
448,192,8439,1,0,0:0:0:0:
320,192,8616,1,0,0:0:0:0:
192,192,8792,1,0,0:0:0:0:
64,192,8969,128,0,9322:0:0:0:0:
192,192,9498,1,0,0:0:0:0:
448,192,9851,1,0,0:0:0:0:
320,192,10028,1,0,0:0:0:0:
192,192,10204,1,0,0:0:0:0:
320,192,10557,1,0,0:0:0:0:
64,192,10734,1,0,0:0:0:0:
448,192,11263,1,0,0:0:0:0:
64,192,11263,1,0,0:0:0:0:
192,192,11616,1,0,0:0:0:0:
320,192,11792,1,0,0:0:0:0:
448,192,12145,1,0,0:0:0:0:
192,192,12322,1,0,0:0:0:0:
64,192,12498,128,0,12851:0:0:0:0:
192,192,13028,1,0,0:0:0:0:
320,192,13381,128,0,13734:0:0:0:0:
448,192,13910,1,0,0:0:0:0:
64,192,14086,1,0,0:0:0:0:
448,192,14616,1,0,0:0:0:0:
64,192,14616,1,0,0:0:0:0:
192,192,14969,1,0,0:0:0:0:
448,192,15145,128,0,15498:0:0:0:0:
320,192,15851,1,0,0:0:0:0:
64,192,16028,1,0,0:0:0:0:
448,192,16381,1,0,0:0:0:0:
64,192,16381,1,0,0:0:0:0:
320,192,16734,128,0,17086:0:0:0:0:
64,192,17439,1,0,0:0:0:0:
192,192,17616,1,0,0:0:0:0:
320,192,17792,1,0,0:0:0:0:
448,192,17969,1,0,0:0:0:0:
320,192,18322,1,0,0:0:0:0:
192,192,18498,1,0,0:0:0:0:
448,192,18851,1,0,0:0:0:0:
64,192,18851,1,0,0:0:0:0:
320,192,19204,1,0,0:0:0:0:
192,192,19381,1,0,0:0:0:0:
320,192,19557,1,0,0:0:0:0:
64,192,19910,1,0,0:0:0:0:
448,192,20086,1,0,0:0:0:0:
320,192,20439,1,0,0:0:0:0:
192,192,20616,1,0,0:0:0:0:
320,192,20792,1,0,0:0:0:0:
64,192,21145,1,0,0:0:0:0:
448,192,21322,1,0,0:0:0:0:
64,192,21498,1,0,0:0:0:0:
320,192,21675,1,0,0:0:0:0:
448,192,21851,1,0,0:0:0:0:
64,192,22204,1,0,0:0:0:0:
192,192,22381,128,0,22734:0:0:0:0:
192,192,23263,1,0,0:0:0:0:
64,192,23439,1,0,0:0:0:0:
320,192,23616,1,0,0:0:0:0:
448,192,23792,1,0,0:0:0:0:
320,192,24145,1,0,0:0:0:0:
192,192,24322,1,0,0:0:0:0:
64,192,24498,1,0,0:0:0:0:
192,192,24675,1,0,0:0:0:0:
448,192,24675,1,0,0:0:0:0:
192,192,25028,1,0,0:0:0:0:
448,192,25204,1,0,0:0:0:0:
320,192,25557,1,0,0:0:0:0:
64,192,25734,1,0,0:0:0:0:
192,192,26086,1,0,0:0:0:0:
448,192,26439,1,0,0:0:0:0:
320,192,26616,1,0,0:0:0:0:
320,192,26969,1,0,0:0:0:0:
192,192,27145,1,0,0:0:0:0:
64,192,27322,1,0,0:0:0:0:
192,192,27675,1,0,0:0:0:0:
320,192,27851,1,0,0:0:0:0:
448,192,28028,1,0,0:0:0:0:
320,192,28204,1,0,0:0:0:0:
448,192,28381,1,0,0:0:0:0:
64,192,28381,1,0,0:0:0:0:
192,192,28910,128,0,29263:0:0:0:0:
320,192,29616,1,0,0:0:0:0:
448,192,29792,1,0,0:0:0:0:
192,192,29969,1,0,0:0:0:0:
64,192,30145,128,0,30498:0:0:0:0:
64,192,30851,1,0,0:0:0:0:
448,192,31204,1,0,0:0:0:0:
320,192,31381,1,0,0:0:0:0:
320,192,31734,1,0,0:0:0:0:
64,192,31910,1,0,0:0:0:0:
320,192,32086,1,0,0:0:0:0:
448,192,32439,1,0,0:0:0:0:
192,192,32616,1,0,0:0:0:0:
64,192,32792,128,0,33145:0:0:0:0:
64,192,33322,1,0,0:0:0:0:
320,192,34557,1,0,0:0:0:0:
192,192,34734,1,0,0:0:0:0:
64,192,35086,1,0,0:0:0:0:
448,192,35439,1,0,0:0:0:0:
64,192,35969,1,0,0:0:0:0:
448,192,35969,1,0,0:0:0:0:
192,192,36322,1,0,0:0:0:0:
320,192,36498,1,0,0:0:0:0:
192,192,36675,1,0,0:0:0:0:
320,192,36851,1,0,0:0:0:0:
64,192,37204,1,0,0:0:0:0:
448,192,37204,1,0,0:0:0:0:
192,192,37381,128,0,37734:0:0:0:0:
448,192,37910,1,0,0:0:0:0:
192,192,38086,1,0,0:0:0:0:
448,192,38263,1,0,0:0:0:0:
64,192,38439,1,0,0:0:0:0:
320,192,38616,1,0,0:0:0:0:
64,192,38792,1,0,0:0:0:0:
320,192,39145,128,0,39498:0:0:0:0:
64,192,39675,1,0,0:0:0:0:
448,192,39851,1,0,0:0:0:0:
64,192,40028,1,0,0:0:0:0:
320,192,40204,128,0,40557:0:0:0:0:
448,192,40910,1,0,0:0:0:0:
192,192,41086,1,0,0:0:0:0:
64,192,41263,1,0,0:0:0:0:
448,192,41616,1,0,0:0:0:0:
192,192,41792,1,0,0:0:0:0:
64,192,41969,1,0,0:0:0:0:
192,192,42145,1,0,0:0:0:0:
320,192,42322,128,0,42675:0:0:0:0:
448,192,43028,1,0,0:0:0:0:
192,192,43204,1,0,0:0:0:0:
448,192,43381,1,0,0:0:0:0:
64,192,43557,1,0,0:0:0:0:
320,192,43734,1,0,0:0:0:0:
64,192,43910,1,0,0:0:0:0:
192,192,44086,128,0,44439:0:0:0:0:
320,192,44616,1,0,0:0:0:0:
448,192,44792,1,0,0:0:0:0:
64,192,44969,1,0,0:0:0:0:
192,192,45145,1,0,0:0:0:0:
192,192,45851,1,0,0:0:0:0:
320,192,46028,1,0,0:0:0:0:
64,192,46381,1,0,0:0:0:0:
448,192,46557,1,0,0:0:0:0:
64,192,46734,1,0,0:0:0:0:
448,192,46910,1,0,0:0:0:0:
320,192,47263,1,0,0:0:0:0:
64,192,47439,1,0,0:0:0:0:
64,192,47792,1,0,0:0:0:0:
192,192,47969,1,0,0:0:0:0:
448,192,48145,1,0,0:0:0:0:
192,192,48322,1,0,0:0:0:0:
192,192,48675,128,0,49028:0:0:0:0:
448,192,49381,1,0,0:0:0:0:
192,192,49557,1,0,0:0:0:0:
64,192,49734,1,0,0:0:0:0:
320,192,50086,1,0,0:0:0:0:
448,192,50439,1,0,0:0:0:0:
320,192,50439,1,0,0:0:0:0:
320,192,51498,1,0,0:0:0:0:
64,192,51675,1,0,0:0:0:0:
320,192,52028,1,0,0:0:0:0:
192,192,52381,1,0,0:0:0:0:
192,192,52734,1,0,0:0:0:0:
448,192,52910,1,0,0:0:0:0:
64,192,53086,1,0,0:0:0:0:
320,192,53263,1,0,0:0:0:0:
64,192,53439,1,0,0:0:0:0:
448,192,53792,1,0,0:0:0:0:
320,192,53969,1,0,0:0:0:0:
64,192,54145,1,0,0:0:0:0:
448,192,54675,1,0,0:0:0:0:
192,192,54675,1,0,0:0:0:0:
192,192,55028,1,0,0:0:0:0:
64,192,55381,1,0,0:0:0:0:
320,192,55734,1,0,0:0:0:0:
192,192,56086,1,0,0:0:0:0:
192,192,56439,1,0,0:0:0:0:
192,192,57145,128,0,57498:0:0:0:0:
448,192,57851,1,0,0:0:0:0:
448,192,58381,1,0,0:0:0:0:
192,192,58557,1,0,0:0:0:0:
192,192,58910,1,0,0:0:0:0:
448,192,59086,128,0,59969:0:0:0:0:
192,192,61381,1,0,0:0:0:0:
448,192,61557,1,0,0:0:0:0:
192,192,61910,1,0,0:0:0:0:
448,192,62086,1,0,0:0:0:0:
192,192,62263,1,0,0:0:0:0:
320,192,62439,1,0,0:0:0:0:
192,192,62616,128,0,62969:0:0:0:0:
448,192,63322,1,0,0:0:0:0:
192,192,63498,1,0,0:0:0:0:
448,192,63675,1,0,0:0:0:0:
64,192,64028,1,0,0:0:0:0:
192,192,64204,1,0,0:0:0:0:
320,192,64381,1,0,0:0:0:0:
64,192,64734,1,0,0:0:0:0:
192,192,64910,1,0,0:0:0:0:
320,192,65263,1,0,0:0:0:0:
192,192,65439,1,0,0:0:0:0:
448,192,65792,1,0,0:0:0:0:
320,192,65969,1,0,0:0:0:0:
64,192,66322,1,0,0:0:0:0:
192,192,66498,1,0,0:0:0:0:
192,192,66851,1,0,0:0:0:0:
320,192,67028,128,0,67381:0:0:0:0:
64,192,67557,128,0,67910:0:0:0:0:
64,192,68263,1,0,0:0:0:0:
192,192,68439,1,0,0:0:0:0:
448,192,68792,1,0,0:0:0:0:
192,192,69145,1,0,0:0:0:0:
448,192,69498,1,0,0:0:0:0:
192,192,69675,1,0,0:0:0:0:
192,192,70204,1,0,0:0:0:0:
320,192,70734,128,0,71086:0:0:0:0:
64,192,71263,1,0,0:0:0:0:
448,192,71616,1,0,0:0:0:0:
320,192,71792,1,0,0:0:0:0:
448,192,72145,1,0,0:0:0:0:
64,192,72145,1,0,0:0:0:0:
320,192,72675,1,0,0:0:0:0:
64,192,73028,128,0,73381:0:0:0:0:
448,192,73734,1,0,0:0:0:0:
192,192,74086,1,0,0:0:0:0:
448,192,74439,1,0,0:0:0:0:
320,192,74792,1,0,0:0:0:0:
192,192,74969,1,0,0:0:0:0:
320,192,75145,1,0,0:0:0:0:
64,192,75498,1,0,0:0:0:0:
192,192,75675,1,0,0:0:0:0:
64,192,75851,1,0,0:0:0:0:
192,192,76204,1,0,0:0:0:0:
320,192,76381,1,0,0:0:0:0:
448,192,76910,128,0,77263:0:0:0:0:
192,192,77439,1,0,0:0:0:0:
64,192,77616,1,0,0:0:0:0:
192,192,78145,1,0,0:0:0:0:
320,192,78322,128,0,78675:0:0:0:0:
448,192,79204,1,0,0:0:0:0:
192,192,79557,128,0,79910:0:0:0:0:
64,192,79910,1,0,0:0:0:0:
192,192,80616,1,0,0:0:0:0:
448,192,80969,1,0,0:0:0:0:
448,192,81498,1,0,0:0:0:0:
320,192,81675,1,0,0:0:0:0:
64,192,81851,1,0,0:0:0:0:
320,192,82028,1,0,0:0:0:0:
448,192,82204,1,0,0:0:0:0:
64,192,82557,1,0,0:0:0:0:
192,192,82734,1,0,0:0:0:0:
320,192,82910,1,0,0:0:0:0:
448,192,83086,1,0,0:0:0:0:
192,192,83263,1,0,0:0:0:0:
320,192,83439,1,0,0:0:0:0:
64,192,83792,128,0,85204:0:0:0:0:
64,192,85204,1,0,0:0:0:0:
