osu file format v5

[General]
AudioFilename: 03 - Last regrets -TV animation ver.-.mp3
AudioLeadIn: 0
PreviewTime: 138
Countdown: 0
SampleSet: Soft
StackLeniency: 0.2
Mode: 0
LetterboxInBreaks: 1
StoryFireInFront: 0
SkinPreference:Default
EditorBookmarks: 4974,15934,26250,36566,46882,57198,67514,77830,88146
EditorDistanceSpacing: 1.5

[Metadata]
Title:Last regrets(TV Size)
Artist:Ayana
Creator:Alex0686
Version:DJPop~
Source:Kanon(2006)
Tags:

[Difficulty]
HPDrainRate:6
CircleSize:5
OverallDifficulty:8
SliderMultiplier:2.53
SliderTickRate:2

[Events]
//Background and Video events
0,0,"uguu.jpg"
1,196,"kanon 2006 op.avi"
//Break Periods
//Storyboard Layer 0 (Background)
//Storyboard Layer 1 (Failing)
//Storyboard Layer 2 (Passing)
//Storyboard Layer 3 (Foreground)
4,3,1,"poptitle.png",736,168 M,0,1106,1751,743,168,504,168 F,0,1106,1751,0,1 M,0,1751,4331,504,168 F,0,1751,4331,1 M,0,4331,4977,504,168,738,168 F,0,4331,4977,1,0
//Storyboard Sound Samples
//Background Colour Transformations
3,100,255,255,255

[TimingPoints]
430,644.745325596389,4,2,1,30,1,0
5457,-100,4,2,1,40,0,0
7714,-100,4,2,2,40,0,0
8681,-100,4,2,1,40,0,0
12872,-100,4,2,2,40,0,0
13839,-100,4,2,1,40,0,0
18030,-100,4,2,2,40,0,0
18997,-100,4,2,1,40,0,0
23188,-100,4,2,2,40,0,0
24155,-100,4,2,1,40,0,0
28346,-100,4,2,2,40,0,0
29313,-100,4,2,1,40,0,0
33504,-100,4,2,2,30,0,0
33745,-100,4,2,1,35,0,0
33907,-100,4,2,2,40,0,0
34148,-100,4,2,1,40,0,0
38662,-100,4,2,2,40,0,0
39306,-100,4,2,1,40,0,0
43820,-100,4,2,2,40,0,0
44142,-100,4,2,2,30,0,0
44464,-100,4,2,2,35,0,0
44787,-100,4,2,2,40,0,0
45109,-100,4,2,2,45,0,0
45431,-100,4,2,2,50,0,0
45754,-100,4,2,2,55,0,0
46076,-100,4,2,1,60,0,0
46399,-100,4,2,2,50,0,0
46640,-100,4,2,1,30,0,0
46802,-100,4,2,1,40,0,0
46963,-100,4,2,1,30,0,0
47124,-100,4,2,1,40,0,0
47285,-100,4,2,1,50,0,0
47446,-100,4,2,1,40,0,0
47608,-100,4,2,1,30,0,0
47769,-100,4,2,1,40,0,0
47930,-100,4,2,1,50,0,0
48091,-100,4,2,1,40,0,0
48252,-100,4,2,1,30,0,0
48413,-100,4,2,1,40,0,0
48575,-100,4,2,1,50,0,0
48736,-100,4,2,1,40,0,0
48897,-100,4,2,1,30,0,0
49058,-100,4,2,1,40,0,0
49219,-100,4,2,1,50,0,0
49381,-100,4,2,1,40,0,0
49542,-100,4,2,1,30,0,0
49703,-100,4,2,1,40,0,0
49864,-100,4,2,1,50,0,0
50025,-100,4,2,1,40,0,0
50186,-100,4,2,1,30,0,0
50348,-100,4,2,1,40,0,0
50509,-100,4,2,1,50,0,0
50670,-100,4,2,1,40,0,0
50831,-100,4,2,1,30,0,0
50992,-100,4,2,1,40,0,0
51154,-100,4,2,1,50,0,0
51315,-100,4,2,1,40,0,0
51476,-100,4,2,1,30,0,0
51637,-100,4,2,1,40,0,0
51798,-100,4,2,1,50,0,0
51960,-100,4,2,1,40,0,0
52121,-100,4,2,1,30,0,0
52282,-100,4,2,1,40,0,0
52443,-100,4,2,1,50,0,0
52604,-100,4,2,1,40,0,0
52765,-100,4,2,1,30,0,0
52927,-100,4,2,1,40,0,0
53088,-100,4,2,1,50,0,0
53249,-100,4,2,1,40,0,0
53410,-100,4,2,1,30,0,0
53571,-100,4,2,1,40,0,0
53733,-100,4,2,1,50,0,0
53894,-100,4,2,1,40,0,0
54055,-100,4,2,1,30,0,0
54216,-100,4,2,2,40,0,0
54377,-100,4,2,1,50,0,0
54539,-100,4,2,2,40,0,0
54700,-100,4,2,1,30,0,0
54861,-100,4,2,1,40,0,0
55022,-100,4,2,1,50,0,0
55183,-100,4,2,1,40,0,0
55344,-100,4,2,1,30,0,0
55506,-100,4,2,1,40,0,0
55667,-100,4,2,1,50,0,0
55828,-100,4,2,1,40,0,0
55989,-100,4,2,1,30,0,0
56150,-100,4,2,1,40,0,0
56312,-100,4,2,1,50,0,0
56473,-100,4,2,1,40,0,0
56634,-100,4,2,1,30,0,0
56795,-100,4,2,1,40,0,0
56956,-100,4,2,1,50,0,0
57117,-100,4,2,1,40,0,0
57279,-100,4,2,1,30,0,0
57440,-100,4,2,1,40,0,0
57601,-100,4,2,1,50,0,0
57762,-100,4,2,1,40,0,0
57923,-100,4,2,1,30,0,0
58085,-100,4,2,1,40,0,0
58246,-100,4,2,1,50,0,0
58407,-100,4,2,1,40,0,0
58568,-100,4,2,1,30,0,0
58729,-100,4,2,1,40,0,0
58891,-100,4,2,1,50,0,0
59052,-100,4,2,1,40,0,0
59213,-100,4,2,1,30,0,0
59374,-100,4,2,1,40,0,0
59535,-100,4,2,1,50,0,0
59696,-100,4,2,1,40,0,0
59858,-100,4,2,1,30,0,0
60019,-100,4,2,1,40,0,0
60180,-100,4,2,1,50,0,0
60341,-100,4,2,1,40,0,0
60502,-100,4,2,1,30,0,0
60664,-100,4,2,1,40,0,0
60825,-100,4,2,1,50,0,0
60986,-100,4,2,1,40,0,0
61147,-100,4,2,1,30,0,0
61308,-100,4,2,1,40,0,0
61470,-100,4,2,1,50,0,0
61631,-100,4,2,1,40,0,0
61792,-100,4,2,1,30,0,0
61953,-100,4,2,1,40,0,0
62114,-100,4,2,1,50,0,0
62275,-100,4,2,1,40,0,0
62437,-100,4,2,1,30,0,0
62598,-100,4,2,1,40,0,0
62759,-100,4,2,1,50,0,0
62920,-100,4,2,1,40,0,0
63081,-100,4,2,1,30,0,0
63243,-100,4,2,1,40,0,0
63404,-100,4,2,1,50,0,0
63565,-100,4,2,1,40,0,0
63726,-100,4,2,1,30,0,0
63887,-100,4,2,1,40,0,0
64049,-100,4,2,1,50,0,0
64210,-100,4,2,1,40,0,0
64371,-100,4,2,1,30,0,0
64532,-100,4,2,2,40,0,0
64693,-100,4,2,1,50,0,0
64854,-100,4,2,2,40,0,0
65016,-100,4,2,1,30,0,0
65177,-100,4,2,1,40,0,0
65338,-100,4,2,1,50,0,0
65499,-100,4,2,1,40,0,0
65660,-100,4,2,1,30,0,0
65822,-100,4,2,1,40,0,0
65983,-100,4,2,1,50,0,0
66144,-100,4,2,1,40,0,0
66305,-100,4,2,1,30,0,0
66466,-100,4,2,1,40,0,0
66627,-100,4,2,1,50,0,0
66789,-100,4,2,1,40,0,0
66950,-100,4,2,1,30,0,0
67111,-100,4,2,1,40,0,0
67272,-100,4,2,1,50,0,0
67433,-100,4,2,1,40,0,0
67595,-100,4,2,1,30,0,0
67756,-100,4,2,1,40,0,0
67917,-100,4,2,1,50,0,0
68078,-100,4,2,1,40,0,0
68239,-100,4,2,1,30,0,0
68401,-100,4,2,1,40,0,0
68562,-100,4,2,1,50,0,0
68723,-100,4,2,1,40,0,0
68884,-100,4,2,1,30,0,0
69045,-100,4,2,1,40,0,0
69206,-100,4,2,1,50,0,0
69368,-100,4,2,1,40,0,0
69529,-100,4,2,1,30,0,0
69690,-100,4,2,1,40,0,0
69851,-100,4,2,1,50,0,0
70012,-100,4,2,1,40,0,0
70174,-100,4,2,1,30,0,0
70335,-100,4,2,1,40,0,0
70496,-100,4,2,1,50,0,0
70657,-100,4,2,1,40,0,0
70818,-100,4,2,1,30,0,0
70980,-100,4,2,1,40,0,0
71141,-100,4,2,1,50,0,0
71302,-100,4,2,1,40,0,0
71463,-100,4,2,1,30,0,0
71624,-100,4,2,1,40,0,0
71785,-100,4,2,1,50,0,0
71947,-100,4,2,1,40,0,0
72108,-100,4,2,1,30,0,0
72269,-100,4,2,1,40,0,0
72430,-100,4,2,1,50,0,0
72591,-100,4,2,1,40,0,0
72753,-100,4,2,1,30,0,0
72914,-100,4,2,1,40,0,0
73075,-100,4,2,1,50,0,0
73236,-100,4,2,1,40,0,0
73397,-100,4,2,1,30,0,0
73559,-100,4,2,1,40,0,0
73720,-100,4,2,1,50,0,0
73881,-100,4,2,1,40,0,0
74042,-100,4,2,1,30,0,0
74203,-100,4,2,1,40,0,0
74364,-100,4,2,1,50,0,0
74526,-100,4,2,1,40,0,0
74687,-100,4,2,1,30,0,0
74848,-100,4,2,2,40,0,0
75009,-100,4,2,1,50,0,0
75170,-100,4,2,2,40,0,0
75332,-100,4,2,1,30,0,0
75493,-100,4,2,1,40,0,0
75654,-100,4,2,1,50,0,0
75815,-100,4,2,1,40,0,0
75976,-100,4,2,1,30,0,0
76137,-100,4,2,1,40,0,0
76299,-100,4,2,1,50,0,0
76460,-100,4,2,1,40,0,0
76621,-100,4,2,1,30,0,0
76782,-100,4,2,1,40,0,0
76943,-100,4,2,1,50,0,0
77105,-100,4,2,1,40,0,0
77266,-100,4,2,1,30,0,0
77427,-100,4,2,1,40,0,0
77588,-100,4,2,1,50,0,0
77749,-100,4,2,1,40,0,0
77911,-100,4,2,1,30,0,0
78072,-100,4,2,1,40,0,0
78233,-100,4,2,1,50,0,0
78394,-100,4,2,1,40,0,0
78555,-100,4,2,1,30,0,0
78716,-100,4,2,1,40,0,0
78878,-100,4,2,1,50,0,0
79039,-100,4,2,1,40,0,0
79200,-100,4,2,1,30,0,0
79361,-100,4,2,1,40,0,0
79522,-100,4,2,1,50,0,0
79684,-100,4,2,1,40,0,0
79845,-100,4,2,1,30,0,0
80006,-100,4,2,1,40,0,0
80167,-100,4,2,1,50,0,0
80328,-100,4,2,2,60,0,0
80651,-100,4,2,2,50,0,0
80812,-100,4,2,2,40,0,0
81215,-100,4,2,2,50,0,0
81537,-100,4,2,2,40,0,0
81860,-100,4,2,2,50,0,0
82101,-100,4,2,2,40,0,0
82343,-100,4,2,2,30,0,0
82666,-100,4,2,2,40,0,0
82907,-100,4,1,1,50,0,0
83230,-100,4,2,2,50,0,0
83552,-100,4,1,1,50,0,0
83794,-100,4,2,2,50,0,0
84842,-100,4,1,1,50,0,0
85003,-100,4,2,2,0,0,0
85164,-100,4,2,2,50,0,0
85486,-100,4,2,2,60,0,0
85647,-100,4,2,2,50,0,0
85809,-100,4,2,2,55,0,0
85970,-100,4,2,2,45,0,0
86131,-100,4,2,2,50,0,0
86292,-100,4,2,2,40,0,0
86453,-100,4,2,2,45,0,0
86615,-100,4,2,2,35,0,0
86776,-100,4,2,2,40,0,0
86937,-100,4,2,2,30,0,0
87098,-100,4,2,2,35,0,0
87259,-100,4,2,2,25,0,0
87421,-100,4,2,2,30,0,0
87582,-100,4,2,2,35,0,0
87743,-100,4,2,2,40,0,0
87904,-100,4,2,2,50,0,0
88065,-100,4,2,1,60,0,0

[Colours]
Combo1 : 64,159,255
Combo2 : 193,224,255
Combo3 : 166,210,255
Combo4 : 102,179,255 StarBreakAdditive :
0,0,255

[HitObjects]
448,64,4943,5,0
352,96,5265,1,0
256,64,5587,2,0,B|128:64,1,126.5,12|0
32,96,6232,1,0
64,192,6555,2,0,B|192:192,1,126.5
224,288,7199,1,0
320,256,7522,1,0
352,352,7844,1,8
448,320,8166,6,0,B|448:192,1,126.5,2|0
352,160,8811,1,0
384,64,9134,1,0
288,32,9456,2,0,B|160:32,1,126.5
128,128,10101,1,0
224,160,10423,1,0
320,192,10745,6,0,B|320:320,1,126.5,8|0
224,352,11390,1,0
192,256,11713,1,0
96,288,12035,2,0,B|96:160,1,126.5
64,64,12680,1,0
160,32,13002,1,8
192,128,13324,6,0,B|320:128,1,126.5,2|0
288,32,13969,2,0,B|416:32,1,126.5
448,128,14614,2,0,B|448:256,1,126.5
352,224,15259,2,0,B|352:352,1,126.5
256,320,15903,6,0,B|128:320,1,126.5,8|0
32,352,16548,1,0
64,256,16871,2,0,B|64:128,1,126.5
32,32,17515,1,0
128,64,17838,1,0
224,32,18160,1,8
192,128,18482,6,0,B|192:256,1,126.5,2|0
224,352,19127,1,0
256,256,19449,2,0,B|256:128,1,126.5
288,32,20094,1,0
384,64,20417,1,0
480,32,20739,1,0
448,128,21061,6,0,B|320:128,1,126.5,8|0
352,224,21706,1,0
448,192,22028,2,0,B|448:320,1,126.5
352,352,22673,1,0
256,320,22996,1,0
160,288,23318,1,8
192,192,23640,6,0,B|64:192,1,126.5,2|0
32,96,24285,1,0
128,64,24607,1,0
224,32,24930,2,0,B|352:32,1,126.5
384,128,25575,1,0
480,96,25897,1,0
448,192,26219,5,10
416,288,26542,1,0
368,272,26703,2,0,B|256:234|224:352,1,189.75,2|2
128,320,27509,1,0
96,224,27831,1,0
64,128,28154,1,0
96,32,28476,1,8
192,64,28798,6,0,B|320:64,1,126.5,2|0
416,32,29443,1,0
448,128,29765,1,0
480,224,30088,2,0,B|480:352,1,126.5
384,320,30733,1,0
288,288,31055,1,0
320,192,31377,6,0,B|192:192,1,126.5,10|0
144,208,31861,2,0,B|112:192|61:138|112:80|160:64,1,189.75,2|2
256,32,32667,1,0
224,128,32989,1,0
320,160,33312,1,0
288,256,33634,1,8
240,272,33795,1,2
192,256,33956,5,2
160,352,34279,1,0
64,320,34601,2,0,B|64:192,1,126.5
32,96,35246,1,0
128,64,35568,1,0
224,32,35890,2,0,B|224:160,1,126.5
256,256,36535,5,10
288,160,36858,1,0
304,112,37019,2,0,B|370:50|432:96|448:160,1,189.75,2|2
480,256,37825,1,0
448,352,38147,2,0,B|320:352,1,126.5
352,256,38792,1,8
256,224,39114,5,2
224,320,39437,1,0
128,352,39759,1,0
32,320,40081,2,0,B|32:192,1,126.5
128,160,40726,1,0
224,128,41048,2,0,B|352:128,1,126.5
320,224,41693,6,0,B|448:224,1,126.5,10|0
464,176,42177,1,2
448,128,42338,1,0
416,32,42660,1,2
320,64,42983,2,0,B|192:64,1,126.5
96,32,43627,1,0
64,128,43950,1,8
96,224,44272,6,0,B|96:352,1,126.5,2|0
192,320,44917,2,0,B|192:192,1,126.5,8|0
288,160,45562,2,0,B|288:288,1,126.5,2|8
384,256,46206,1,2
416,352,46529,1,8
448,304,46690,1,0
480,256,46851,6,0,B|480:171|416:160,1,126.5,14|0
368,144,47335,2,0,B|304:134|304:48,1,126.5,2|0
256,32,47818,2,0,B|171:32|160:96,1,126.5,2|0
64,128,48463,5,0
32,224,48785,1,0
64,320,49108,1,2
112,336,49269,1,0
160,352,49430,6,0,B|245:352|256:288,1,126.5,2|0
272,240,49914,2,0,B|272:155|336:144,1,126.5,2|0
384,128,50397,2,0,B|469:128|480:192,1,126.5,2|0
448,288,51042,5,0
352,320,51364,1,0
256,352,51687,1,2
240,304,51848,1,0
224,256,52009,6,0,B|224:171|160:160,1,126.5,2|0
112,176,52493,2,0,B|27:176|16:112,1,126.5,2|0
32,64,52976,2,0,B|48:32|77:8|112:32|128:64,1,126.5,2|0
224,96,53621,5,0
320,64,53943,1,0
416,96,54266,1,8
464,112,54427,1,0
480,160,54588,5,2
448,256,54910,1,0
416,352,55233,1,0
384,256,55555,1,0
352,160,55878,5,0
320,256,56200,1,0
288,352,56522,1,0
256,256,56845,1,0
208,272,57006,1,0
160,288,57167,6,0,B|144:320|112:344|80:320|64:288,1,126.5,10|0
48,240,57651,2,0,B|48:160|96:208|96:128,1,126.5,2|0
112,80,58134,2,0,B|128:48|160:24|192:48|208:80,1,126.5,2|0
240,176,58779,5,0
336,208,59101,1,0
432,176,59424,1,2
464,80,59746,6,0,B|448:48|416:24|384:48|368:80,1,126.5,2|0
352,128,60230,2,0,B|336:160|304:160|272:160|256:112,1,126.5,2|0
240,64,60713,2,0,B|218:32|144:32|128:64,1,126.5,2|0
32,96,61358,1,0
64,192,61680,1,0
32,288,62003,1,2
128,320,62325,6,0,B|213:320|224:256,1,126.5,2|0
208,208,62809,2,0,B|224:176|256:152|288:176|304:208,1,126.5,2|0
288,256,63292,2,0,B|298:320|384:320,1,126.5,2|0
480,288,63937,5,0
448,192,64259,1,0
480,96,64582,1,8
384,64,64904,5,2
288,32,65226,1,0
192,64,65549,1,0
288,96,65871,1,0
256,192,66194,5,0
352,160,66516,1,0
384,256,66838,1,0
352,352,67161,1,0
304,336,67322,1,0
256,320,67483,6,0,L|128:320,1,126.5,10|0
80,304,67967,2,0,B|48:288|24:256|48:224|80:208,1,126.5,2|0
128,192,68450,2,0,L|256:192,1,126.5,2|0
352,160,69095,5,0
384,64,69417,1,0
288,32,69740,1,2
240,48,69901,1,0
192,64,70062,6,0,B|112:64|160:112|80:112,1,126.5,2|0
32,128,70546,2,0,L|32:256,1,126.5,2|0
80,272,71029,2,0,B|160:272|112:320|192:320,1,126.5,2|0
288,352,71674,5,0
384,320,71996,1,0
480,288,72319,1,2
464,240,72480,1,0
480,192,72641,6,0,B|480:107|416:96,1,126.5,2|0
368,80,73125,2,0,B|283:80|272:144,1,126.5,2|0
256,192,73608,2,0,B|240:224|208:248|176:224|160:192,1,126.5,2|0
128,96,74253,5,0
96,192,74575,1,0
64,96,74898,1,8
48,144,75059,1,0
32,192,75220,5,2
64,288,75542,1,0
160,320,75865,1,0
256,288,76187,1,0
272,240,76348,1,0
320,224,76509,5,0
416,192,76832,1,0
448,96,77154,1,0
480,192,77477,1,0
448,288,77799,6,0,B|432:320|401:344|368:320|352:288,1,126.5,10|0
336,240,78283,2,0,L|336:112,1,126.5,2|0
320,64,78766,2,0,B|304:32|272:8|240:32|224:64,1,126.5,2|0
256,160,79411,5,0
224,256,79733,1,0
192,160,80056,1,2
160,64,80378,6,0,B|80:80|62:152|80:224|160:240,1,253,4|0
64,272,81345,1,4
160,304,81667,1,0
256,336,81990,1,4
304,352,82151,1,0
400,320,82473,2,0,B|450:320|480:304|464:240,1,126.5
448,192,82957,6,0,B|480:96|352:128|384:32,1,189.75,4|0
384,32,83602,1,0
288,64,83924,1,0
320,160,84246,1,0
320,160,84408,2,0,B|304:224|257:237|208:224|192:160,2,189.75
368,176,85536,5,2
384,224,85697,1,8
368,272,85858,1,2
352,320,86019,1,8
304,336,86181,1,2
256,352,86342,1,8
208,336,86503,1,2
160,320,86664,1,8
144,272,86825,5,2
128,224,86987,1,8
144,176,87148,1,2
160,128,87309,1,8
208,112,87470,1,2
256,96,87631,1,8
304,112,87792,1,2
352,128,87954,1,8
368,176,88115,5,12
