osu file format v13

[General]
AudioFilename: Jinsei Opening Jinsei OP Theme - Outotsu Kaiketsu Sensation by Ayame and Yurika.mp3
AudioLeadIn: 0
PreviewTime: 1021
Countdown: 0
SampleSet: Soft
StackLeniency: 0.7
Mode: 0
LetterboxInBreaks: 1
WidescreenStoryboard: 1

[Editor]
DistanceSpacing: 1.4
BeatDivisor: 4
GridSize: 8
TimelineZoom: 1.5

[Metadata]
Title:Dekoboko Kaiketsu Sensation (TV Size)
TitleUnicode:凸凹解決せんせーしょん (TV Size)
Artist:Ayame Tajiri & Yurika Takahashi
ArtistUnicode:あやめと & 優里花
Creator:naoe dami
Version:Normal
Source:Jinsei
Tags:op opening 人生相談テレビアニメーション「人生」life counseling La Bonne Vie natsume cilla dhea_lsl kuroanchan
BeatmapID:481816
BeatmapSetID:197112

[Difficulty]
HPDrainRate:5
CircleSize:3
OverallDifficulty:5
ApproachRate:5
SliderMultiplier:1
SliderTickRate:1

[Events]
//Background and Video events
0,0,"BG.png",0,0
Video,0,"Jinsei Opening Jinsei OP Theme - Outotsu Kaiketsu Sensation by Ayame and Yurika.avi"
//Break Periods
//Storyboard Layer 0 (Background)
//Storyboard Layer 1 (Fail)
//Storyboard Layer 2 (Pass)
//Storyboard Layer 3 (Foreground)
//Storyboard Sound Samples
//Background Colour Transformations
3,100,163,162,255

[TimingPoints]
216,402.684563758389,4,2,1,60,1,0
417,-100,4,2,1,30,0,0
1021,-100,4,2,1,70,0,1
16323,-100,4,2,1,70,0,0
17128,-100,4,2,1,60,0,0
26390,-100,4,2,1,65,0,0
31222,-100,4,2,1,60,0,0
32833,-100,4,2,1,65,0,0
34846,-100,4,2,1,40,0,0
36457,-100,4,2,1,60,0,0
67061,-100,4,2,1,70,0,1
82162,-100,4,2,1,60,0,0

[Colours]
Combo1 : 207,231,235
Combo2 : 184,164,163
Combo3 : 245,229,196
Combo4 : 224,186,179

[HitObjects]
110,70,417,6,0,P|78:94|70:110,2,50,0|0|0,0:0|0:0|0:0,0:0:0:0:
184,64,1021,2,0,P|200:112|232:160,1,100,8|2,0:0|0:0,0:0:0:0:
280,200,1625,1,0,0:0:0:0:
336,248,1826,2,0,P|376:272|400:336,1,100,8|2,0:0|0:0,0:0:0:0:
320,328,2430,2,0,L|264:360,1,50,2|8,0:0|0:0,0:0:0:0:
240,288,2833,2,0,L|176:280,1,50,2|8,0:0|0:0,0:0:0:0:
120,272,3236,2,0,P|97:233|80:176,1,100,2|2,0:0|0:0,0:0:0:0:
80,112,3840,2,0,L|131:74,1,50,8|8,0:0|0:0,0:0:0:0:
184,48,4242,6,0,P|208:96|256:128,1,100,8|2,0:0|0:0,0:0:0:0:
296,176,4846,2,0,P|328:224|320:272,1,100,8|2,0:0|0:0,0:0:0:0:
296,328,5450,1,0,0:0:0:0:
296,328,5652,1,8,0:0:0:0:
88,328,6256,2,0,P|48:296|24:240,1,100,8|8,0:0|0:0,0:0:0:0:
72,112,7061,1,8,0:0:0:0:
216,96,7464,6,0,P|247:123|280:176,1,100,8|2,0:0|0:0,0:0:0:0:
312,232,8068,1,0,0:0:0:0:
344,296,8269,2,0,P|392:296|440:248,1,100,8|2,0:0|0:0,0:0:0:0:
456,200,8873,2,0,P|464:144|448:88,1,100,0|8,0:0|0:0,0:0:0:0:
384,144,9477,1,0,0:0:0:0:
312,96,9679,2,0,P|304:152|320:208,1,100,0|8,0:0|0:0,0:0:0:0:
344,264,10283,2,0,L|288:288,1,50,8|8,0:0|0:0,0:0:0:0:
80,224,10887,6,0,L|24:200,1,50,8|0,0:0|0:0,0:0:0:0:
32,128,11289,1,8,0:0:0:0:
40,56,11491,2,0,P|90:60|129:89,1,100,8|0,0:0|0:0,0:0:0:0:
184,136,12095,2,0,P|176:168|168:192,2,50,8|0|8,0:0|0:0|0:0,0:0:0:0:
224,80,12699,1,2,0:0:0:0:
296,80,12900,2,0,P|304:112|320:144,1,50,8|0,0:0|0:0,0:0:0:0:
384,248,13504,1,8,0:0:0:0:
231,233,13907,6,0,P|232:282|264:320,2,100,0|0|0,0:0|0:0|0:0,0:0:0:0:
328,192,15115,2,0,P|327:142|295:105,1,100,0|0,0:0|0:0,0:0:0:0:
216,40,15820,2,0,B|192:62|198:110,1,75,0|8,0:0|0:0,0:0:0:0:
304,144,16524,2,0,L|360:136,1,50,8|8,0:0|0:0,0:0:0:0:
456,80,17128,6,0,P|472:144|456:192,1,100,8|2,0:0|0:0,0:0:0:0:
448,240,17732,1,0,0:0:0:0:
424,304,17934,2,0,P|376:320|320:320,1,100,8|2,0:0|0:0,0:0:0:0:
256,304,18538,1,0,0:0:0:0:
184,296,18739,2,0,P|146:263|124:218,1,100,8|2,0:0|0:0,0:0:0:0:
88,160,19343,2,0,L|120:112,1,50,8|8,0:0|0:0,0:0:0:0:
144,56,19746,2,0,L|104:24,2,50,0|0|0,0:0|0:0|0:0,0:0:0:0:
200,96,20350,6,0,P|249:103|296:88,1,100,8|2,0:0|0:0,0:0:0:0:
360,64,20954,1,0,0:0:0:0:
432,64,21156,2,0,P|432:128|408:160,1,100,8|2,0:0|0:0,0:0:0:0:
376,216,21760,1,0,0:0:0:0:
336,272,21961,2,0,P|303:309|259:332,1,100,8|0,0:0|0:0,0:0:0:0:
168,232,22766,5,0,0:0:0:0:
128,168,22967,1,0,0:0:0:0:
112,96,23169,2,0,P|152:56|208:32,1,100,8|2,0:0|0:0,0:0:0:0:
368,160,24779,1,2,0:0:0:0:
440,168,24981,2,0,P|460:182|475:202,1,50,8|2,0:0|0:0,0:0:0:0:
136,80,26390,5,4,0:0:0:0:
40,184,26793,2,0,P|40:248|72:288,1,100,8|2,0:0|0:0,0:0:0:0:
112,336,27598,2,0,P|161:329|203:302,1,100,8|2,0:0|0:0,0:0:0:0:
312,216,28403,2,0,P|305:167|278:126,1,100,8|2,0:0|0:0,0:0:0:0:
160,56,29209,1,8,0:0:0:0:
160,192,29611,1,2,0:0:0:0:
304,192,30014,1,4,0:0:0:0:
72,304,31222,6,0,P|96:272|120:256,1,50,2|8,0:0|0:0,0:0:0:0:
160,224,31625,1,4,0:0:0:0:
376,304,32833,5,4,0:0:0:0:
480,208,33236,2,0,P|472:144|448:104,1,100,8|2,0:0|0:0,0:0:0:0:
336,48,34041,2,0,P|287:47|246:75,1,100,8|2,0:0|0:0,0:0:0:0:
168,192,34846,2,0,P|171:219|187:259,2,50,2|0|2,0:0|0:0|0:0,0:0:0:0:
240,184,35450,2,0,P|241:209|249:233,2,50,2|0|2,0:0|0:0|0:0,0:0:0:0:
344,64,36457,6,0,B|384:80|400:56|432:112,1,100,8|2,0:0|0:0,0:0:0:0:
440,176,37061,2,2,L|400:232,1,50,2|8,0:0|0:0,0:0:0:0:
352,248,37464,2,0,L|320:192,1,50,2|8,0:0|0:0,0:0:0:0:
264,48,38068,2,0,B|224:32|208:40|152:40,1,100,8|2,0:0|0:0,0:0:0:0:
112,96,38672,2,2,P|88:128|88:160,1,50,2|8,0:0|0:0,0:0:0:0:
160,224,39276,6,0,P|216:224|272:248,1,100,2|0,0:0|0:0,0:0:0:0:
344,288,40081,1,12,0:0:0:0:
432,336,40484,2,0,P|472:304|480:248,1,100,8|2,0:0|0:0,0:0:0:0:
480,184,41088,1,0,0:0:0:0:
481,109,41289,2,0,P|470:62|432:32,1,100,8|2,0:0|0:0,0:0:0:0:
352,32,41893,2,0,P|320:48|296:48,1,50,2|8,0:0|0:0,0:0:0:0:
160,72,42497,6,0,P|120:112|112:168,1,100,2|8,0:0|0:0,0:0:0:0:
144,256,43303,1,12,0:0:0:0:
240,320,43706,2,0,P|280:288|312:240,1,100,8|2,0:0|0:0,0:0:0:0:
352,184,44310,1,0,0:0:0:0:
328,112,44511,2,0,P|296:120|272:136,1,50,8|2,0:0|0:0,0:0:0:0:
216,144,44913,2,0,P|184:160|160:168,1,50,8|2,0:0|0:0,0:0:0:0:
96,184,45316,2,0,P|96:136|128:96,1,100,8|0,0:0|0:0,0:0:0:0:
296,160,46122,6,0,P|264:208|232:224,1,75,10|10,0:0|0:0,0:0:0:0:
250,216,46726,1,12,0:0:0:0:
136,184,47128,2,0,P|112:200|96:224,2,50,2|0|2,0:0|0:0|0:0,0:0:0:0:
184,120,47732,2,0,P|200:86|229:63,1,75,10|10,0:0|0:0,0:0:0:0:
228,63,48336,1,12,0:0:0:0:
336,64,48739,2,0,P|352:88|376:104,2,50,0|0|0,0:0|0:0|0:0,0:0:0:0:
256,192,49343,12,8,51759,0:0:0:0:
160,192,52564,5,2,0:0:0:0:
256,96,52967,1,2,0:0:0:0:
352,192,53370,1,2,0:0:0:0:
256,288,53773,5,4,0:0:0:0:
160,192,54175,2,0,P|104:160|72:120,1,100,8|2,0:0|0:0,0:0:0:0:
48,64,54779,1,2,0:0:0:0:
120,24,54981,2,0,P|168:14|218:23,1,100,8|2,0:0|0:0,0:0:0:0:
296,40,55585,1,0,0:0:0:0:
368,64,55786,2,0,P|376:96|392:112,1,50,8|0,0:0|0:0,0:0:0:0:
440,160,56189,2,0,P|432:192|416:208,1,50,8|0,0:0|0:0,0:0:0:0:
368,248,56591,1,8,0:0:0:0:
320,304,56793,2,0,L|368:344,2,50,8|0|8,0:0|0:0|0:0,0:0:0:0:
249,318,57397,6,0,P|201:328|152:320,1,100,8|2,0:0|0:0,0:0:0:0:
88,288,58001,1,2,0:0:0:0:
40,232,58202,2,0,P|88:184|128:184,1,100,8|0,0:0|0:0,0:0:0:0:
184,192,58806,1,10,0:0:0:0:
352,208,59410,2,0,P|392:240|448:240,2,100,8|2|8,0:0|0:0|0:0,0:0:0:0:
312,104,60618,6,0,P|272:64|232:48,1,100,8|2,0:0|0:0,0:0:0:0:
160,32,61222,1,8,0:0:0:0:
88,56,61424,2,0,L|48:112,1,50,8|2,0:0|0:0,0:0:0:0:
48,168,61826,2,0,P|72:200|80:232,1,50,8|2,0:0|0:0,0:0:0:0:
88,280,62229,2,0,P|88:304|104:328,1,50,8|2,0:0|0:0,0:0:0:0:
168,368,62632,2,0,P|224:376|280:360,1,100,8|8,0:0|0:0,0:0:0:0:
336,336,63236,2,0,L|312:288,2,50,8|2|8,0:0|0:0|0:0,0:0:0:0:
400,296,63840,6,0,P|448:264|464:216,1,100,8|2,0:0|0:0,0:0:0:0:
368,120,64645,2,0,P|320:152|304:200,1,100,8|2,0:0|0:0,0:0:0:0:
232,312,65450,2,0,P|216:344|200:360,3,50,8|0|8|0,0:0|0:0|0:0|0:0,0:0:0:0:
96,352,66457,6,0,L|63:315,1,50,0|0,0:0|0:0,0:0:0:0:
64,248,66860,1,0,0:0:0:0:
64,176,67061,2,0,P|96:136|144:120,1,100,8|2,0:0|0:0,0:0:0:0:
208,112,67665,1,2,0:0:0:0:
280,120,67866,2,0,P|328:160|344:216,1,100,8|2,0:0|0:0,0:0:0:0:
360,264,68470,2,0,P|360:296|384:328,1,50,8|2,0:0|0:0,0:0:0:0:
423,356,68873,2,0,P|443:341|456:320,1,50,8|2,0:0|0:0,0:0:0:0:
478,255,69276,2,0,P|460:208|432:168,1,100,8|2,0:0|0:0,0:0:0:0:
384,120,69880,6,0,P|344:112|320:128,1,50,8|8,0:0|0:0,0:0:0:0:
264,128,70282,2,0,P|232:168|184:184,1,100,8|2,0:0|0:0,0:0:0:0:
120,152,70886,1,0,0:0:0:0:
152,80,71088,2,0,P|184:40|232:24,1,100,8|8,0:0|0:0,0:0:0:0:
296,24,71692,1,8,0:0:0:0:
408,184,72296,2,0,P|359:178|312:200,1,100,8|2,0:0|0:0,0:0:0:0:
208,280,73101,1,2,0:0:0:0:
296,360,73504,6,0,P|344:368|392:336,1,100,8|2,0:0|0:0,0:0:0:0:
424,280,74108,1,0,0:0:0:0:
400,208,74309,2,0,P|352:184|288:200,1,100,8|2,0:0|0:0,0:0:0:0:
240,192,74913,2,0,L|176:192,1,50,8|2,0:0|0:0,0:0:0:0:
120,176,75316,2,0,P|128:144|144:120,1,50,8|2,0:0|0:0,0:0:0:0:
176,72,75719,2,0,P|216:40|264:24,1,100,8|0,0:0|0:0,0:0:0:0:
328,24,76323,2,0,L|352:80,1,50,8|8,0:0|0:0,0:0:0:0:
472,144,76927,6,0,L|440:200,1,50,8|0,0:0|0:0,0:0:0:0:
416,248,77329,1,8,0:0:0:0:
352,208,77531,2,0,P|304:176|248:200,1,100,8|0,0:0|0:0,0:0:0:0:
224,248,78135,2,0,L|192:304,2,50,8|0|8,0:0|0:0|0:0,0:0:0:0:
160,208,78739,1,0,0:0:0:0:
144,136,78940,2,0,P|160:104|192:88,1,50,8|0,0:0|0:0,0:0:0:0:
272,40,79544,1,0,0:0:0:0:
384,128,79947,6,0,L|432:144,1,50,8|0,0:0|0:0,0:0:0:0:
416,216,80350,2,0,L|392:264,1,50,8|0,0:0|0:0,0:0:0:0:
356,318,80752,2,0,L|312:296,1,50,8|0,0:0|0:0,0:0:0:0:
240,272,81155,2,0,L|224:320,1,50,8|0,0:0|0:0,0:0:0:0:
144,296,81558,1,8,0:0:0:0:
152,184,81860,1,0,0:0:0:0:
240,104,82162,2,0,B|296:72|384:112,1,150,8|10,0:0|0:0,0:0:0:0:
