osu file format v14

[General]
AudioFilename: 08 Visions.mp3
AudioLeadIn: 0
PreviewTime: -1
Countdown: 1
SampleSet: None
StackLeniency: 0.7
Mode: 2
LetterboxInBreaks: 1
WidescreenStoryboard: 0

[Editor]
DistanceSpacing: 0.8
BeatDivisor: 4
GridSize: 4
TimelineZoom: 2.3

[Metadata]
Title:Visions
TitleUnicode:Visions
Artist:Ayame
ArtistUnicode:Ayame
Creator:Sovyat
Version:2003
Source:POP CULTURE 4
Tags:pop culture 4 alstroemeria records visions ayame
BeatmapID:1583853
BeatmapSetID:752353

[Difficulty]
HPDrainRate:6
CircleSize:3
OverallDifficulty:6
ApproachRate:9.4
SliderMultiplier:1.39999990463257
SliderTickRate:1

[Events]
//Background and Video events
0,0,"1361539.jpg",0,0
//Break Periods
2,30436,44931
2,75202,89931
//Storyboard Layer 0 (Background)
//Storyboard Layer 1 (Fail)
//Storyboard Layer 2 (Pass)
//Storyboard Layer 3 (Foreground)
//Storyboard Sound Samples

[TimingPoints]
471,468.75,4,2,0,70,1,0
105471,-100,4,2,0,70,0,1

[HitObjects]
200,316,471,6,0,B|96:296|96:296|60:316,1,139.999990463257,0|0,2:0|0:0,2:0:0:0:
316,316,1408,2,0,B|424:280|424:280|444:296,1,139.999990463257
40,176,2346,2,0,B|104:128|104:128|156:164,1,139.999990463257
464,172,3283,2,0,B|388:140|388:140|336:168,1,139.999990463257
72,88,3986,1,0,0:0:0:0:
452,120,4221,2,0,L|312:92,1,139.999990463257
456,232,4924,1,0,0:0:0:0:
56,256,5158,2,0,L|200:256,1,139.999990463257
416,344,6096,2,0,B|452:308|452:308|368:264,1,139.999990463257
92,316,7033,2,0,B|56:280|56:280|140:236,1,139.999990463257
256,192,7971,12,0,15002,0:0:0:0:
116,240,15471,5,0,0:0:0:0:
336,248,15705,1,0,0:0:0:0:
152,156,15939,1,0,0:0:0:0:
328,152,16203,1,0,0:0:0:0:
168,68,16408,1,0,0:0:0:0:
320,64,16642,1,0,0:0:0:0:
200,288,16877,2,0,L|128:292,1,69.9999952316285
456,272,17346,2,0,L|384:268,1,69.9999952316285
136,200,17814,2,0,L|64:200,1,69.9999952316285
276,148,18283,1,0,0:0:0:0:
112,100,18517,5,0,0:0:0:0:
428,80,18752,1,0,0:0:0:0:
88,312,18986,2,0,L|80:236,1,69.9999952316285
280,312,19455,2,0,L|260:240,1,69.9999952316285
440,328,19924,2,0,L|484:268,1,69.9999952316285
244,256,20392,1,0,0:0:0:0:
252,168,20627,1,0,0:0:0:0:
460,172,20861,1,0,0:0:0:0:
96,200,21096,2,0,L|60:132,1,69.9999952316285
264,200,21564,2,0,L|264:128,1,69.9999952316285
380,304,22033,6,0,L|456:304,2,69.9999952316285
64,316,22736,2,0,L|128:284,1,69.9999952316285
384,176,23205,1,0,0:0:0:0:
436,324,23439,2,0,L|368:288,1,69.9999952316285
108,176,23908,1,0,0:0:0:0:
400,104,24142,1,0,0:0:0:0:
152,268,24377,2,0,L|80:268,1,69.9999952316285
200,208,24846,1,0,0:0:0:0:
388,280,25080,2,0,L|460:280,1,69.9999952316285
348,212,25549,5,0,0:0:0:0:
100,216,25783,2,0,L|36:172,1,69.9999952316285
424,220,26252,2,0,L|472:164,1,69.9999952316285
128,112,26721,1,0,0:0:0:0:
412,104,26955,1,0,0:0:0:0:
240,120,27189,2,0,L|164:112,1,69.9999952316285
432,48,27658,1,0,0:0:0:0:
92,44,27892,1,0,0:0:0:0:
300,332,28127,2,0,L|376:332,1,69.9999952316285
60,288,28596,2,0,L|136:280,1,69.9999952316285
416,216,29064,5,0,0:0:0:0:
60,188,29299,1,0,0:0:0:0:
172,312,29767,2,0,L|100:283,1,69.9999952316285
440,256,30236,1,0,0:0:0:0:
412,288,45471,6,0,L|408:144,1,139.999990463257
72,248,46174,1,0,0:0:0:0:
232,236,46408,2,0,L|304:224,1,69.9999952316285
456,144,46877,2,0,L|384:116,1,69.9999952316285
144,148,47346,2,0,L|220:144,1,69.9999952316285
48,40,47814,1,0,0:0:0:0:
392,152,48049,2,0,L|444:96,1,69.9999952316285
129,144,48517,1,0,0:0:0:0:
376,132,48752,1,0,0:0:0:0:
72,300,48986,2,0,L|136:264,1,69.9999952316285
240,248,49455,5,0,0:0:0:0:
468,256,49689,2,0,P|404:308|348:320,1,139.999990463257
88,180,50392,1,0,0:0:0:0:
368,136,50627,1,0,0:0:0:0:
468,212,50861,1,0,0:0:0:0:
148,344,51096,2,0,B|192:312|192:312|184:235|104:272|104:272|40:192|40:192|204:144|204:144|140:52,1,559.999961853028
448,320,53205,2,0,L|452:244,1,69.9999952316285
96,296,53674,1,0,0:0:0:0:
280,136,53908,2,0,L|212:124,1,69.9999952316285
72,100,54377,5,0,0:0:0:0:
348,288,54611,2,0,L|408:248,1,69.9999952316285
140,316,55080,2,0,L|72:296,1,69.9999952316285
416,204,55549,2,0,L|352:176,1,69.9999952316285
224,132,56017,1,0,0:0:0:0:
124,72,56252,1,0,0:0:0:0:
396,64,56486,1,0,0:0:0:0:
48,40,56721,1,0,0:0:0:0:
220,224,56955,2,0,L|144:220,1,69.9999952316285
400,324,57424,6,0,L|476:328,1,69.9999952316285
112,228,57892,2,0,L|40:220,1,69.9999952316285
304,244,58361,2,0,B|476:225|476:225|312:41,1,419.999971389771
52,200,60002,1,0,0:0:0:0:
304,276,60236,1,0,0:0:0:0:
164,136,60471,1,0,0:0:0:0:
404,164,60705,2,0,L|464:128,1,69.9999952316285
76,140,61174,1,0,0:0:0:0:
468,160,61408,2,0,L|396:132,1,69.9999952316285
72,296,61877,5,0,0:0:0:0:
376,312,62111,2,0,P|420:264|412:252,1,69.9999952316285
104,264,62580,2,0,P|68:248|92:208,1,69.9999952316285
396,212,63049,2,0,P|424:188|408:152,1,69.9999952316285
216,184,63517,1,0,0:0:0:0:
44,120,63752,1,0,0:0:0:0:
272,88,63986,1,0,0:0:0:0:
76,60,64221,1,0,0:0:0:0:
448,312,64455,6,0,L|352:304,1,69.9999952316285
104,320,64924,2,0,L|200:296,1,69.9999952316285
304,240,65392,1,0,0:0:0:0:
64,204,65627,1,0,0:0:0:0:
320,328,65861,2,0,B|420:308|472:292|340:276|296:232,1,209.999985694886
96,292,66799,1,0,0:0:0:0:
368,208,67033,2,0,L|464:176,2,69.9999952316285
60,168,67736,1,0,0:0:0:0:
384,340,67971,6,0,B|328:344|240:320|184:280|316:252|440:236|480:236|416:196|192:168|68:120|32:88|84:68|172:48|296:20,1,699.999952316285
104,280,70549,5,0,0:0:0:0:
456,304,70783,1,0,0:0:0:0:
220,184,71017,2,0,L|220:108,1,69.9999952316285
444,120,71486,1,0,0:0:0:0:
128,340,71721,6,0,B|184:344|272:320|328:280|196:252|76:228|76:228|96:196|243:177|432:160|508:120|480:88|428:68|340:48|248:32|180:28,1,979.999933242799
253,317,90471,6,0,L|256:234,1,69.9999952316285
65,208,90939,1,0,0:0:0:0:
288,187,91174,2,0,L|228:140,1,69.9999952316285
425,98,91642,1,0,0:0:0:0:
172,319,91877,2,0,L|259:279,1,69.9999952316285
461,241,92346,1,0,0:0:0:0:
181,194,92580,2,0,P|151:176|178:150,1,69.9999952316285
452,93,93049,1,0,0:0:0:0:
252,80,93283,1,0,0:0:0:0:
108,44,93517,1,0,0:0:0:0:
72,320,93986,5,0,0:0:0:0:
324,320,94221,1,0,0:0:0:0:
432,260,94455,1,0,0:0:0:0:
304,204,94689,1,0,0:0:0:0:
444,128,94924,1,0,0:0:0:0:
72,300,95158,2,0,L|44:232,1,69.9999952316285
444,256,95627,2,0,L|392:200,1,69.9999952316285
100,160,96096,2,0,P|24:136|20:132,1,69.9999952316285
232,104,96564,1,0,0:0:0:0:
388,148,96799,2,0,L|452:176,2,69.9999952316285
60,316,97502,2,0,L|140:312,1,69.9999952316285
464,328,97971,6,0,L|380:280,1,69.9999952316285
184,288,98439,2,0,L|264:232,1,69.9999952316285
112,228,98908,2,0,L|40:204,1,69.9999952316285
432,176,99377,2,0,L|348:136,2,69.9999952316285
184,288,100080,1,0,0:0:0:0:
248,240,100314,1,0,0:0:0:0:
72,256,100549,1,0,0:0:0:0:
96,184,100783,1,0,0:0:0:0:
120,120,101017,1,0,0:0:0:0:
456,112,101252,2,0,L|388:80,2,69.9999952316285
88,288,101955,6,0,L|168:332,2,69.9999952316285
408,292,102658,2,0,L|400:208,1,69.9999952316285
88,208,103127,2,0,L|176:204,1,69.9999952316285
412,160,103596,1,0,0:0:0:0:
192,120,103830,1,0,0:0:0:0:
400,84,104064,1,0,0:0:0:0:
152,64,104299,1,0,0:0:0:0:
384,20,104533,1,0,0:0:0:0:
104,28,104767,1,0,0:0:0:0:
352,0,105002,1,0,0:0:0:0:
156,312,105471,6,0,P|104:304|80:264,1,69.9999952316285
416,228,105939,2,0,P|376:220|372:180,1,69.9999952316285
128,132,106408,2,0,B|96:132|48:144|72:176,1,69.9999952316285
416,244,106877,2,0,L|344:240,2,69.9999952316285
432,164,107580,1,0,0:0:0:0:
248,136,107814,1,0,0:0:0:0:
416,72,108049,1,0,0:0:0:0:
88,104,108283,2,0,L|44:40,1,69.9999952316285
396,36,108752,1,0,0:0:0:0:
88,316,108986,6,0,P|140:292|136:272,1,69.9999952316285
296,280,109455,1,0,0:0:0:0:
468,340,109689,2,0,L|464:260,1,69.9999952316285
324,224,110158,1,0,0:0:0:0:
160,188,110392,2,0,L|160:116,1,69.9999952316285
40,80,110861,1,0,0:0:0:0:
332,176,111096,2,0,L|332:100,1,69.9999952316285
184,68,111564,1,0,0:0:0:0:
460,304,111799,2,0,L|472:228,2,69.9999952316285
232,308,112502,1,0,0:0:0:0:
52,224,112736,1,0,0:0:0:0:
408,208,112971,6,0,L|408:132,1,69.9999952316285
88,180,113439,2,0,L|88:88,1,69.9999952316285
340,184,113908,2,0,L|340:112,1,69.9999952316285
160,164,114377,2,0,L|160:80,1,69.9999952316285
468,208,114846,2,0,L|468:128,1,69.9999952316285
116,196,115314,2,0,L|116:108,1,69.9999952316285
360,88,115783,2,0,L|288:84,1,69.9999952316285
472,32,116252,2,0,L|392:28,2,69.9999952316285
388,112,116955,5,0,0:0:0:0:
256,172,117189,1,0,0:0:0:0:
100,240,117424,2,0,B|64:220|32:180|120:332,1,139.999990463257
352,320,118127,2,0,L|424:280,1,69.9999952316285
68,320,118596,2,0,L|136:276,1,69.9999952316285
428,232,119064,1,0,0:0:0:0:
88,220,119299,1,0,0:0:0:0:
376,200,119533,2,0,B|392:168|436:168|464:136|456:84,1,139.999990463257
84,304,120471,6,0,L|88:136,1,139.999990463257
416,320,121174,2,0,L|420:172,1,139.999990463257
416,252,121408,1,0,0:0:0:0:
188,192,121877,1,0,0:0:0:0:
376,188,122111,2,0,L|448:148,1,69.9999952316285
128,164,122580,2,0,L|120:84,1,69.9999952316285
392,92,123049,1,0,0:0:0:0:
136,64,123283,1,0,0:0:0:0:
464,56,123752,1,0,0:0:0:0:
220,320,124221,6,0,P|212:248|224:252,1,139.999990463257
168,288,124455,1,0,0:0:0:0:
416,304,124924,6,0,P|424:232|412:236,1,139.999990463257
468,272,125158,1,0,0:0:0:0:
120,208,125627,2,0,L|200:200,2,69.9999952316285
392,152,126330,1,0,0:0:0:0:
184,96,126564,2,0,L|100:88,2,69.9999952316285
