osu file format v9

[General]
AudioFilename: 10 Romantic Night.mp3
AudioLeadIn: 3000
PreviewTime: 43908
Countdown: 1
SampleSet: Soft
StackLeniency: 0.4
Mode: 0
LetterboxInBreaks: 1

[Editor]
Bookmarks: 181277,195713
DistanceSpacing: 1
BeatDivisor: 4
GridSize: 4

[Metadata]
Title:Romantic Night
Artist:Ayakura Mei
Creator:IceBeam
Version:Ray-G
Source:Touhou
Tags:Reiji-RJ Reiji God That Misses People Romantic Fall Alstroemeria Records REDALiCE Shizuha Aki

[Difficulty]
HPDrainRate:3
CircleSize:4
OverallDifficulty:3
ApproachRate:5
SliderMultiplier:1.1
SliderTickRate:1

[Events]
//Background and Video events
0,0,"Konachan.com - 64509 aki_shizuha sky touhou.jpg"
//Break Periods
2,8256,21292
2,80436,93472
2,152616,163848
//Storyboard Layer 0 (Background)
//Storyboard Layer 1 (Fail)
//Storyboard Layer 2 (Pass)
//Storyboard Layer 3 (Foreground)
//Storyboard Sound Samples
//Background Colour Transformations
3,100,163,162,255

[TimingPoints]
838,451.127819548872,4,1,1,20,1,0
1063,-100,4,1,1,25,0,0
1514,-100,4,1,1,30,0,0
1965,-100,4,1,1,35,0,0
2416,-100,4,1,1,40,0,0
2868,-100,4,1,1,45,0,0
3319,-100,4,1,1,50,0,0
3770,-100,4,1,1,55,0,0
4221,-100,4,1,1,60,0,0
4672,-100,4,1,1,50,0,0
5123,-100,4,1,1,55,0,0
5574,-100,4,1,1,60,0,0
6025,-100,4,1,1,55,0,0
7830,-100,4,1,1,50,0,0
24522,-100,4,2,1,50,0,0
25086,-100,4,1,1,50,0,0
25424,-100,4,2,1,50,0,0
25988,-100,4,1,1,50,0,0
31740,-100,4,2,1,50,0,0
32304,-100,4,1,1,50,0,0
32642,-100,4,2,1,50,0,0
33206,-100,4,1,1,50,0,0
35687,-100,4,2,1,50,0,0
36138,-100,4,2,1,30,0,0
36589,-100,4,1,1,50,0,0
36928,-100,4,1,1,50,0,1
37041,-100,4,1,1,50,0,0
38394,-100,4,2,1,50,0,0
39071,-100,4,1,1,50,0,0
39409,-100,4,1,1,35,0,0
39860,-100,4,1,1,20,0,0
40311,-100,4,1,1,50,0,0
41552,-100,4,2,1,50,0,0
41777,-100,4,1,1,50,0,0
42003,-100,4,2,1,50,0,0
42680,-100,4,1,1,50,0,0
43018,-100,4,1,1,35,0,0
43469,-100,4,1,1,20,0,0
43920,-100,4,1,1,50,0,0
44710,-100,4,2,1,50,0,0
45386,-100,4,1,1,50,0,0
48093,-100,4,2,1,50,0,0
49221,-100,4,1,1,50,0,0
49672,-100,4,2,1,50,0,0
51364,-100,4,1,1,50,0,1
52379,-100,4,2,1,50,0,1
53507,-100,4,1,1,50,0,1
54183,-100,4,2,1,50,0,1
54409,-100,4,1,1,50,0,1
55537,-100,4,2,1,50,0,1
56213,-100,4,1,1,50,0,1
57341,-100,4,2,1,50,0,1
58356,-100,4,1,1,50,0,1
59597,-100,4,2,1,50,0,1
60725,-100,4,1,1,50,0,1
60950,-100,4,2,1,50,0,1
61176,-100,4,1,1,50,0,1
62755,-100,4,2,1,50,0,1
63431,-100,4,1,1,50,0,1
66815,-100,4,2,1,50,0,1
67492,-100,4,1,1,50,0,1
69973,-100,4,2,1,50,0,1
70650,-100,4,1,1,50,0,1
71777,-100,4,2,1,50,0,1
72792,-100,4,1,1,50,0,1
77191,-100,4,2,1,50,0,1
77868,-100,4,1,1,50,0,1
78431,-100,4,1,1,50,0,0
96702,-100,4,2,1,50,0,0
97266,-100,4,1,1,50,0,0
97604,-100,4,2,1,50,0,0
98168,-100,4,1,1,50,0,0
103920,-100,4,2,1,50,0,0
104484,-100,4,1,1,50,0,0
104822,-100,4,2,1,50,0,0
105386,-100,4,1,1,50,0,0
107980,-100,4,2,1,50,0,0
108319,-100,4,2,1,35,0,0
108883,-100,4,1,1,50,0,0
109108,-100,4,1,1,50,0,1
109221,-100,4,1,1,50,0,0
110574,-100,4,2,1,50,0,0
111251,-100,4,1,1,50,0,0
111589,-100,4,1,1,35,0,0
112041,-100,4,1,1,20,0,0
112492,-100,4,1,1,50,0,0
114183,-100,4,2,1,50,0,0
114860,-100,4,1,1,50,0,0
115198,-100,4,1,1,35,0,0
115650,-100,4,1,1,20,0,0
116101,-100,4,1,1,50,0,0
116890,-100,4,2,1,50,0,0
117567,-100,4,1,1,50,0,0
120274,-100,4,2,1,50,0,0
121401,-100,4,1,1,50,0,0
121853,-100,4,2,1,50,0,0
123544,-100,4,1,1,50,0,1
124559,-100,4,2,1,50,0,1
125236,-100,4,1,1,50,0,1
126364,-100,4,2,1,50,0,1
127041,-100,4,1,1,50,0,1
127717,-100,4,2,1,50,0,1
128394,-100,4,1,1,50,0,1
129522,-100,4,2,1,50,0,1
130537,-100,4,1,1,50,0,1
131777,-100,4,2,1,50,0,1
132003,-100,4,1,1,50,0,1
132228,-100,4,2,1,50,0,1
132905,-100,4,1,1,50,0,1
133582,-100,4,2,1,50,0,1
133807,-100,4,1,1,50,0,1
134935,-100,4,2,1,50,0,1
135612,-100,4,1,1,50,0,1
139447,-100,4,2,1,50,0,1
140123,-100,4,1,1,50,0,1
140800,-100,4,2,1,50,0,1
141025,-100,4,1,1,50,0,1
142153,-100,4,2,1,50,0,1
142830,-100,4,1,1,50,0,1
143958,-100,4,2,1,50,0,1
144973,-100,4,1,1,50,0,1
149371,-100,4,2,1,50,0,1
150048,-100,4,1,1,50,0,1
150612,-100,4,1,1,50,0,0
165274,-100,4,2,1,40,0,0
165725,-100,4,2,1,30,0,0
166176,-100,4,2,1,20,0,0
166853,-100,4,1,1,50,0,1
168319,-100,4,2,1,50,0,1
168995,-100,4,1,1,50,0,1
169672,-100,4,2,1,50,0,1
169898,-100,4,1,1,50,0,1
171025,-100,4,2,1,50,0,1
171702,-100,4,1,1,50,0,1
172943,-100,4,2,1,50,0,1
173845,-100,4,1,1,50,0,1
175537,-100,4,2,1,50,0,1
176213,-100,4,1,1,50,0,1
176890,-100,4,2,1,50,0,1
177116,-100,4,1,1,50,0,1
178244,-100,4,2,1,50,0,1
178920,-100,4,1,1,50,0,1
182755,-100,4,2,1,50,0,1
183431,-100,4,1,1,50,0,1
185462,-100,4,2,1,50,0,1
186138,-100,4,1,1,50,0,1
187266,-100,4,2,1,50,0,1
188281,-100,4,1,1,50,0,1
192680,-100,4,2,1,50,0,1
193356,-100,4,1,1,50,0,1
193920,-100,4,1,1,50,0,0
195725,-100,4,1,1,50,0,0

[Colours]
Combo1 : 191,41,199
Combo2 : 18,122,199
Combo3 : 104,53,172

[HitObjects]
128,296,838,1,0
72,200,1289,1,0
144,112,1740,1,0
248,152,2191,1,0
240,264,2642,5,0
304,352,3093,1,0
408,320,3544,1,0
408,208,3995,1,0
304,176,4447,5,0
208,224,4898,1,0
136,144,5349,1,0
184,48,5800,1,0
288,72,6251,5,4
256,192,6477,12,4,8056
48,88,22492,5,4
144,144,22943,2,0,B|128:200|160:256,1,110
232,328,23845,1,0
288,232,24296,2,0,B|320:200|368:208,2,82.5,0|2|2
320,280,25198,2,0,B|360:304|360:352,2,82.5,0|2|2
264,280,26101,2,0,B|248:336|176:344,2,110
264,280,27454,1,0
176,216,27905,6,0,B|192:160|264:152,1,110
312,56,28807,1,0
256,64,29033,1,0
200,56,29259,1,0
96,80,29710,5,4
168,160,30161,2,0,B|120:200|136:272,1,110
240,240,31063,1,0
312,160,31514,2,0,B|344:184|344:232,2,82.5,0|2|2
296,112,32416,2,0,B|312:72|368:72,2,82.5,0|2|2
256,144,33319,2,0,B|192:152|160:96,2,110
256,144,34672,5,0
216,248,35123,1,0
128,176,35574,1,0
128,176,35800,6,0,B|152:216|208:224|256:200|256:160|304:144|352:160|384:200,1,275,2|4
416,292,37379,5,0
416,292,37830,2,0,B|360:316|312:276,1,110
320,256,38507,2,0,B|224:308,1,110,2|2
180,344,39183,1,0
180,344,39634,1,0
180,344,40086,1,0
84,288,40537,5,4
136,192,40988,1,0
108,84,41439,2,0,B|80:68|52:72,2,55,0|2|0
112,104,42116,2,0,B|164:76|232:96,1,110,2|2
272,84,42792,1,0
272,84,43244,1,0
272,84,43695,1,0
348,164,44146,6,0,B|380:216|352:276,1,110,4|0
300,272,44822,2,0,B|268:224|296:152,1,110,2|2
348,164,45499,1,0
372,56,45950,1,0
264,36,46401,1,0
240,144,46853,1,0
348,164,47304,1,0
408,256,47755,6,0,B|344:244|296:288,1,110,4|0
312,296,48431,2,0,B|200:288,1,110,2|2
148,284,49108,1,0
148,284,49334,1,0
148,284,49559,1,4
256,192,49672,12,0,50913
96,296,51364,5,4
204,316,51815,2,0,B|260:336|316:296,1,110
320,308,52492,1,2
356,204,52943,2,0,B|300:184|244:224,1,110,2|2
256,232,53619,2,0,B|144:212,1,110
148,212,54296,1,2
148,212,54522,1,0
124,104,54973,6,0,B|232:123,1,110
244,112,55650,2,0,B|292:152|348:132,1,110,2|2
360,144,56326,1,0
468,140,56777,1,0
468,140,57003,2,0,B|424:184|444:248,1,110,0|0
428,260,57680,5,2
432,264,58131,1,2
436,268,58582,5,4
332,308,59033,2,0,B|224:300,1,110
208,312,59710,1,2
100,320,60161,2,0,B|84:208,1,110,2|2
64,196,60838,1,0
64,196,61063,1,2
64,196,61289,2,0,B|48:84,1,110
140,28,62191,6,0,B|176:72|155:136,1,110,0|0
140,144,62868,2,0,B|200:124|252:156,1,110,2|2
264,140,63544,2,0,B|320:168|376:136,1,110
460,200,64447,1,0
360,248,64898,1,0
360,248,65123,2,0,B|392:244|424:268,2,55
352,260,65800,5,4
256,320,66251,2,0,B|144:320,1,110
136,332,66928,2,0,B|120:224,1,110,2|2
108,212,67604,1,0
60,112,68056,1,0
168,120,68507,1,0
108,212,68958,1,0
168,120,69409,6,0,B|224:100|272:144,1,110
280,164,70086,2,0,B|302:56,1,110,2|2
302,56,70762,1,0
392,120,71213,1,0
392,120,71439,2,0,B|392:236,1,110,0|0
380,252,72116,5,2
384,256,72567,1,2
292,312,73018,6,0,B|180:324,2,110,4|0|0
384,256,74371,1,0
288,208,74822,2,0,B|176:220,2,110,4|0|0
380,152,76176,1,0
284,96,76627,6,0,B|172:108,1,110,4|0
184,84,77304,2,0,B|72:96,1,110,2|2
56,116,77980,1,0
56,116,78206,1,0
56,116,78431,1,4
216,268,79334,5,0
320,300,79785,1,0
296,192,80236,1,4
176,92,94672,6,0,B|66:95,1,110,4|0
124,187,95574,2,0,B|233:183,1,110
340,148,96477,2,0,B|356:188|332:236,2,82.5,0|2|2
300,112,97379,2,0,B|284:72|308:24,2,82.5,0|2|2
340,148,98281,2,0,B|356:204|328:256,3,110
416,324,100086,5,0
420,328,100537,1,0
312,300,100988,1,0
260,312,101213,1,0
208,324,101439,1,0
104,288,101890,6,0,B|96:180,1,110,4|0
184,112,102792,2,0,B|192:221,1,110
288,276,103695,2,0,B|328:296|372:280,2,82.5,0|2|2
240,304,104597,2,0,B|200:284|156:300,2,82.5,0|2|2
288,276,105499,2,0,B|336:304|404:276,2,110
228,184,106853,5,0
300,104,107304,1,0
376,184,107755,1,0
376,184,107980,6,0,B|352:224|300:232|256:208|256:168|200:152|152:168|128:200,1,275,2|4
64,288,109559,5,0
172,304,110010,2,0,B|220:340|276:316,1,110
280,336,110687,2,0,B|332:312|392:340,1,110,2|2
408,328,111364,1,0
392,220,111815,1,0
380,112,112266,1,0
280,64,112717,6,0,B|220:40|172:76,1,110,4|0
112,164,113619,2,0,B|172:188|220:152,1,110
232,136,114296,2,0,B|224:252,1,110,2|2
220,300,114973,1,0
328,316,115424,1,0
436,332,115875,1,0
392,232,116326,6,0,B|424:184|400:120,1,110,4|0
348,120,117003,2,0,B|316:172|340:232,1,110,2|2
392,232,117680,1,0
292,280,118131,1,0
340,380,118582,1,0
440,332,119033,1,0
392,232,119484,1,0
292,280,119935,6,0,B|180:292,1,110,4|0
168,304,120612,2,0,B|152:192,1,110,2|2
152,196,121289,1,0
152,196,121514,1,0
152,196,121740,1,4
256,192,121853,12,0,123093
152,196,123544,5,4
260,180,123995,2,0,B|296:124|272:68,1,110
256,64,124672,2,0,B|368:76,1,110,2|2
376,88,125349,1,0
436,180,125800,2,0,B|400:236|424:292,1,110
440,296,126477,2,0,B|328:284,1,110,2|2
304,252,127153,6,0,B|244:236|204:288,1,110
188,328,127830,2,0,B|124:336|84:284,1,110,2|2
56,292,128507,1,0
60,184,128958,1,0
64,188,129183,2,0,B|124:176|160:228,1,110,0|0
184,224,129860,5,2
188,228,130311,1,2
192,232,130762,6,0,B|304:224,1,110,4|0
412,232,131665,2,0,B|412:257|396:284,2,55,0|2|0
432,208,132341,2,0,B|396:156|420:96,1,110,2|2
400,80,133018,1,0
296,108,133469,2,0,B|272:92|240:96,2,55,0|2|0
340,208,134371,6,0,B|372:264|332:320,1,110,4|0
284,304,135048,2,0,B|220:276|176:332,1,110,2|2
136,352,135725,2,0,B|72:348|48:288,2,110
140,244,137078,1,0
144,248,137304,2,0,B|116:224|124:188,2,55
132,264,137980,6,0,B|244:272,1,110,4|0
352,268,138883,2,0,B|368:209|372:156,1,110
356,136,139559,2,0,B|284:148|248:92,1,110,2|2
232,104,140236,1,0
132,60,140687,2,0,B|96:60|76:80,2,55,0|2|0
104,164,141589,6,0,B|112:280,1,110
96,288,142266,2,0,B|212:304,1,110,2|2
220,316,142943,1,0
328,344,143394,1,0
328,344,143619,2,0,B|344:300|320:276|336:236,1,110
352,224,144296,5,2
356,228,144747,1,2
288,140,145198,6,0,B|300:32,2,110,4|0|0
196,200,146552,1,0
296,152,147003,2,0,B|308:44,2,110,4|0|0
204,212,148356,1,0
104,164,148807,6,0,B|91:273,1,110,4|0
76,284,149484,2,0,B|180:316,1,110,2|2
232,340,150161,1,0
232,340,150386,1,0
232,340,150612,1,4
288,128,151514,5,0
388,80,151965,1,0
376,188,152416,1,4
256,192,165048,5,4
256,192,165161,12,0,166401
268,324,166853,6,0,B|324:340|380:316,1,110,4|0
436,224,167755,2,0,B|376:208|328:232,1,110
304,248,168431,2,0,B|248:220|252:152,1,110,2|2
232,144,169108,1,0
132,100,169559,2,0,B|100:96|72:120,2,55,0|2|0
124,208,170462,6,0,B|132:328,1,110
120,336,171138,2,0,B|172:320|180:344|232:328,1,110,2|2
240,308,171815,2,0,B|280:352|340:344,2,110
320,232,173168,5,2
324,236,173619,1,2
404,160,174071,6,0,B|416:96|376:60,1,110,4|0
268,28,174973,2,0,B|256:88|304:128,1,110
276,144,175650,2,0,B|292:204|248:244,1,110,2|2
260,272,176326,1,0
152,288,176777,2,0,B|132:312|132:340,2,55,0|2|0
96,192,177680,6,0,B|56:144|80:80,1,110
64,36,178356,2,0,B|112:68|180:44,1,110,2|2
216,76,179033,2,0,B|264:40|324:60,2,110
288,160,180386,1,0
288,160,180612,2,0,B|320:160|336:184,2,55
272,148,181289,6,0,B|220:180|164:160,1,110,4|0
64,116,182191,1,0
76,224,182642,1,0
76,224,182868,2,0,B|112:272|92:332,1,110,2|2
104,344,183544,1,0
208,304,183995,1,0
316,320,184447,1,0
416,272,184898,6,0,B|420:160,1,110
468,136,185574,2,0,B|408:104|404:40,1,110,2|2
356,72,186251,2,0,B|292:44|248:80,1,110
200,52,186928,2,0,B|184:112|112:104,1,110
64,84,187604,5,2
68,88,188056,1,2
100,192,188507,6,0,B|84:300,2,110,4|0|0
192,252,189860,1,0
288,304,190311,2,0,B|304:195,2,110,4|0|0
396,255,191665,1,0
420,148,192116,6,0,B|356:144|332:92,1,110,4|0
336,76,192792,2,0,B|288:108|232:88,1,110,2|2
216,76,193469,2,0,B|184:68|164:92,2,55,0|0|4
148,284,194822,5,0
256,304,195274,1,0
364,324,195725,1,4
