osu file format v9

[General]
AudioFilename: 10 Romantic Night.mp3
AudioLeadIn: 3000
PreviewTime: 43908
Countdown: 1
SampleSet: Normal
StackLeniency: 0.4
Mode: 0
LetterboxInBreaks: 1

[Editor]
DistanceSpacing: 1
BeatDivisor: 4
GridSize: 4

[Metadata]
Title:Romantic Night
Artist:Ayakura Mei
Creator:IceBeam
Version:Beam-C
Source:Touhou
Tags:Reiji-RJ Reiji God That Misses People Romantic Fall Alstroemeria Records REDALiCE Shizuha Aki

[Difficulty]
HPDrainRate:2
CircleSize:4
OverallDifficulty:3
ApproachRate:4
SliderMultiplier:0.8
SliderTickRate:1

[Events]
//Background and Video events
0,0,"Konachan.com - 64509 aki_shizuha sky touhou.jpg"
//Break Periods
2,8256,21172
2,80436,93352
2,152616,163728
//Storyboard Layer 0 (Background)
//Storyboard Layer 1 (Fail)
//Storyboard Layer 2 (Pass)
//Storyboard Layer 3 (Foreground)
//Storyboard Sound Samples
//Background Colour Transformations
3,100,163,162,255

[TimingPoints]
838,451.127819548872,4,1,1,20,1,0
1063,-100,4,1,1,25,0,0
1514,-100,4,1,1,30,0,0
1965,-100,4,1,1,35,0,0
2416,-100,4,1,1,40,0,0
2868,-100,4,1,1,45,0,0
3319,-100,4,1,1,50,0,0
3770,-100,4,1,1,55,0,0
4221,-100,4,1,1,60,0,0
4672,-100,4,1,1,50,0,0
5123,-100,4,1,1,55,0,0
5574,-100,4,1,1,60,0,0
6025,-100,4,1,1,55,0,0
7830,-100,4,1,1,50,0,0
35687,-100,4,2,1,50,0,0
36138,-100,4,2,1,30,0,0
36589,-100,4,1,1,50,0,0
36928,-100,4,1,1,50,0,1
37041,-100,4,1,1,50,0,0
44597,-100,4,2,1,50,0,0
45048,-100,4,1,1,50,0,0
51364,-100,4,1,1,50,0,1
55424,-100,4,2,1,50,0,1
55875,-100,4,1,1,50,0,1
57454,-100,4,2,1,50,0,1
57905,-100,4,2,1,40,0,1
58356,-100,4,1,1,50,0,1
59935,-100,4,2,1,50,0,1
60725,-100,4,1,1,50,0,1
62642,-100,4,2,1,50,0,1
63093,-100,4,1,1,50,0,1
67153,-100,4,2,1,50,0,1
67943,-100,4,1,1,50,0,1
69860,-100,4,2,1,50,0,1
70311,-100,4,1,1,50,0,1
71890,-100,4,2,1,50,0,1
72341,-100,4,2,1,40,0,1
72792,-100,4,1,1,50,0,1
77078,-100,4,2,1,50,0,1
77529,-100,4,1,1,50,0,1
78431,-100,4,1,1,50,0,0
107755,-100,4,2,1,50,0,0
108319,-100,4,2,1,35,0,0
108883,-100,4,1,1,50,0,0
109108,-100,4,1,1,50,0,1
109221,-100,4,1,1,50,0,0
116777,-100,4,2,1,50,0,0
117228,-100,4,1,1,50,0,0
123544,-100,4,1,1,50,0,1
127604,-100,4,2,1,50,0,1
128056,-100,4,1,1,50,0,1
129634,-100,4,2,1,50,0,1
130086,-100,4,2,1,40,0,1
130537,-100,4,1,1,50,0,1
132116,-100,4,2,1,50,0,1
132905,-100,4,1,1,50,0,1
134822,-100,4,2,1,50,0,1
135274,-100,4,1,1,50,0,1
139334,-100,4,2,1,50,0,1
140123,-100,4,1,1,50,0,1
142041,-100,4,2,1,50,0,1
142492,-100,4,1,1,50,0,1
144071,-100,4,2,1,50,0,1
144522,-100,4,2,1,40,0,1
144973,-100,4,1,1,50,0,1
149259,-100,4,2,1,50,0,1
149710,-100,4,1,1,50,0,1
150612,-100,4,1,1,50,0,0
165274,-100,4,2,1,40,0,0
165725,-100,4,2,1,30,0,0
166176,-100,4,2,1,20,0,0
166853,-100,4,1,1,50,0,1
168206,-100,4,2,1,50,0,1
168995,-100,4,1,1,50,0,1
170913,-100,4,2,1,50,0,1
171364,-100,4,1,1,50,0,1
172943,-100,4,2,1,50,0,1
173394,-100,4,2,1,40,0,1
173845,-100,4,1,1,50,0,1
175424,-100,4,2,1,50,0,1
176213,-100,4,1,1,50,0,1
178131,-100,4,2,1,50,0,1
178582,-100,4,1,1,50,0,1
182642,-100,4,2,1,50,0,1
183431,-100,4,1,1,50,0,1
185346,-100,4,2,1,50,0,1
185800,-100,4,1,1,50,0,1
187379,-100,4,2,1,50,0,1
187830,-100,4,2,1,40,0,1
188281,-100,4,1,1,50,0,1
192567,-100,4,2,1,50,0,1
193018,-100,4,1,1,50,0,1
193920,-100,4,1,1,50,0,0
195725,-100,4,1,1,50,0,0

[Colours]
Combo1 : 191,41,199
Combo2 : 18,122,199
Combo3 : 104,53,172

[HitObjects]
204,176,838,2,0,B|188:136|204:92,1,80
272,136,1740,2,0,B|312:120|356:136,1,80
312,204,2642,2,0,B|328:244|312:288,1,80
244,244,3544,2,0,B|204:260|160:244,1,80
124,176,4447,6,0,B|164:160|208:176,1,80
272,136,5349,2,0,B|276:48,1,80
356,60,6251,5,4
256,192,6364,12,4,8056
56,72,22492,5,4
120,120,22943,2,0,B|80:200|132:280,1,160,0|0
204,296,24296,2,0,B|244:292|288:288,1,80,0|0
272,208,25198,2,0,B|232:212|188:216,1,80,0|0
112,224,26101,5,0
104,144,26552,2,0,B|188:136|268:128,1,160,0|0
340,108,27905,2,0,B|328:68|344:28,1,80,0|0
412,72,28807,2,0,B|424:112|408:152,1,80,0|0
408,232,29710,5,4
336,196,30161,2,0,B|276:180|256:196|236:212|168:192,1,160,0|0
100,176,31514,2,0,B|76:144|76:96,1,80
156,116,32416,2,0,B|140:80|144:32,1,80
224,32,33319,5,0
292,76,33770,2,0,B|336:144|440:108,1,160,0|0
460,184,35123,2,0,B|452:304,2,120,0|0|0
380,172,36928,6,0,B|336:164|292:168,1,80,4|0
220,160,37830,2,0,B|180:144|152:112,1,80,0|0
84,152,38732,2,0,B|96:236,1,80,0|0
108,312,39634,1,0
248,232,40537,6,0,B|308:240|328:240,1,80,0|0
400,204,41439,2,0,B|420:168|404:116,1,80,0|0
340,84,42341,2,0,B|320:120|336:172,1,80,0|0
328,240,43244,1,0
172,272,44146,6,0,B|124:276|116:292|108:308|60:316,2,120,4|2|0
244,236,45950,2,0,B|248:192|248:152,1,80,0|0
328,164,46853,2,0,B|328:199|324:243,1,80,0|0
404,252,47755,5,4
256,192,47868,12,4,49559
416,96,51364,6,0,B|412:180,1,80,4|0
408,256,52266,1,0
248,248,53168,2,0,B|252:164,1,80
256,88,54071,1,0
108,152,54973,6,0,B|76:100|92:32,2,120,0|2|0
176,192,56777,2,0,B|188:236|188:280,1,80
256,312,57680,1,2
260,316,58131,1,2
336,288,58582,6,0,B|404:292|432:292,1,80,4|0
456,224,59484,1,0
376,132,60161,2,0,B|364:96|372:48,1,80,2|2
360,40,60838,2,0,B|272:44,1,80
200,48,61740,1,0
120,60,62191,6,0,B|108:124|132:188,2,120,0|2|0
200,48,63995,1,0
276,68,64447,2,0,B|332:80|356:68|376:56|448:72,1,160
456,148,65800,6,0,B|452:192|444:232,1,80,4|0
432,304,66702,1,0
312,288,67379,2,0,B|268:280|228:292,1,80,2|2
220,276,68056,2,0,B|212:228|208:192,1,80
196,120,68958,1,0
176,44,69409,6,0,B|108:28|56:72,2,120,0|2|0
252,64,71213,2,0,B|292:72|336:64,1,80
408,48,72116,1,2
412,52,72567,1,2
472,108,73018,5,4
436,180,73469,2,0,B|464:264|412:336,1,160
336,320,74822,1,4
336,320,75274,2,0,B|256:312|172:304,1,160
144,232,76627,6,0,B|76:208|20:256,2,120,4|2|0
164,156,78431,1,4
320,188,79334,2,0,B|328:144|332:108,1,80
344,28,80236,5,4
428,72,94672,5,4
372,132,95123,2,0,B|336:220|404:296,1,160
332,332,96477,2,0,B|272:336|240:336,1,80
188,288,97379,2,0,B|180:248|184:204,1,80
180,128,98281,5,0
100,136,98732,2,0,B|100:220|108:304,1,160
188,288,100086,2,0,B|248:280|276:280,1,80
348,272,100988,2,0,B|372:240|364:188,1,80
396,124,101890,5,4
332,76,102341,2,0,B|284:56|256:76|256:76|228:56|176:76,1,160
100,88,103695,2,0,B|100:136|120:176,1,80
36,172,104597,2,0,B|44:224|68:260,1,80
136,276,105499,5,0
216,264,105950,2,0,B|296:216|376:280,1,160
424,216,107304,2,0,B|444:88,2,120
352,180,109108,6,0,B|364:120|368:92,2,80,4|0|0
272,168,110462,2,0,B|260:228|256:256,2,80
192,152,111815,1,0
44,208,112717,6,0,B|48:256|60:300,1,80
136,280,113619,1,0
124,200,114071,2,0,B|120:152|108:108,1,80
32,128,114973,2,0,B|36:176|48:220,1,80
204,232,116326,6,0,B|212:276|228:292|244:308|252:356,2,120,4|2|0
212,152,118131,2,0,B|220:112|212:64,1,80
292,72,119033,2,0,B|324:56|372:64,1,80
448,72,119935,5,4
256,192,120048,12,4,121740
88,32,123544,6,0,B|88:76|104:112,1,80,4|0
180,96,124447,2,0,B|232:100|256:76|256:76|280:100|336:96,1,160
408,108,125800,2,0,B|408:152|392:188,1,80
256,268,127153,6,0,B|204:228|132:264,2,120,0|2|0
316,320,128958,2,0,B|356:320|404:308,1,80
468,276,129860,1,2
472,280,130311,1,2
428,212,130762,6,0,B|424:168|428:128,1,80,4|0
428,52,131665,1,0
308,64,132341,2,0,B|264:56|224:76,1,80,2|2
224,84,133018,2,0,B|240:128|220:172,1,80
144,168,133920,1,0
64,176,134371,6,0,B|64:240|84:304,2,120,0|2|0
96,104,136176,1,0
176,100,136627,2,0,B|232:84|256:96|280:108|340:96,1,160
404,136,137980,6,0,B|400:192|396:224,1,80,4|0
388,296,138883,1,0
272,272,139559,2,0,B|232:288|192:280,1,80,2|2
176,268,140236,2,0,B|180:224|164:188,1,80
144,112,141138,1,0
68,140,141589,6,0,B|32:96|52:12,2,120,0|2|0
144,112,143394,2,0,B|188:108|228:92,1,80
292,64,144296,1,2
296,68,144747,1,2
364,112,145198,5,4
295,151,145650,2,0,B|296:198|256:218|216:238|216:284,1,160
256,352,147003,1,4
296,284,147454,2,0,B|296:238|256:218|216:198|216:150,1,160
152,100,148807,6,0,B|172:80|204:64|236:68|276:96,2,120,4|2|0
216,152,150612,1,4
60,192,151514,2,0,B|64:240|76:276,1,80
88,348,152416,5,4
40,152,165048,5,4
120,140,165499,2,0,B|112:56,2,80,2|2|2
172,200,166853,6,0,B|168:244|188:292,1,80,4|0
264,276,167755,1,0
372,220,168431,2,0,B|416:228|456:216,1,80,2|2
460,200,169108,2,0,B|456:160|460:116,1,80
456,40,170010,1,0
376,56,170462,6,0,B|328:52|312:64|296:76|252:72,2,120,0|2|0
456,40,172266,2,0,B|460:84|452:128,1,80
464,200,173168,1,2
468,204,173619,1,2
396,240,174071,6,0,B|352:244|308:252,1,80,4|0
236,264,174973,1,0
124,220,175650,2,0,B|112:180|116:136,1,80,2|2
124,128,176326,2,0,B|212:132,1,80
284,136,177228,1,0
364,140,177680,6,0,B|372:88|372:16,2,120,0|2|0
376,220,179484,1,0
332,288,179935,2,0,B|280:284|256:308|256:308|232:284|176:288,1,160
136,220,181289,6,0,B|128:180|128:136,1,80,4|0
124,60,182191,1,0
244,76,182868,2,0,B|284:88|328:72,1,80,2|2
332,84,183544,2,0,B|328:132|344:164,1,80
360,240,184447,1,0
440,228,184898,6,0,B|472:284|456:352,2,120,0|2|0
360,240,186702,2,0,B|320:248|272:244,1,80
208,212,187604,1,2
212,216,188056,1,2
132,244,188507,5,4
64,204,188958,2,0,B|32:124|88:52,1,160
164,32,190311,1,4
232,76,190762,2,0,B|264:156|208:228,1,160
132,244,192116,6,0,B|96:296|104:360,2,120,4|2|0
208,224,193920,1,4
364,256,194822,2,0,B|372:208|376:176,1,80
388,96,195725,5,4
