osu file format v14

[General]
AudioFilename: Touhou (Drum'n'Bass) Romantic Fall.mp3
AudioLeadIn: 0
PreviewTime: 66170
Countdown: 0
SampleSet: Soft
StackLeniency: 0.7
Mode: 0
LetterboxInBreaks: 1
WidescreenStoryboard: 0

[Editor]
Bookmarks: 11656,66170,121370,192685,197827,219770,263999,329827,351770
DistanceSpacing: 0.8
BeatDivisor: 4
GridSize: 8
TimelineZoom: 1.6

[Metadata]
Title:Romantic Fall
TitleUnicode:Romantic Fall
Artist:Ayakura Mei
ArtistUnicode:Ayakura Mei
Creator:Cuenquero
Version:Lunatic
Source:Touhou
Tags:Drum'n'Bass Touhou Ayakura Mei
BeatmapID:726556
BeatmapSetID:327362

[Difficulty]
HPDrainRate:8
CircleSize:4
OverallDifficulty:8
ApproachRate:9
SliderMultiplier:1.6
SliderTickRate:1

[Events]
//Background and Video events
0,0,"Touhou.full.841781.jpg",0,0
//Break Periods
2,109570,120770
2,214827,219170
//Storyboard Layer 0 (Background)
//Storyboard Layer 1 (Fail)
//Storyboard Layer 2 (Pass)
//Storyboard Layer 3 (Foreground)
//Storyboard Sound Samples

[TimingPoints]
685,342.857142857143,4,2,0,100,1,0
685,-100,4,2,0,50,0,0
20399,-100,4,2,0,5,0,0
22542,-100,4,2,0,80,0,1
38913,-66.6666666666667,4,2,0,80,0,1
40113,-100,4,2,0,80,0,1
44742,-100,4,2,0,80,0,0
70970,-200,4,2,0,80,0,0
72856,-133.333333333333,4,2,0,80,0,0
81770,-133.333333333333,4,2,0,40,0,0
82542,-100,4,2,0,80,0,0
92313,-133.333333333333,4,2,0,80,0,0
92999,-100,4,2,0,35,0,0
93599,-100,4,2,0,80,0,0
131570,-100,4,2,0,40,0,0
132256,-100,4,2,0,80,0,0
137827,-133.333333333333,4,2,0,80,0,0
140913,-100,4,2,0,80,0,0
170570,-133.333333333333,4,2,0,80,0,0
184370,-100,4,2,0,80,0,0
191142,-200,4,2,0,80,0,0
198170,-100,4,2,0,80,0,0
245827,-200,4,2,0,80,0,0
263999,-100,4,2,0,80,0,1

[Colours]
Combo1 : 255,255,100
Combo2 : 255,163,70
Combo3 : 255,53,53

[HitObjects]
96,80,685,5,0,0:0:0:0:
184,232,856,1,0,0:0:0:0:
256,80,1027,1,0,0:0:0:0:
184,232,1199,1,0,0:0:0:0:
96,80,1370,1,0,0:0:0:0:
256,80,1542,1,0,0:0:0:0:
368,80,1713,2,0,L|464:80,1,80
456,160,2056,2,0,L|456:240,1,80
344,288,2399,2,0,L|344:192,1,80
216,160,2742,5,0,0:0:0:0:
64,160,2913,1,0,0:0:0:0:
216,160,3085,1,0,0:0:0:0:
64,160,3256,1,0,0:0:0:0:
144,80,3427,2,0,P|184:64|232:56,1,80
320,104,3770,1,0,0:0:0:0:
464,176,3942,1,0,0:0:0:0:
224,216,4113,1,0,0:0:0:0:
368,296,4285,1,0,0:0:0:0:
376,128,4456,5,0,0:0:0:0:
248,56,4627,1,0,0:0:0:0:
168,168,4799,1,0,0:0:0:0:
296,256,4970,1,0,0:0:0:0:
416,224,5142,1,0,0:0:0:0:
392,328,5313,1,0,0:0:0:0:
328,152,5485,1,0,0:0:0:0:
328,64,5656,1,0,0:0:0:0:
424,64,5827,2,0,P|456:120|464:144,1,80
461,134,6170,1,0,0:0:0:0:
384,192,6342,5,0,0:0:0:0:
328,272,6513,1,0,0:0:0:0:
272,184,6685,1,0,0:0:0:0:
216,264,6856,1,0,0:0:0:0:
136,200,7027,1,0,0:0:0:0:
120,288,7199,1,0,0:0:0:0:
40,232,7370,1,0,0:0:0:0:
80,136,7542,1,0,0:0:0:0:
112,48,7713,1,0,0:0:0:0:
240,64,7885,5,0,0:0:0:0:
384,136,8056,1,0,0:0:0:0:
272,168,8227,1,0,0:0:0:0:
352,40,8399,1,0,0:0:0:0:
448,64,8570,1,0,0:0:0:0:
488,176,8742,1,0,0:0:0:0:
432,280,8913,1,0,0:0:0:0:
352,176,9085,1,0,0:0:0:0:
192,248,9256,1,0,0:0:0:0:
88,176,9427,6,0,L|88:80,1,80
176,64,9770,1,0,0:0:0:0:
296,152,9942,1,0,0:0:0:0:
256,40,10113,1,0,0:0:0:0:
224,176,10285,1,0,0:0:0:0:
336,56,10456,1,0,0:0:0:0:
152,144,10627,1,0,0:0:0:0:
376,128,10799,1,0,0:0:0:0:
192,56,10970,1,0,0:0:0:0:
72,152,11142,5,0,0:0:0:0:
136,224,11313,1,0,0:0:0:0:
216,176,11485,1,0,0:0:0:0:
328,168,11656,2,0,P|416:184|464:256,1,160
392,320,12170,1,0,0:0:0:0:
272,320,12342,1,0,0:0:0:0:
144,320,12513,1,0,0:0:0:0:
24,320,12685,2,0,P|40:256|144:200,2,160
64,336,13542,2,0,P|160:352|216:328,2,160
40,240,14399,5,0,0:0:0:0:
40,240,14570,1,0,0:0:0:0:
40,240,14742,2,0,P|128:208|216:208,1,160
336,192,15256,1,0,0:0:0:0:
440,112,15427,2,0,L|280:64,1,160
120,120,15942,2,0,P|88:168|80:192,1,80
64,264,16285,2,0,P|80:312|104:352,1,80
176,352,16627,1,0,0:0:0:0:
256,320,16799,1,0,0:0:0:0:
376,224,16970,5,0,0:0:0:0:
200,128,17142,2,0,P|304:80|352:80,2,160
200,128,17999,1,0,0:0:0:0:
128,208,18170,2,0,L|128:312,1,80
128,288,18513,1,0,0:0:0:0:
288,288,18685,1,0,0:0:0:0:
456,288,18856,2,0,L|456:176,1,80
456,88,19199,1,0,0:0:0:0:
336,88,19370,1,0,0:0:0:0:
168,96,19542,6,0,B|120:144|80:160|80:160|80:240,1,160
104,280,20056,1,0,0:0:0:0:
160,328,20227,1,0,0:0:0:0:
256,192,20399,12,0,22456,0:0:0:0:
120,80,22627,6,0,L|280:80,1,160
376,96,23142,1,0,0:0:0:0:
448,152,23313,1,0,0:0:0:0:
384,248,23485,2,0,L|216:248,1,160
104,272,23999,1,0,0:0:0:0:
176,336,24170,1,0,0:0:0:0:
296,328,24342,2,0,L|400:328,1,80
456,248,24685,1,0,0:0:0:0:
384,208,24856,2,0,L|288:208,2,80
448,128,25370,6,0,P|400:80|304:72,1,160
192,80,25885,1,0,0:0:0:0:
64,176,26056,1,0,0:0:0:0:
184,288,26227,1,0,0:0:0:0:
184,288,26399,2,0,L|272:288,1,80
368,232,26742,2,0,L|424:168,1,80
408,136,27085,1,0,0:0:0:0:
384,104,27256,2,0,L|296:64,1,80
272,88,27599,1,0,0:0:0:0:
272,88,27770,2,0,P|216:56|112:48,1,160
80,152,28456,6,0,L|80:240,1,80
80,232,28799,1,0,0:0:0:0:
144,296,28970,1,0,0:0:0:0:
240,312,29142,2,0,L|320:312,2,80
240,312,29656,1,0,0:0:0:0:
216,216,29827,2,0,P|280:192|400:160,2,160
48,232,30856,2,0,P|80:280|176:320,1,160
272,272,31370,1,0,0:0:0:0:
272,272,31542,2,0,L|272:192,1,80
104,72,31885,6,0,L|64:152,1,80
64,216,32227,1,0,0:0:0:0:
184,216,32399,1,0,0:0:0:0:
64,216,32570,1,0,0:0:0:0:
64,304,32742,2,0,P|120:328|240:336,2,160
48,280,33513,1,0,0:0:0:0:
32,240,33599,2,0,P|24:192|32:160,1,80
64,80,33942,6,0,L|160:80,1,80
248,80,34285,1,0,0:0:0:0:
224,168,34456,2,0,L|128:168,1,80
128,288,34799,2,0,P|224:312|288:304,1,160
320,280,35313,2,0,P|376:272|416:288,2,80
320,280,35827,1,0,0:0:0:0:
240,320,35999,1,0,0:0:0:0:
184,264,36170,1,0,0:0:0:0:
152,192,36342,2,0,P|152:136|176:88,1,80
408,96,36685,6,0,P|448:144|456:192,1,80
400,264,37027,2,0,L|304:264,1,80
248,200,37370,1,0,0:0:0:0:
176,88,37542,2,0,L|280:88,1,80
352,160,37885,1,0,0:0:0:0:
352,160,38056,1,0,0:0:0:0:
352,248,38227,2,0,P|320:296|280:304,1,80
248,240,38570,1,0,0:0:0:0:
312,176,38742,1,0,0:0:0:0:
160,112,38913,6,0,P|128:184|144:272,1,120.000004577637
160,272,39256,1,0,0:0:0:0:
240,320,39427,2,0,L|368:320,1,120.000004577637
440,240,39770,1,0,0:0:0:0:
440,128,39942,1,0,0:0:0:0:
312,64,40113,2,0,P|208:80|168:128,2,160
384,136,40970,1,0,0:0:0:0:
448,224,41142,1,0,0:0:0:0:
344,216,41313,1,0,0:0:0:0:
232,88,41485,6,0,L|64:88,1,160
72,200,41999,1,0,0:0:0:0:
264,280,42170,1,0,0:0:0:0:
128,320,42342,1,0,0:0:0:0:
152,144,42513,1,0,0:0:0:0:
328,216,42685,2,0,P|384:256|424:248,1,80
408,80,43027,2,0,P|360:104|336:144,1,80
440,216,43370,2,0,P|432:280|408:320,1,80
304,320,43713,2,0,L|216:320,2,80
160,256,44227,5,0,0:0:0:0:
96,160,44399,1,0,0:0:0:0:
114,124,44484,1,0,0:0:0:0:
146,101,44570,1,0,0:0:0:0:
312,56,44913,2,0,L|416:56,1,80
416,152,45256,2,0,L|328:152,2,80
264,208,45770,1,0,0:0:0:0:
264,208,45942,1,0,0:0:0:0:
352,256,46113,2,0,L|432:296,1,80
240,320,46456,6,0,L|176:272,2,80
240,320,46970,1,0,0:0:0:0:
344,216,47142,2,0,L|408:144,1,80
264,56,47656,2,0,P|200:72|176:88,1,80
160,176,47999,1,0,0:0:0:0:
208,288,48170,1,0,0:0:0:0:
120,320,48342,2,0,L|56:232,1,80
64,160,48685,2,0,L|64:80,1,80
88,48,49027,1,0,0:0:0:0:
240,96,49199,6,0,P|304:128|320:168,1,80
248,192,49542,2,0,P|272:224|336:240,1,80
368,168,49885,2,0,P|408:208|440:256,2,80
384,304,50399,1,0,0:0:0:0:
384,304,50570,2,0,L|304:296,1,80
192,216,50913,1,0,0:0:0:0:
288,192,51085,2,0,P|304:240|304:288,2,80
216,136,51599,1,0,0:0:0:0:
144,56,51770,1,0,0:0:0:0:
296,56,51942,6,0,P|344:80|368:120,1,80
216,56,52285,2,0,P|176:88|152:120,2,80
296,56,52799,1,0,0:0:0:0:
200,280,53142,2,0,P|144:280|96:256,1,80
48,192,53485,1,0,0:0:0:0:
48,104,53656,2,0,L|48:24,1,80
160,64,53999,2,0,L|160:160,1,80
288,112,54342,2,0,L|288:32,2,80
352,176,54856,1,0,0:0:0:0:
416,224,55027,6,0,P|440:264|456:312,2,80
416,224,55456,1,0,0:0:0:0:
416,224,55542,1,0,0:0:0:0:
240,312,55885,1,0,0:0:0:0:
128,304,56056,2,0,P|88:256|72:216,1,80
64,152,56399,1,0,0:0:0:0:
176,64,56570,2,0,L|176:144|176:168,1,80
176,224,56913,1,0,0:0:0:0:
176,224,57085,1,0,0:0:0:0:
232,48,57256,5,0,0:0:0:0:
424,88,57427,1,0,0:0:0:0:
304,136,57599,1,0,0:0:0:0:
328,216,57770,2,0,L|392:296,2,80
312,128,58285,1,0,0:0:0:0:
432,264,58627,2,0,L|320:304,1,80
320,280,58970,2,0,P|272:272|232:280,1,80
168,328,59313,1,0,0:0:0:0:
80,272,59485,1,0,0:0:0:0:
96,128,59656,6,0,P|144:144|168:176,2,80
32,56,60170,2,0,L|144:48,2,80
16,104,60685,1,0,0:0:0:0:
128,208,61027,1,0,0:0:0:0:
216,72,61370,2,0,L|312:72,1,80
400,72,61713,2,0,P|448:88|464:136,2,80
320,72,62227,1,0,0:0:0:0:
224,120,62399,1,0,0:0:0:0:
192,208,62570,1,0,0:0:0:0:
320,152,62742,2,0,P|392:184|336:248,2,160
256,224,63770,5,0,0:0:0:0:
136,320,64113,2,0,P|104:288|88:248,1,80
88,168,64456,1,0,0:0:0:0:
176,208,64627,2,0,P|176:256|144:288,2,80
160,128,65142,1,0,0:0:0:0:
224,64,65313,2,0,P|288:128|288:144,1,80
288,200,65656,1,0,0:0:0:0:
400,256,65827,2,0,P|352:320|272:328,1,160
64,72,66342,5,0,0:0:0:0:
64,72,66427,1,0,0:0:0:0:
64,72,66513,2,0,P|48:144|88:224,1,160
120,256,67027,1,0,0:0:0:0:
120,256,67199,1,0,0:0:0:0:
320,296,67370,2,0,P|376:264|408:232,1,80
448,176,67713,1,0,0:0:0:0:
392,112,67885,2,0,P|344:104|304:112,2,80
432,256,68399,1,0,0:0:0:0:
352,88,68570,5,0,0:0:0:0:
352,88,68742,2,0,P|280:64|248:80,2,80
384,208,69256,1,0,0:0:0:0:
320,312,69427,1,0,0:0:0:0:
192,312,69599,2,0,P|120:288|96:272,1,80
56,232,69942,2,0,P|32:168|40:128,2,80
136,184,70456,1,0,0:0:0:0:
48,72,70627,1,0,0:0:0:0:
24,192,70799,1,0,0:0:0:0:
112,280,70970,6,0,P|152:312|224:320,1,120
328,256,71656,1,0,0:0:0:0:
440,144,71827,1,0,0:0:0:0:
368,72,71999,2,0,P|328:56|288:56,1,80
200,120,72513,2,0,P|248:152|272:160,1,80
268,159,73027,1,0,0:0:0:0:
416,240,73199,1,0,0:0:0:0:
400,272,73370,2,0,B|368:304|320:304|288:336,1,120.000004577637
264,336,73885,1,0,0:0:0:0:
104,232,74056,5,0,0:0:0:0:
104,232,74227,2,0,P|80:184|64:160,1,60.0000022888184
64,144,74570,1,0,0:0:0:0:
144,64,74742,2,0,P|184:48|224:40,1,60.0000022888184
240,56,75085,2,0,L|304:96,2,60.0000022888184
192,64,75599,1,0,0:0:0:0:
152,96,75770,1,0,0:0:0:0:
128,136,75942,2,0,B|96:192|96:192|168:288,2,180.000006866455
264,88,77142,6,0,P|304:64|344:64,2,60.0000022888184
256,168,77656,1,0,0:0:0:0:
416,232,77827,1,0,0:0:0:0:
280,296,77999,2,0,B|248:320|208:296|160:336,1,120.000004577637
96,264,78513,1,0,0:0:0:0:
40,104,78685,1,0,0:0:0:0:
208,144,78856,2,0,B|224:96|256:80|248:32,2,120.000004577637
232,248,79885,6,0,P|312:216|368:224,1,120.000004577637
416,296,80399,1,0,0:0:0:0:
488,192,80570,1,0,0:0:0:0:
400,184,80742,1,0,0:0:0:0:
448,120,80913,2,0,L|392:80,1,60.0000022888184
368,72,81256,2,0,P|336:64|256:104,1,120.000004577637
232,184,81770,1,0,0:0:0:0:
144,160,81942,2,0,P|120:200|128:232,1,60.0000022888184
216,272,82285,2,0,P|256:248|288:248,1,60.0000022888184
456,112,82627,5,0,0:0:0:0:
344,56,82799,1,0,0:0:0:0:
264,128,82970,2,0,B|216:152|176:128|96:192,1,160
96,272,83485,2,0,B|144:264|176:288|264:256,2,160
96,272,84342,1,0,0:0:0:0:
56,168,84513,2,0,P|80:136|112:112,1,80
176,152,84856,1,0,0:0:0:0:
280,88,85027,1,0,0:0:0:0:
280,192,85199,1,0,0:0:0:0:
320,200,85370,6,0,P|400:160|488:168,1,160
448,280,85885,1,0,0:0:0:0:
320,328,86056,1,0,0:0:0:0:
200,288,86227,2,0,B|168:240|176:200|112:144,1,160
168,72,86742,1,0,0:0:0:0:
272,112,86913,2,0,L|320:136,1,40
336,144,87085,1,0,0:0:0:0:
424,104,87256,1,0,0:0:0:0:
424,104,87427,2,0,P|472:168|488:256,1,160
488,245,87942,1,0,0:0:0:0:
384,304,88113,6,0,P|344:336|312:336,1,80
264,256,88456,1,0,0:0:0:0:
208,176,88627,2,0,P|160:160|120:168,2,80
208,176,89142,1,0,0:0:0:0:
296,176,89313,1,0,0:0:0:0:
96,72,89485,2,0,P|64:112|64:144,1,80
88,168,89827,1,0,0:0:0:0:
112,200,89999,2,0,P|136:232|144:272,2,80
88,168,90513,2,0,P|64:112|64:64,1,80
264,64,90856,6,0,P|304:88|336:120,1,80
264,192,91199,1,0,0:0:0:0:
344,264,91370,2,0,P|280:304|248:304,1,80
136,280,91713,1,0,0:0:0:0:
136,280,91885,1,0,0:0:0:0:
88,208,92056,2,0,P|72:168|80:128,1,80
104,104,92399,2,0,B|136:48|192:104|256:32|280:16,1,180.000006866455
328,64,93085,1,0,0:0:0:0:
424,112,93256,1,0,0:0:0:0:
336,152,93427,1,0,0:0:0:0:
72,200,93599,6,0,B|136:256|184:232|176:240,1,80
176,216,93942,1,0,0:0:0:0:
232,80,94113,1,0,0:0:0:0:
272,64,94285,2,0,P|328:48|384:64,1,80
368,176,94627,2,0,P|344:216|336:256,2,80
368,176,95142,1,0,0:0:0:0:
352,80,95313,2,0,B|312:56|264:96|192:48,1,160
96,96,95827,1,0,0:0:0:0:
168,184,95999,2,0,B|232:176|240:216|272:216,2,80
168,256,96513,1,0,0:0:0:0:
424,312,96685,5,0,0:0:0:0:
344,312,96856,2,0,L|248:312,1,80
184,312,97199,1,0,0:0:0:0:
424,312,97370,1,0,0:0:0:0:
184,312,97542,1,0,0:0:0:0:
312,312,97713,2,0,B|296:272|328:248|296:200|312:136,2,160
240,344,98570,1,0,0:0:0:0:
152,312,98742,1,0,0:0:0:0:
88,240,98913,1,0,0:0:0:0:
152,64,99085,6,0,B|192:40|208:72|256:40|312:96,1,160
385,158,99599,2,0,P|416:200|432:240,1,80
428,225,99942,1,0,0:0:0:0:
432,312,100113,2,0,L|336:312,1,80
88,240,100456,1,0,0:0:0:0:
88,240,100627,2,0,P|96:184|112:152,2,80
128,280,101142,2,0,B|176:256|192:296|296:240,1,160
320,176,101656,1,0,0:0:0:0:
448,96,101827,6,0,P|400:72|352:64,1,80
272,56,102170,1,0,0:0:0:0:
160,72,102342,2,0,P|96:72|56:88,2,80
192,96,102856,1,0,0:0:0:0:
288,160,103027,2,0,P|352:144|448:176,2,160
224,216,103885,1,0,0:0:0:0:
144,272,104056,1,0,0:0:0:0:
56,272,104227,1,0,0:0:0:0:
24,184,104399,1,0,0:0:0:0:
400,56,104570,6,0,P|416:104|416:160,1,80
408,208,104913,1,0,0:0:0:0:
320,72,105085,1,0,0:0:0:0:
224,88,105256,2,0,B|184:120|136:96|80:88|72:136,1,160
88,216,105770,2,0,L|136:280,1,80
168,296,106113,1,0,0:0:0:0:
232,208,106285,1,0,0:0:0:0:
304,304,106456,1,0,0:0:0:0:
400,216,106627,1,0,0:0:0:0:
432,112,106799,6,0,B|368:80|336:120|256:64,1,160
248,88,107313,1,0,0:0:0:0:
128,152,107485,1,0,0:0:0:0:
128,152,107656,2,0,L|128:240,1,80
160,264,107999,1,0,0:0:0:0:
256,192,108170,12,0,109370,0:0:0:0:
120,56,121370,5,0,0:0:0:0:
392,304,121713,1,0,0:0:0:0:
216,40,122056,1,0,0:0:0:0:
296,336,122399,1,0,0:0:0:0:
336,48,122742,1,0,0:0:0:0:
192,312,123085,1,0,0:0:0:0:
432,80,123427,1,0,0:0:0:0:
128,240,123770,1,0,0:0:0:0:
480,184,124113,1,0,0:0:0:0:
160,128,124456,5,0,0:0:0:0:
248,48,124799,1,0,0:0:0:0:
352,128,125142,1,0,0:0:0:0:
360,264,125485,1,0,0:0:0:0:
248,336,125827,1,0,0:0:0:0:
176,240,126170,1,0,0:0:0:0:
272,128,126513,1,0,0:0:0:0:
144,80,126856,1,0,0:0:0:0:
104,152,127027,1,0,0:0:0:0:
136,224,127199,5,0,0:0:0:0:
192,280,127370,1,0,0:0:0:0:
264,248,127542,1,0,0:0:0:0:
320,192,127713,1,0,0:0:0:0:
384,144,127885,1,0,0:0:0:0:
456,152,128056,1,0,0:0:0:0:
496,216,128227,1,0,0:0:0:0:
480,288,128399,1,0,0:0:0:0:
440,344,128570,1,0,0:0:0:0:
368,336,128742,5,0,0:0:0:0:
320,280,128913,1,0,0:0:0:0:
272,224,129085,1,0,0:0:0:0:
208,184,129256,1,0,0:0:0:0:
136,160,129427,1,0,0:0:0:0:
64,144,129599,1,0,0:0:0:0:
32,80,129770,1,0,0:0:0:0:
80,24,129942,1,0,0:0:0:0:
152,40,130113,1,0,0:0:0:0:
224,64,130285,5,0,0:0:0:0:
288,32,130456,1,0,0:0:0:0:
336,88,130627,1,0,0:0:0:0:
304,152,130799,1,0,0:0:0:0:
272,216,130970,1,0,0:0:0:0:
280,288,131142,1,0,0:0:0:0:
336,336,131313,1,0,0:0:0:0:
392,288,131485,1,0,0:0:0:0:
360,224,131656,2,0,L|336:184,6,40
160,80,132342,6,0,P|112:136|104:224,1,160
208,304,132856,1,0,0:0:0:0:
328,200,133027,1,0,0:0:0:0:
200,120,133199,2,0,P|144:152|136:176,2,80
432,208,133713,2,0,P|456:256|464:288,2,80
336,80,134227,1,0,0:0:0:0:
224,144,134399,1,0,0:0:0:0:
280,248,134570,2,0,P|232:288|192:296,2,80
160,64,135085,5,0,0:0:0:0:
96,128,135256,2,0,P|80:192|88:232,1,80
176,256,135599,2,0,P|208:208|208:168,2,80
144,344,136113,1,0,0:0:0:0:
256,336,136285,1,0,0:0:0:0:
240,136,136456,1,0,0:0:0:0:
384,240,136627,1,0,0:0:0:0:
400,80,136799,2,0,L|312:72,1,80
128,80,137142,5,0,0:0:0:0:
128,80,137313,2,0,L|128:168,1,80
200,216,137656,1,0,0:0:0:0:
328,240,137827,2,0,P|408:176|432:104,1,180.000006866455
424,304,138513,2,0,P|400:248|384:232,1,60.0000022888184
368,224,138856,2,0,L|184:224,1,180.000006866455
80,112,139542,5,0,0:0:0:0:
224,80,139713,2,0,L|296:80,2,60.0000022888184
184,96,140227,1,0,0:0:0:0:
248,184,140399,2,0,P|280:264|368:320,1,180.000006866455
408,80,141085,2,0,L|360:144,1,80
272,96,141427,2,0,L|328:32,2,80
88,184,141942,2,0,P|88:224|120:256,2,80
136,112,142456,1,0,0:0:0:0:
224,160,142627,2,0,L|312:200,2,80
280,56,143142,5,0,0:0:0:0:
318,63,143227,1,0,0:0:0:0:
351,86,143313,1,0,0:0:0:0:
384,200,143485,2,0,P|384:264|360:304,1,80
264,312,143827,2,0,L|176:312,2,80
368,312,144342,2,0,P|424:304|448:280,1,80
216,88,144685,2,0,P|152:64|128:64,1,80
96,80,145027,1,0,0:0:0:0:
72,120,145199,2,0,P|72:160|96:192,1,80
256,304,145542,5,0,0:0:0:0:
376,224,145713,1,0,0:0:0:0:
272,192,145885,1,0,0:0:0:0:
160,128,146056,2,0,P|120:168|88:272,1,160
208,312,146570,2,0,P|272:320|320:304,1,80
328,136,146913,2,0,P|376:168|456:256,1,160
440,272,147427,1,0,0:0:0:0:
336,320,147599,2,0,P|280:304|240:288,2,80
416,120,148113,5,0,0:0:0:0:
280,128,148285,2,0,B|176:144|176:144|136:208,1,160
146,190,148799,1,0,0:0:0:0:
272,296,149142,1,0,0:0:0:0:
408,216,149485,2,0,P|360:176|320:176,1,80
336,248,149827,2,0,P|280:216|272:168,1,80
144,96,150170,1,0,0:0:0:0:
456,184,150342,1,0,0:0:0:0:
328,88,150513,1,0,0:0:0:0:
416,320,150856,6,0,L|248:320,1,160
64,192,151370,2,0,P|80:128|168:48,1,160
142,60,151885,1,0,0:0:0:0:
288,104,152056,2,0,P|336:128|368:176,1,80
280,192,152399,2,0,P|320:224|384:232,1,80
360,152,152742,1,0,0:0:0:0:
208,56,152913,1,0,0:0:0:0:
336,256,153085,1,0,0:0:0:0:
112,192,153256,2,0,P|128:240|152:280,1,80
336,64,153599,6,0,P|392:80|416:120,1,80
424,176,153942,2,0,P|448:208|480:232,1,80
479,231,154199,1,0,0:0:0:0:
479,231,154285,1,0,0:0:0:0:
424,296,154456,1,0,0:0:0:0:
280,304,154627,2,0,P|208:288|176:272,1,80
112,248,154970,2,0,P|72:216|56:168,1,80
59,190,155313,1,0,0:0:0:0:
104,112,155485,1,0,0:0:0:0:
192,72,155656,5,0,0:0:0:0:
336,192,155827,1,0,0:0:0:0:
288,64,155999,2,0,L|456:64,2,160
288,64,156856,1,0,0:0:0:0:
136,120,157027,2,0,P|160:168|208:208,1,80
336,272,157370,2,0,P|288:320|256:328,1,80
256,304,157713,1,0,0:0:0:0:
224,288,157885,2,0,P|176:272|136:272,1,80
96,200,158227,1,0,0:0:0:0:
120,48,158399,5,0,0:0:0:0:
368,176,158570,1,0,0:0:0:0:
104,144,158742,1,0,0:0:0:0:
144,296,158913,1,0,0:0:0:0:
144,296,159085,2,0,L|232:296,1,80
304,232,159427,2,0,P|392:248|440:304,2,160
240,160,160285,1,0,0:0:0:0:
240,72,160456,2,0,P|296:64|320:80,1,80
314,74,160799,2,0,P|338:114|378:130,1,80
366,128,161142,1,0,0:0:0:0:
416,320,161313,5,0,0:0:0:0:
248,176,161485,1,0,0:0:0:0:
280,328,161656,2,0,P|200:336|112:304,1,160
208,248,162170,1,0,0:0:0:0:
112,152,162342,1,0,0:0:0:0:
32,240,162513,2,0,P|64:288|168:344,1,160
432,184,163027,2,0,P|384:136|352:128,1,80
280,168,163370,1,0,0:0:0:0:
368,296,163542,2,0,P|304:280|280:248,2,80
368,184,164056,5,0,0:0:0:0:
320,64,164227,1,0,0:0:0:0:
192,64,164399,1,0,0:0:0:0:
256,184,164570,1,0,0:0:0:0:
280,312,164742,2,0,P|224:296|200:272,1,80
128,216,165085,1,0,0:0:0:0:
128,216,165170,1,0,0:0:0:0:
128,216,165256,1,0,0:0:0:0:
72,112,165427,5,0,0:0:0:0:
72,112,165599,2,0,P|128:80|232:72,1,160
312,112,166113,1,0,0:0:0:0:
440,176,166285,1,0,0:0:0:0:
432,48,166456,1,0,0:0:0:0:
240,64,166627,2,0,P|200:88|184:128,2,80
368,168,167142,2,0,P|352:232|264:184,1,160
136,72,167656,1,0,0:0:0:0:
136,72,167827,2,0,B|88:144|160:176|64:232,1,160
208,256,168342,6,0,P|264:248|296:224,1,80
336,160,168685,1,0,0:0:0:0:
440,176,168856,2,0,P|472:224|480:256,2,80
424,144,169370,1,0,0:0:0:0:
352,72,169542,2,0,B|304:104|256:48|168:120,1,160
72,176,170056,1,0,0:0:0:0:
344,280,170227,1,0,0:0:0:0:
152,296,170399,1,0,0:0:0:0:
184,128,170570,2,0,B|248:96|264:160|360:64,1,180.000006866455
392,152,171427,6,0,P|424:192|432:224,1,60.0000022888184
424,232,171770,1,0,0:0:0:0:
424,272,171942,2,0,P|448:312|472:328,2,60.0000022888184
320,288,172456,1,0,0:0:0:0:
192,288,172627,1,0,0:0:0:0:
304,192,172799,2,0,B|248:232|216:184|176:216,1,120.000004577637
104,96,173313,2,0,B|144:64|184:128|272:32,1,180.000006866455
360,120,173999,2,0,P|400:176|400:232,1,120.000004577637
392,248,174513,1,0,0:0:0:0:
392,248,174685,1,0,0:0:0:0:
192,64,174856,5,0,0:0:0:0:
288,224,175027,1,0,0:0:0:0:
104,192,175199,1,0,0:0:0:0:
56,304,175370,2,0,P|112:320|176:328,1,120.000004577637
240,264,175885,1,0,0:0:0:0:
120,144,176056,1,0,0:0:0:0:
120,144,176142,1,0,0:0:0:0:
120,144,176227,2,0,B|192:96|272:104|336:64|432:208,1,360.000013732911
432,288,177599,6,0,B|440:176|416:144|416:144|256:104,1,300.000011444092
96,96,178970,6,0,B|120:208|168:224|168:224|336:224,1,300.000011444092
432,296,180342,6,0,B|328:296|312:264|312:264|80:264,1,360.000013732911
256,192,181713,12,0,184285,0:0:0:0:
128,88,184456,6,0,P|112:152|168:248,1,160
248,224,184970,1,0,0:0:0:0:
288,136,185142,2,0,P|336:96|368:104,1,80
400,184,185485,2,0,L|400:272,2,80
376,160,185999,1,0,0:0:0:0:
248,56,186170,1,0,0:0:0:0:
112,160,186342,1,0,0:0:0:0:
272,184,186513,1,0,0:0:0:0:
368,80,186685,1,0,0:0:0:0:
440,208,186856,1,0,0:0:0:0:
256,192,187199,12,0,188227,0:0:0:0:
256,192,188570,12,0,189599,0:0:0:0:
256,192,189942,12,0,190970,0:0:0:0:
256,72,191313,6,0,L|256:320,1,240
256,192,192685,12,0,198170,0:0:0:0:
96,80,198513,5,0,0:0:0:0:
96,160,198685,2,0,L|96:248,1,80
224,312,199027,1,0,0:0:0:0:
360,272,199199,2,0,P|352:216|328:168,2,80
320,344,199713,2,0,P|264:312|232:272,2,80
448,256,200227,2,0,P|424:192|360:112,2,160
248,304,201256,5,0,0:0:0:0:
104,184,201427,2,0,L|176:128,1,80
272,64,201770,2,0,L|336:136,1,80
328,264,202113,2,0,L|272:320,2,80
360,176,202627,1,0,0:0:0:0:
208,144,202799,1,0,0:0:0:0:
88,176,202970,2,0,P|128:240|216:288,1,160
232,280,203656,1,0,0:0:0:0:
352,64,203999,5,0,0:0:0:0:
392,144,204170,2,0,P|408:208|400:256,1,80
328,264,204513,2,0,P|336:312|376:368,2,80
248,200,205027,1,0,0:0:0:0:
232,304,205199,1,0,0:0:0:0:
128,328,205370,2,0,P|88:288|80:248,1,80
168,256,205713,2,0,L|328:256,2,160
88,96,206742,6,0,P|152:72|192:72,1,80
240,144,207085,2,0,P|288:160|352:152,2,80
144,136,207599,1,0,0:0:0:0:
160,240,207770,2,0,P|240:208|296:160,1,160
320,128,208285,1,0,0:0:0:0:
360,112,208456,2,0,P|416:128|456:224,1,160
456,216,209142,1,0,0:0:0:0:
192,320,209485,5,0,0:0:0:0:
96,208,209656,2,0,P|136:168|184:160,1,80
320,240,209999,2,0,P|360:280|408:288,1,80
416,160,210342,1,0,0:0:0:0:
296,80,210513,2,0,P|272:120|264:160,2,80
400,80,211027,1,0,0:0:0:0:
408,184,211199,2,0,P|336:240|248:240,1,160
272,248,211885,1,0,0:0:0:0:
128,56,212227,6,0,P|104:104|112:160,1,80
160,192,212570,2,0,P|160:248|136:296,1,80
80,328,212913,1,0,0:0:0:0:
80,328,213085,1,0,0:0:0:0:
80,328,213256,2,0,B|112:256|40:248|144:152,1,160
200,112,213770,2,0,P|280:96|360:96,1,160
408,192,214285,2,0,P|328:232|264:208,1,160
120,72,219770,5,0,0:0:0:0:
80,144,219942,2,0,P|64:192|64:248,1,80
120,296,220285,1,0,0:0:0:0:
192,184,220456,2,0,P|232:240|192:320,1,160
144,248,220970,1,0,0:0:0:0:
312,248,221142,2,0,P|336:192|328:152,1,80
376,88,221485,2,0,P|408:144|416:184,2,80
352,72,221999,1,0,0:0:0:0:
280,64,222170,5,0,0:0:0:0:
192,64,222342,2,0,P|120:104|104:112,1,80
72,176,222685,1,0,0:0:0:0:
160,208,222856,2,0,L|232:160,1,80
288,56,223199,1,0,0:0:0:0:
432,88,223370,1,0,0:0:0:0:
472,200,223542,1,0,0:0:0:0:
376,240,223713,1,0,0:0:0:0:
272,216,223885,1,0,0:0:0:0:
280,312,224056,6,0,P|184:296|160:232,1,160
136,160,224570,1,0,0:0:0:0:
64,96,224742,1,0,0:0:0:0:
0,168,224913,1,0,0:0:0:0:
64,240,225085,1,0,0:0:0:0:
160,304,225256,2,0,L|264:304,1,80
320,256,225599,2,0,L|392:208,1,80
368,112,225942,2,0,L|288:88,1,80
136,48,226285,5,0,0:0:0:0:
256,152,226456,1,0,0:0:0:0:
112,176,226627,2,0,P|136:232|240:280,1,160
280,232,227142,1,0,0:0:0:0:
416,248,227313,2,0,P|352:312|272:328,1,160
208,280,227827,1,0,0:0:0:0:
304,160,227999,1,0,0:0:0:0:
208,280,228170,1,0,0:0:0:0:
120,160,228342,1,0,0:0:0:0:
224,56,228513,5,0,0:0:0:0:
328,144,228685,1,0,0:0:0:0:
216,256,228856,1,0,0:0:0:0:
112,152,229027,1,0,0:0:0:0:
64,64,229199,1,0,0:0:0:0:
0,144,229370,1,0,0:0:0:0:
112,192,229542,1,0,0:0:0:0:
168,112,229713,1,0,0:0:0:0:
256,192,229885,12,0,230570,0:0:0:0:
368,64,230742,6,0,L|416:112|448:144,1,80
408,240,231085,1,0,0:0:0:0:
224,104,231256,2,0,L|152:160,1,80
160,232,231599,1,0,0:0:0:0:
272,184,231770,1,0,0:0:0:0:
384,184,231942,1,0,0:0:0:0:
424,288,232113,2,0,P|352:320|320:328,1,80
280,256,232456,1,0,0:0:0:0:
200,200,232627,2,0,P|176:264|184:312,2,80
56,272,233142,5,0,0:0:0:0:
56,272,233313,2,0,P|80:192|136:128,1,160
264,120,233827,2,0,P|320:176|360:264,1,160
448,256,234342,1,0,0:0:0:0:
376,320,234513,1,0,0:0:0:0:
288,256,234685,1,0,0:0:0:0:
208,320,234856,2,0,L|48:320,1,160
80,232,235370,1,0,0:0:0:0:
176,160,235542,1,0,0:0:0:0:
72,96,235713,1,0,0:0:0:0:
160,48,235885,1,0,0:0:0:0:
272,128,236056,1,0,0:0:0:0:
400,64,236227,6,0,P|432:136|448:168,1,80
408,224,236570,1,0,0:0:0:0:
344,304,236742,1,0,0:0:0:0:
248,248,236913,2,0,P|200:288|192:320,1,80
96,320,237256,2,0,P|72:264|88:224,2,80
200,320,237770,2,0,L|280:320,1,80
280,240,238113,2,0,L|280:152,1,80
200,152,238456,2,0,L|104:152,2,80
280,152,238970,1,0,0:0:0:0:
416,64,239142,5,0,0:0:0:0:
416,64,239313,2,0,B|360:96|336:48|288:96|272:136,1,160
256,192,239827,12,0,241885,0:0:0:0:
64,128,242056,5,0,0:0:0:0:
240,128,242399,1,0,0:0:0:0:
240,288,242742,1,0,0:0:0:0:
448,288,243085,1,0,0:0:0:0:
448,128,243427,1,0,0:0:0:0:
240,128,243770,1,0,0:0:0:0:
448,288,244113,1,0,0:0:0:0:
448,128,244456,1,0,0:0:0:0:
240,288,244799,5,0,0:0:0:0:
200,232,245142,1,0,0:0:0:0:
160,176,245485,1,0,0:0:0:0:
120,120,245827,1,0,0:0:0:0:
248,56,246170,2,0,P|304:64|336:88,1,80
264,256,246856,2,0,P|320:288|352:288,1,80
160,80,247542,2,0,P|112:120|104:144,1,80
168,280,248227,2,0,L|264:280,1,80
384,168,248913,2,0,P|336:128|320:104,2,80
384,272,249942,5,0,0:0:0:0:
192,184,250285,1,0,0:0:0:0:
304,320,250627,2,0,L|224:328,1,80
168,56,251313,2,0,L|264:40,1,80
80,288,251999,2,0,L|152:344,1,80
360,80,252685,2,0,L|280:32,1,80
200,72,253370,1,0,0:0:0:0:
122,87,253712,1,0,0:0:0:0:
64,140,254055,1,0,0:0:0:0:
41,216,254398,5,0,0:0:0:0:
59,293,254741,1,0,0:0:0:0:
136,344,255085,1,0,0:0:0:0:
213,360,255427,1,0,0:0:0:0:
293,352,255770,1,0,0:0:0:0:
366,321,256113,1,0,0:0:0:0:
426,268,256456,1,0,0:0:0:0:
467,200,256799,1,0,0:0:0:0:
485,122,257142,1,0,0:0:0:0:
400,96,257485,5,0,0:0:0:0:
374,171,257827,1,0,0:0:0:0:
324,233,258170,1,0,0:0:0:0:
256,274,258513,1,0,0:0:0:0:
184,296,258685,1,0,0:0:0:0:
120,264,258856,1,0,0:0:0:0:
80,208,259027,1,0,0:0:0:0:
88,136,259199,1,0,0:0:0:0:
144,96,259370,1,0,0:0:0:0:
208,72,259542,5,0,0:0:0:0:
272,72,259713,1,0,0:0:0:0:
336,48,259885,1,0,0:0:0:0:
400,24,260056,1,0,0:0:0:0:
464,48,260227,1,0,0:0:0:0:
488,112,260399,1,0,0:0:0:0:
440,160,260570,1,0,0:0:0:0:
456,224,260742,1,0,0:0:0:0:
480,288,260913,1,0,0:0:0:0:
360,256,261085,5,0,0:0:0:0:
416,344,261256,1,0,0:0:0:0:
288,344,261427,1,0,0:0:0:0:
216,256,261599,1,0,0:0:0:0:
328,160,261770,1,0,0:0:0:0:
192,144,261942,1,0,0:0:0:0:
216,64,262113,1,0,0:0:0:0:
288,24,262285,1,0,0:0:0:0:
368,32,262456,1,0,0:0:0:0:
408,120,262627,6,0,L|408:176,1,40
328,160,262970,2,0,L|328:112,1,40
240,120,263313,2,0,L|240:176,1,40
144,160,263656,2,0,L|144:112,1,40
