osu file format v9

[General]
AudioFilename: Revive.mp3
AudioLeadIn: 2000
PreviewTime: 131870
Countdown: 0
SampleSet: Soft
StackLeniency: 0.7
Mode: 0
LetterboxInBreaks: 1

[Editor]
Bookmarks: 22327,44173,66115,88070,108630,131944,153887
DistanceSpacing: 1.1
BeatDivisor: 4
GridSize: 4

[Metadata]
Title:Revive
Artist:Ayakura Mei
Creator:Reiji-RJ
Version:Normal
Source:Umineko no Naku Koro ni
Tags:masayoshi minoshima haruka rokkenjima in love icebeam

[Difficulty]
HPDrainRate:3
CircleSize:4
OverallDifficulty:3
ApproachRate:5
SliderMultiplier:1
SliderTickRate:1

[Events]
//Background and Video events
0,0,"bg.jpg"
//Break Periods
2,33492,41692
//Storyboard Layer 0 (Background)
//Storyboard Layer 1 (Fail)
//Storyboard Layer 2 (Pass)
//Storyboard Layer 3 (Foreground)
//Storyboard Sound Samples
//Background Colour Transformations
3,100,163,162,255

[TimingPoints]
378,342.857142857143,4,2,0,20,1,0
378,-133.333333333333,4,2,0,20,0,0
20863,-133.333333333333,4,1,0,40,0,0
22320,-100,4,1,0,40,0,0
23692,-100,4,1,1,40,0,0
24206,-100,4,1,0,40,0,0
25063,-100,4,1,1,40,0,0
25578,-100,4,1,0,40,0,0
26435,-100,4,1,1,40,0,0
26949,-100,4,1,0,40,0,0
42892,-100,4,2,1,50,0,0
129463,-100,4,2,1,55,0,0
129806,-100,4,2,1,60,0,0
130149,-100,4,2,1,65,0,0
130492,-100,4,2,1,70,0,0
130835,-100,4,2,1,50,0,0
132035,-100,4,2,1,60,0,1
153978,-100,4,1,1,40,0,0
154492,-100,4,1,0,40,0,0
155349,-100,4,1,1,40,0,0
155863,-100,4,1,0,40,0,0
162206,-100,4,1,1,40,0,0
162720,-100,4,1,0,40,0,0
170435,-100,4,1,1,40,0,0
170949,-100,4,1,0,40,0,0
171806,-100,4,1,1,40,0,0
172320,-100,4,1,0,40,0,0
173092,-100,4,2,0,40,0,0

[Colours]
Combo1 : 231,207,215
Combo2 : 34,116,206
Combo3 : 224,225,198
Combo4 : 166,66,131

[HitObjects]
64,152,378,54,0,B|88:104|140:88|192:116,1,149.999995529652
144,188,1406,1,0
368,196,2778,1,0
448,232,3120,2,0,B|424:280|372:296|320:268,2,149.999995529652
292,180,5177,2,0,B|284:260|276:336,1,149.999995529652
112,312,6549,37,0
116,316,6892,1,0
52,164,7577,2,0,B|84:144|128:156,1,74.9999977648259
204,180,8263,1,0
204,180,8606,2,0,B|276:204|280:156|352:180,3,149.999995529652
256,288,11349,5,0
416,320,12035,1,0
420,324,12378,1,0
96,320,13749,1,0
100,324,14092,2,0,B|156:260|116:184,2,149.999995529652
412,60,16835,38,0,B|356:124|396:200,1,149.999995529652
400,204,17863,1,0
256,72,18892,1,0
260,76,19235,1,0
92,180,20949,5,4
256,192,21635,1,0
420,204,22320,5,4
424,208,22835,2,2,B|368:212|344:268|368:320,1,150,2|2
272,296,23692,2,2,B|232:336|172:336|140:292,2,150,4|2|2
204,220,25063,2,2,B|172:172|192:108|236:92,2,150,4|2|2
296,176,26435,2,2,B|332:136|392:136|428:176,2,150,4|2|2
364,252,27806,6,0,B|384:300|352:348,1,100,4|0
320,340,28320,2,2,B|256:320|240:364|172:340,1,150,2|2
84,296,29178,2,0,B|108:244|76:196,1,100
40,168,29692,2,2,B|88:196|140:160,1,100,6|0
180,144,30206,1,2
264,92,30549,6,0,B|292:140|264:188,1,100,4|0
244,232,31063,2,2,B|312:212|328:256|392:232,1,150,2|2
480,184,31920,2,0,B|504:232|476:284,1,100
504,324,32435,2,2,B|448:304|412:344,1,100,6|0
364,336,32949,1,2
256,320,33292,5,4
92,184,42892,5,2
200,188,43235,1,0
308,192,43577,1,2
416,196,43920,1,8
420,200,44263,6,0,B|448:244|416:296,1,100,4|8
324,336,44949,2,0,B|268:348,2,50,0|0|8
308,236,45635,2,0,B|280:192|312:140,1,100,2|8
404,100,46320,2,0,B|460:88,2,50,0|0|8
316,56,47006,6,0,B|208:64,1,100,2|8
152,140,47692,2,0,B|264:148,1,100,2|8
352,144,48377,5,2
356,148,48720,1,8
356,248,49063,1,2
352,252,49406,1,8
264,296,49749,6,0,B|208:280|172:320,1,100,4|8
88,264,50435,1,0
72,216,50606,1,0
56,168,50777,1,8
132,104,51120,2,0,B|188:120|232:84,1,100,2|8
328,84,51806,1,0
320,132,51977,1,0
312,180,52149,1,8
408,212,52492,6,0,B|398:250|430:272|421:311,2,100,2|8|2
312,180,53520,1,8
228,232,53863,6,0,B|180:256|132:232,1,100,2|8
64,156,54549,2,0,B|112:132|160:156,1,100,2|8
232,236,55235,6,0,B|236:288|240:344,1,100,4|8
328,284,55920,2,0,B|324:232|320:176,1,100,2|8
228,240,56606,2,0,B|180:244|120:248,1,100,2|8
68,168,57292,2,0,B|116:164|176:160,1,100,2|8
268,148,57977,5,2
228,240,58320,1,8
168,160,58663,1,2
272,152,59006,1,8
232,244,59349,6,0,B|272:228|292:260|332:240,3,100,2|8|2|8
416,288,60720,6,0,B|440:240|416:192,1,100,4|8
408,88,61406,1,0
408,88,61577,1,0
408,88,61749,1,8
320,40,62092,2,0,B|296:88|320:136,1,100,2|8
328,240,62777,1,2
328,240,62949,1,0
328,240,63120,1,8
220,252,63463,5,2
208,144,63806,1,8
316,132,64149,1,2
328,240,64492,1,8
220,252,64835,6,0,B|168:268,2,50,4|8|8
328,240,65520,1,8
328,240,65692,1,8
328,240,65863,1,8
316,132,66206,6,0,B|364:104|412:132,1,100,4|8
456,232,66892,1,2
460,240,67063,1,0
464,248,67235,2,0,B|428:292|456:340,1,100,8|0
344,324,67920,2,0,B|304:360|252:336,1,100,8|2
232,340,68435,1,0
212,344,68606,2,0,B|168:312|116:336,1,100,8|0
64,252,69292,5,8
64,252,69463,2,0,B|60:200|56:152,1,100,2|0
28,108,69977,2,0,B|76:136|128:104,1,100,8|2
224,108,70663,1,8
224,108,70835,2,0,B|272:80|320:108,1,100,2|0
368,96,71349,1,10
444,160,71692,6,0,B|432:264,1,100,0|8
344,308,72377,1,2
332,320,72549,1,0
320,332,72720,2,0,B|252:304|240:356|172:328,1,150,8|0
152,340,73406,2,0,B|116:296|144:244,1,100,8|0
92,160,74092,1,8
192,152,74435,6,0,B|296:144,1,100,2|8
304,152,74949,1,0
384,92,75292,1,0
384,92,75463,1,8
436,176,75806,2,0,B|460:228|424:276,1,100,2|8
332,300,76492,2,0,B|284:316,3,50,2|0|8|0
288,332,77177,6,0,B|184:332,1,100,4|8
96,296,77863,2,0,B|68:248|88:200,1,100,2|8
164,132,78549,2,0,B|192:180|172:228,1,100,2|8
188,240,79063,2,0,B|292:236,1,100,2|0
308,244,79577,1,8
400,208,79920,6,0,B|412:104,1,100,0|8
320,152,80606,2,0,B|332:48,1,100,2|8
232,56,81292,2,0,B|184:44|176:64|132:56,2,100,0|8|2
232,56,82149,1,0
232,56,82320,1,8
196,148,82663,6,0,B|172:196|196:244,1,100,0|8
140,328,83349,1,2
152,336,83520,1,0
164,344,83692,2,0,B|276:340,1,100,8|2
364,324,84377,1,8
364,324,84549,2,0,B|388:276|372:224,1,100,2|0
372,226,85063,1,8
404,132,85406,6,0,B|300:124,1,100,0|8
296,104,85920,2,0,B|192:96,1,100,0|0
188,76,86435,1,8
96,112,86777,5,2
108,212,87120,1,8
204,240,87463,1,2
216,340,87806,1,8
316,344,88149,5,4
320,348,88492,1,8
388,272,88835,1,2
388,272,89006,1,0
388,272,89178,2,0,B|393:217|392:172,1,100,8|2
388,72,89863,1,8
388,72,90035,2,0,B|336:76|288:76,1,100,2|0
272,88,90549,1,8
172,84,90892,6,0,B|196:132|164:180,1,100,2|8
76,224,91578,2,0,B|52:176|84:128,1,100,0|8
168,184,92263,2,0,B|216:180|268:180,3,100,2|8|2|8
360,220,93635,6,0,B|368:324,1,100,4|8
464,352,94320,1,2
464,352,94492,1,0
464,352,94663,2,0,B|456:252,1,100,8|0
436,152,95349,1,8
452,52,95692,1,2
352,40,96035,1,8
336,140,96378,6,0,B|284:120|240:148,1,100,2|8
148,112,97063,2,0,B|100:144|52:120,1,100,2|8
60,220,97749,5,2
160,232,98092,1,8
260,244,98435,1,2
360,256,98778,1,8
364,260,99120,6,0,B|336:312|360:359,1,100,4|8
448,312,99806,1,2
448,312,99978,1,0
448,312,100149,2,0,B|476:260|451:212,1,100,8|2
416,124,100835,1,8
404,136,101006,2,0,B|296:132,1,100,2|0
292,144,101520,1,8
188,140,101863,6,0,B|156:96|176:44,2,100,2|8|2
100,192,102892,1,8
184,248,103235,2,0,B|216:292|196:344,3,100,2|8|2|8
296,332,104606,6,0,B|396:328,1,100,4|8
416,336,105120,1,0
436,344,105292,2,0,B|444:240,3,100,2|8|2|8
404,152,106663,1,2
404,152,106835,1,0
404,152,107006,2,0,B|356:144|300:136,1,100,8|2
288,36,107692,5,8
188,52,108035,1,2
204,152,108378,1,8
256,236,108720,5,0
260,240,109406,1,2
264,244,110092,6,0,B|364:236,1,100,4|8
352,264,110606,2,0,B|452:256,1,100
476,268,111120,1,8
444,172,111463,2,0,B|472:124|452:76,1,100,0|8
372,20,112149,2,0,B|344:68|364:116,1,100,2|8
276,164,112835,6,0,B|176:168,3,100,2|8|0|8
76,172,114206,2,0,B|88:276,1,100,0|8
116,240,114720,2,0,B|128:344,1,100
152,356,115235,1,8
248,336,115578,6,0,B|296:356|348:328,1,100,4|8
400,244,116263,2,0,B|352:224|300:252,1,100,2|8
204,244,116949,1,0
256,160,117292,1,8
304,72,117635,1,2
308,76,117806,1,0
312,80,117978,1,8
376,168,118320,6,0,B|480:164,2,100,0|8|2
364,188,119178,1,0
352,208,119349,1,8
248,248,119692,6,0,B|148:256,1,100,2|8
84,176,120378,2,0,B|184:168,1,100,2|8
144,76,121063,6,0,B|244:68,1,100,4|8
260,80,121578,2,0,B|244:128|268:180,1,100,2|0
266,177,122092,1,8
364,160,122435,6,0,B|464:152,1,100,2|8
428,244,123120,2,0,B|328:252,1,100,2|8
368,344,123806,6,0,B|268:352,1,100,4|8
252,340,124320,2,0,B|268:292|244:240,1,100
244,244,124835,1,8
148,212,125178,5,2
176,116,125520,1,8
272,144,125863,1,2
244,244,126206,1,8
320,312,126549,6,0,B|420:304,1,100,4|8
436,312,127063,2,0,B|464:264|444:216,1,100,0|0
444,216,127578,1,8
372,152,127920,6,0,B|272:144,1,100,4|8
256,152,128435,2,0,B|228:104|248:56,1,100,0|0
247,56,128949,1,8
148,68,129292,6,0,B|48:76,1,100,4|8
92,168,129978,2,8,B|192:160,1,100
256,236,130663,1,4
260,240,131520,1,0
260,240,131692,1,8
180,304,132035,6,0,B|80:312,1,100,4|8
68,324,132549,2,0,B|72:260|48:248|52:176,1,150,2|8
152,180,133406,2,0,B|252:188,1,100,2|8
264,200,133920,2,0,B|260:136|284:124|280:52,1,150,2|8
372,88,134778,6,0,B|471:80,1,100,2|8
484,96,135292,2,0,B|496:148|476:196,1,100,2|0
488,212,135806,1,8
392,232,136149,1,2
412,332,136492,1,8
508,312,136835,1,2
488,212,137178,1,8
392,232,137520,6,0,B|292:224,1,100,4|8
280,236,138035,2,0,B|316:164|280:92,1,150,2|8
184,124,138892,2,0,B|84:116,1,100,2|8
72,104,139406,2,0,B|35:176|71:248,1,150,2|8
124,332,140263,6,0,B|224:328,1,100,2|8
220,348,140778,2,0,B|320:344,1,100,2|0
336,352,141292,1,8
436,336,141635,1,2
444,236,141978,1,8
344,248,142320,5,2
352,148,142663,1,8
360,48,143006,1,4
168,136,143692,5,2
160,236,144035,1,8
152,336,144378,1,4
344,248,145063,5,2
352,148,145406,1,8
360,48,145749,2,0,B|288:28|212:48,1,150,0|0
164,36,146435,2,0,B|136:104|164:184,1,150,2|0
148,232,147120,2,0,B|220:252|296:232,1,150,0|0
344,248,147806,1,2
440,220,148149,1,8
344,248,148492,6,0,B|336:348,1,100,4|8
252,296,149178,2,0,B|260:196,1,100,0|8
168,224,149863,2,0,B|160:324,1,100,4|8
76,272,150549,2,0,B|84:172,1,100,0|8
148,84,151235,6,0,B|132:32,2,50,4|0|8
252,116,151920,2,0,B|267:170,2,50,2|0|8
352,72,152606,1,4
356,76,153463,1,0
356,76,153635,1,8
424,152,153978,6,2,B|468:220|424:296,2,150,4|2|2
352,224,155349,2,2,B|308:156|352:80,2,150,4|2|2
276,288,156720,5,4
280,292,157235,2,2,B|204:272|208:312|132:292,1,150,2|2
128,192,158092,1,4
132,196,158606,2,2,B|208:216|204:176|280:196,1,150,2|2
380,200,159463,6,0,B|392:100,1,100,4|0
400,84,159978,2,2,B|324:52|252:84,1,150,2|2
156,60,160835,2,0,B|108:84|60:60,1,100,4|0
44,48,161349,2,2,B|56:200,1,150,2|2
152,168,162206,6,2,B|163:317,2,150,4|2|2
232,108,163578,1,4
236,112,164092,2,2,B|308:68|380:112,1,150,2|2
472,76,164949,6,0,B|492:124|460:172,1,100,4|0
476,184,165463,2,2,B|404:228|332:184,1,150,2|2
236,208,166320,2,0,B|188:176|140:208,1,100,4|0
128,216,166835,2,2,B|112:116,1,100,2|0
100,104,167349,1,2
192,60,167692,6,0,B|292:56,1,100,4|0
288,76,168206,2,2,B|440:68,1,150,2|2
468,164,169063,2,0,B|488:216|456:260,1,100,4|0
464,276,169578,2,2,B|416:252|368:280,1,100,2|0
352,272,170092,1,2
260,308,170435,6,2,B|224:348|164:348|128:308,2,150,4|2|2
252,208,171806,2,2,B|288:168|348:168|384:208,2,150,4|2|2
144,180,173178,5,4
