osu file format v9

[General]
AudioFilename: Revive.mp3
AudioLeadIn: 2000
PreviewTime: 131870
Countdown: 0
SampleSet: Normal
StackLeniency: 0.7
Mode: 0
LetterboxInBreaks: 1

[Editor]
Bookmarks: 22230,44173,66115,88058,108630,131944,153887
DistanceSpacing: 1.3
BeatDivisor: 4
GridSize: 4

[Metadata]
Title:Revive
Artist:Ayakura Mei
Creator:Reiji-RJ
Version:Collab
Source:Umineko no Naku Koro ni
Tags:masayoshi minoshima haruka rokkenjima in love icebeam

[Difficulty]
HPDrainRate:7
CircleSize:4
OverallDifficulty:7
ApproachRate:8
SliderMultiplier:1.6
SliderTickRate:1

[Events]
//Background and Video events
0,0,"bg.jpg"
//Break Periods
//Storyboard Layer 0 (Background)
//Storyboard Layer 1 (Fail)
//Storyboard Layer 2 (Pass)
//Storyboard Layer 3 (Foreground)
//Storyboard Sound Samples
//Background Colour Transformations
3,100,163,162,255

[TimingPoints]
378,342.857142857143,4,2,0,20,1,0
720,-200,4,2,0,20,0,0
20949,-200,4,1,0,40,0,0
22320,-100,4,1,0,40,0,0
42892,-100,4,2,1,35,0,0
44263,-100,4,2,1,50,0,0
132035,-100,4,2,1,60,0,1
153978,-100,4,1,1,40,0,0

[Colours]
Combo1 : 231,207,215
Combo2 : 34,116,206
Combo3 : 224,225,198
Combo4 : 166,66,131

[HitObjects]
88,264,378,53,0
168,276,720,1,0
248,272,1063,2,0,B|287:268|340:268,1,80,0|0
408,280,1749,1,0
256,112,2778,37,0
336,120,3120,2,0,B|384:136|448:108|504:124,2,160
176,120,5177,2,0,B|128:136|64:108|8:124,1,160
72,292,6549,5,0
152,280,6892,1,0
228,304,7235,1,0
308,288,7577,2,0,B|352:296|396:288,1,80,0|0
464,304,8263,1,0
432,216,8606,38,0,B|448:136|431:56,1,160,0|0
80,168,9977,2,0,B|64:247|80:326,1,160,0|0
252,76,11349,6,0,B|260:244,1,160
264,320,12378,1,0
268,324,12720,1,0
176,108,13749,1,0
176,108,14092,2,0,B|256:96|340:108,2,160
360,288,16835,38,0,B|280:300|200:288,1,160
124,308,17863,1,0
120,312,18206,1,0
256,104,18892,2,0,B|248:136|264:160|256:188,1,80
256,264,19578,1,0
256,100,20949,5,4
112,296,21635,1,0
400,296,22320,6,0,B|400:208,1,80,4|0
400,320,22663,1,0
256,268,22835,2,0,B|256:180,1,80,2|0
256,292,23178,1,0
112,320,23349,1,0
40,204,23520,1,0
40,186,23606,1,0
36,172,23692,6,0,B|28:136|48:92,1,80,0|0
132,48,24035,1,0
148,144,24206,2,0,B|204:144|312:148,1,160,2|0
400,112,24720,1,2
464,188,24892,1,0
404,260,25063,6,0,B|392:300|356:332|304:328|264:304,1,160,4|0
116,324,25578,2,0,B|128:284|164:252|216:256|256:280,1,160,2|0
320,164,26092,2,0,B|304:208|324:248,1,80,2|0
400,112,26435,5,4
320,32,26606,1,0
296,40,26692,1,0
272,36,26778,1,0
168,56,26949,2,0,B|140:60|72:80,1,80,2|0
128,192,27292,1,0
148,196,27378,1,0
164,188,27463,2,0,B|208:192|256:192,1,80,0|0
256,112,27806,6,0,B|260:200|260:284,1,160,4|0
264,276,28320,1,2
468,120,28663,1,0
336,136,28835,1,2
176,112,29006,1,0
48,128,29178,5,4
92,240,29349,1,0
100,256,29435,1,0
108,272,29520,1,0
200,336,29692,1,2
316,332,29863,1,0
412,276,30035,1,0
420,260,30120,1,0
416,240,30206,2,0,B|396:200|428:152,1,80,2|0
312,48,30549,6,0,B|332:88|300:136,1,80,4|2
140,176,30892,2,0,B|232:184,1,80,0|2
56,204,31235,2,0,B|36:164|68:116,1,80,2|0
260,276,31578,2,0,B|168:268,1,80,2|0
308,168,31920,6,0,B|308:220|308:248|312:332,1,160,6|0
392,324,32435,1,2
416,52,32778,1,0
320,88,32949,2,0,B|328:128|308:168,1,80,2|0
211,111,33292,5,4
108,78,33463,1,0
104,91,33549,1,0
104,104,33635,2,0,B|108:136|112:200,1,80,0|2
248,260,33978,2,0,B|168:240,1,80
256,272,34320,2,0,B|280:172,1,80,0|0
380,208,34663,5,4
184,44,35006,1,0
184,44,35178,2,0,B|180:84|184:140,1,80,2|0
128,192,35520,1,0
132,204,35606,1,0
128,216,35692,1,2
156,304,35863,1,0
156,304,36035,6,0,B|252:300,1,80,4|2
392,204,36378,1,0
392,204,36549,2,0,B|308:200|224:196,1,160,2|0
180,136,37063,2,0,B|164:100|188:48,1,80,2|0
252,104,37406,6,0,B|296:184|224:268,1,160,6|0
316,288,37920,2,0,B|228:236|152:316,1,160,2|0
44,252,38435,2,0,B|88:264|124:232,1,80,2|0
180,136,38777,5,4
252,104,38949,1,0
272,96,39035,1,0
292,100,39120,1,0
376,112,39292,2,0,B|392:192|372:276,1,160,2|0
300,312,39806,2,0,B|276:312|216:316,1,80
116,200,40149,6,0,B|152:220|200:240,1,80,4|0
296,204,40492,1,0
376,304,40663,2,0,B|428:240|378:145,1,160,2|0
344,72,41177,1,2
252,68,41349,1,0
224,148,41520,5,4
112,264,42892,5,2
400,120,43235,1,2
64,72,43577,1,2
448,312,43920,1,10
168,120,44263,6,0,B|140:200|164:280,1,160,4|8
244,332,44777,1,0
312,264,44949,2,0,B|356:260|400:264,1,80,0|0
312,88,45292,2,0,B|312:136|328:184,1,80,8|0
420,156,45635,6,0,B|340:172|240:176,1,160,2|8
172,220,46149,1,0
32,140,46320,2,0,B|128:144,1,80,2|0
200,104,46663,1,8
312,88,46835,1,0
424,116,47006,5,2
424,116,47349,1,8
444,208,47520,1,0
420,300,47692,1,2
248,284,47863,2,0,B|288:280|336:284,1,80,0|8
420,300,48206,1,0
444,208,48377,6,0,B|360:200|272:208,1,160,2|8
68,88,49063,2,0,B|152:96|240:88,1,160,2|8
260,336,49749,6,0,B|252:168,1,160,4|8
172,216,50263,1,0
84,252,50435,2,0,B|92:300|80:344,1,80,0|0
172,216,50777,2,0,B|160:176|172:132,1,80,8|0
44,96,51120,6,0,B|136:108|212:96,1,160,2|8
292,136,51635,1,0
380,100,51806,1,2
464,148,51977,2,0,B|424:160|368:152,1,80,0|8
292,136,52320,1,0
96,192,52492,6,0,B|96:244|152:280|216:260,1,160,2|8
312,336,53006,1,0
420,280,53177,2,0,B|412:224|352:192|296:220,1,160,2|8
216,260,53692,1,0
96,192,53863,5,2
416,192,54206,1,8
200,48,54549,1,2
312,336,54892,1,8
96,192,55235,6,0,B|128:268|204:312,1,160,4|8
312,336,55749,1,0
440,304,55920,2,0,B|416:264|368:240,1,80
224,168,56263,2,0,B|244:204|280:224,1,80,8|0
384,248,56606,6,0,B|404:164|384:80,1,160,2|8
296,56,57120,1,0
224,168,57292,2,0,B|180:180|128:168,1,80,2|0
40,48,57635,2,0,B|84:40|132:52,1,80,8|0
124,228,57977,6,0,B|28:228,1,80,2|0
112,108,58320,2,0,B|208:108,1,80,8|0
256,192,58663,2,0,B|280:164|292:104,2,80,2|0|8
256,192,59177,1,0
124,228,59349,5,2
388,156,59692,1,8
212,232,60035,1,2
300,152,60377,1,8
404,312,60720,6,0,B|352:332|296:336|240:312,1,160,4|8
212,232,61235,1,0
300,152,61406,2,0,B|320:192|304:232,1,80
208,124,61749,2,0,B|184:84|200:44,1,80,8|0
312,36,62092,6,0,B|324:128|368:188,1,160,2|8
304,260,62606,1,0
200,348,62777,2,0,B|188:256|144:196,1,160,2|8
208,124,63292,1,0
124,80,63463,5,2
256,288,63806,1,8
388,80,64149,1,2
256,288,64492,6,0,B|172:292,1,80,8|0
84,268,64835,1,4
84,268,65006,1,8
84,268,65177,1,8
256,100,65520,1,8
428,268,65863,1,8
252,212,66206,6,0,B|204:212|144:220,1,80,4|0
84,268,66549,2,0,B|84:188|80:96,1,160,8|0
428,116,67235,1,8
356,180,67406,2,0,B|364:224|344:268,1,80,0|2
244,288,67749,2,0,B|236:244|256:200,1,80,0|8
244,288,68092,2,0,B|148:304,1,80
68,180,68435,2,0,B|156:208,1,80,0|8
428,116,68949,6,0,B|472:200|416:276,1,160,2|8
412,264,69463,1,0
176,316,69806,1,0
84,272,69977,2,0,B|68:232|104:176,1,80,8|0
160,88,70320,2,0,B|208:176|152:252,1,160,2|8
84,272,70835,2,0,B|172:224|248:280,1,160
292,352,71349,1,8
384,332,71520,1,0
408,240,71692,6,0,B|404:156|400:76,1,160,2|8
256,160,72206,1,0
111,80,72377,2,0,B|108:156|104:240,1,160,0|8
152,324,72892,1,0
152,324,73063,2,0,B|204:320|252:320,1,80,2|0
408,240,73406,2,0,B|368:244|316:256,1,80,8|0
256,160,73749,2,0,B|248:120|260:76,1,80
360,140,74092,1,8
92,100,74435,6,0,B|136:184|88:268,1,160,2|8
152,324,74949,1,0
152,324,75120,2,0,B|260:320|320:320,1,160,0|8
396,272,75635,2,0,B|400:228|400:188,1,80,0|2
256,240,75977,2,0,B|260:196|260:156,1,80,0|8
116,256,76320,2,0,B|120:192|120:80,1,160
128,100,76835,1,8
384,100,77177,5,4
328,316,77520,1,8
328,316,77692,2,0,B|248:312|160:320,1,160
88,264,78206,2,0,B|84:216|96:168,1,80,8|0
128,100,78549,1,2
384,100,78892,1,8
384,100,79063,2,0,B|436:184|384:264,1,160
236,220,79577,2,0,B|264:188|320:196,1,80,8|0
240,312,79920,6,0,B|212:344|156:336,1,80,2|0
76,344,80263,2,0,B|76:268|64:160,1,160,8|0
256,56,80949,1,8
392,96,81120,2,0,B|304:112,1,80
196,260,81635,1,8
48,248,81806,2,0,B|140:228,1,80
428,280,82320,1,8
428,280,82492,1,0
428,280,82663,6,0,B|368:352|256:300,1,160,2|8
196,260,83177,1,0
264,152,83349,2,0,B|292:196|272:240,1,80
180,116,83692,2,0,B|236:36|352:96,1,160,8|2
424,40,84206,2,0,B|436:84|420:124,1,80,0|8
356,188,84549,1,0
128,272,84892,2,0,B|44:264,2,80,0|8|0
128,272,85406,5,2
256,72,85749,1,8
256,72,85920,1,0
384,272,86263,1,0
384,272,86435,1,8
112,192,86777,5,2
184,192,87120,1,8
256,192,87463,1,2
328,192,87806,1,8
400,192,88149,5,4
112,192,88492,2,0,B|108:144|112:104,1,80,8|0
172,40,88835,1,0
172,40,89006,1,0
220,124,89178,2,0,B|228:208|216:283,1,160,8|2
136,296,89692,1,0
136,296,89863,2,0,B|184:272|252:284|284:324,1,160,8|2
380,328,90378,1,0
436,248,90549,6,0,B|404:200|404:136|416:88,2,160,8|2|8
380,328,91406,1,0
252,236,91749,1,0
260,140,91920,1,8
84,64,92263,6,0,B|116:112|116:176|104:224,1,160,2|8
76,312,92778,1,0
260,140,93120,1,0
252,236,93292,1,8
264,332,93463,1,0
496,260,93635,6,0,B|324:276,1,160,4|8
252,236,94149,1,0
260,140,94320,2,0,B|304:152|352:144,1,80
256,48,94663,2,0,B|216:36|168:52,1,80,8|0
84,88,95006,6,0,B|76:176|104:256,1,160,2|8
176,308,95520,1,0
252,236,95692,2,0,B|260:148,1,80,2|0
340,40,96035,2,0,B|348:132,1,80,8|0
440,256,96378,2,0,B|452:176|440:88,1,160,2|8
340,40,96892,1,0
112,196,97235,5,0
204,168,97406,1,8
296,192,97578,1,0
392,176,97749,1,2
105,275,98092,2,0,B|121:231|109:183,1,80,8|0
390,97,98606,2,0,B|378:145|394:181,1,80,0|8
104,276,99120,6,0,B|132:324|192:340|244:312,1,160,4|8
304,236,99635,1,0
304,236,99806,2,0,B|344:212|392:232,1,80
448,324,100149,2,0,B|484:248|456:156,1,160,8|2
60,52,100835,6,0,B|224:64,1,160,8|2
168,144,101349,1,0
256,192,101520,1,8
340,240,101692,1,0
432,332,101863,2,0,B|268:320,1,160,2|8
176,332,102378,1,0
256,96,102720,1,0
256,192,102892,1,8
432,332,103235,6,0,B|400:292|396:228|436:180,1,160,2|8
336,176,103749,2,0,B|256:200|176:184,1,160
84,160,104263,1,8
336,176,104606,6,0,B|320:96,1,80,2|0
84,160,104949,2,0,B|100:244,1,80,8|0
288,320,105292,2,0,B|264:292|268:244,1,80
164,48,105635,2,0,B|188:76|184:124,1,80,8|0
320,96,105978,1,2
256,304,106320,1,8
256,304,106663,6,0,B|208:304|172:296,1,80,2|0
80,316,107006,1,8
400,300,107349,1,2
112,84,107692,1,8
348,228,108035,1,2
164,156,108378,1,8
248,212,108720,5,2
252,216,109406,1,2
256,220,110092,5,4
348,200,110263,2,0,B|368:248|340:280,1,80,0|8
424,152,110606,2,0,B|344:84|256:168,1,160
136,88,111120,2,0,B|172:116|236:80,1,80,8|0
76,148,111463,2,0,B|52:200|92:244,1,80,2|0
52,316,111806,1,8
144,340,111978,2,0,B|228:332|312:336,1,160
400,352,112492,1,8
460,280,112663,1,0
404,200,112835,6,0,B|336:140|388:48,1,160,2|8
480,184,113349,2,0,B|308:228,1,160
244,156,113863,1,8
152,208,114035,1,0
192,300,114206,2,0,B|272:344|348:284,1,160,2|8
244,156,114720,2,0,B|276:200|256:256,1,80
128,120,115063,2,0,B|96:76|116:20,1,80,0|8
384,264,115578,6,0,B|424:288|416:352,1,80,4|0
328,192,115920,2,0,B|308:152|344:100,1,80,8|0
292,272,116263,2,0,B|260:304|216:296,1,80
120,256,116606,1,8
120,256,116949,2,0,B|104:164,1,80,2|0
252,204,117292,2,0,B|236:124,1,80,8|0
408,224,117635,2,0,B|396:148|376:52,1,160,0|8
108,180,118320,6,0,B|120:256|140:352,1,160,2|8
136,337,118835,1,0
408,224,119178,1,0
408,224,119349,2,0,B|424:136,1,80,8|0
288,236,119692,2,0,B|320:268|312:308,1,80,2|0
192,204,120035,1,8
192,204,120206,2,0,B|128:136|188:36,1,160
300,64,120720,1,8
304,168,120892,1,0
196,208,121063,6,0,B|260:276|200:376,1,160,4|8
144,292,121578,2,0,B|212:248|312:288,1,160
380,332,122092,1,8
384,76,122435,1,2
460,136,122606,2,0,B|424:176|364:156,1,80,0|8
304,212,122949,1,0
212,184,123120,2,0,B|196:236|228:272,1,80,0|0
304,212,123463,1,8
76,72,123806,6,0,B|92:176,1,80,4|0
56,256,124149,1,8
156,296,124320,2,0,B|224:360|316:292,1,160
312,136,124835,2,0,B|288:176|312:236,1,80,8|0
392,112,125178,2,0,B|340:24|240:76,1,160,2|8
120,316,125863,2,0,B|116:228,1,80,0|0
252,328,126206,2,0,B|248:232,1,80,8|0
376,328,126549,5,4
256,44,126892,1,8
168,84,127063,2,0,B|132:184|216:244,1,160
152,88,127578,2,0,B|64:72,1,80,8|0
52,208,127920,1,4
460,208,128263,1,8
352,256,128435,2,0,B|388:156|304:96,1,160
360,268,128949,2,0,B|452:288,1,80,8|0
460,208,129292,5,4
328,60,129635,1,0
332,64,129806,2,0,B|284:64|152:64,2,160,2|2|0
256,188,130663,1,4
52,204,131349,5,2
188,184,131520,1,0
320,212,131692,1,8
456,200,131863,1,0
244,64,132035,6,0,B|264:228,1,160,4|8
240,316,132549,1,0
240,316,132720,2,0,B|280:328|324:336,1,80
428,272,133063,1,8
472,156,133235,1,0
404,48,133406,6,0,B|240:64,1,160,2|8
168,120,133920,1,0
72,244,134092,2,0,B|60:200|60:156,1,80
168,120,134435,2,0,B|180:160|180:204,1,80,8|0
72,244,134778,6,0,B|124:220|184:236|216:284,1,160,4|8
320,288,135292,1,0
412,256,135463,1,0
500,292,135635,1,0
416,176,135806,2,0,B|424:216|412:256,1,80,8|0
240,295,136149,2,0,B|280:288|320:288,1,80,2|0
496,184,136492,2,0,B|416:176,1,80,8|2
264,208,136835,5,0
140,256,137006,1,0
88,136,137178,1,8
208,84,137349,1,0
340,152,137520,6,0,B|372:200|372:260|328:300,1,160,4|8
224,328,138035,1,0
140,256,138206,2,0,B|96:264|60:248,1,80,0|0
88,136,138549,2,0,B|172:120|248:156,1,160,8|2
340,152,139063,1,0
436,136,139235,1,8
436,136,139406,2,0,B|456:96|436:48,1,80
340,152,139749,2,0,B|320:200|344:240,1,80,0|8
404,304,140092,1,0
292,332,140263,6,0,B|212:340|120:336,1,160,4|8
40,308,140778,1,0
108,240,140949,2,0,B|152:248|204:240,1,80
232,156,141292,2,0,B|188:148|140:156,1,80,8|0
56,44,141635,2,0,B|64:88|80:136,1,80,2|0
232,156,141978,2,0,B|224:116|213:78,1,80,8|2
448,32,142320,5,0
488,128,142492,1,2
408,196,142663,1,8
320,140,142835,1,0
344,40,143006,1,4
348,44,143349,1,8
64,352,143692,5,0
24,256,143863,1,2
104,188,144035,1,8
192,244,144206,1,0
168,344,144378,1,4
164,348,144720,1,8
424,76,145063,6,0,B|432:116|428:160,1,80,2|0
412,252,145406,2,0,B|332:268,1,80,8|0
180,208,145749,2,0,B|344:176,1,160,2|8
428,156,146263,1,0
412,252,146435,2,0,B|404:296|412:336,1,80
324,368,146778,2,0,B|316:328|324:284,1,80,8|0
244,340,147120,2,0,B|164:352|80:340,1,160,2|8
20,268,147635,1,0
108,232,147806,6,0,B|204:228,1,80
364,164,148149,2,0,B|272:168,1,80,8|0
88,68,148492,2,0,B|264:80,1,160,4|8
344,64,149006,1,0
436,96,149178,2,0,B|444:140|436:184,1,80
368,340,149520,2,0,B|360:300|368:248,1,80,8|0
364,164,149863,5,4
256,160,150206,1,8
152,156,150549,1,0
44,152,150892,1,8
256,56,151235,5,4
256,56,151406,1,0
256,56,151578,1,8
256,328,151920,5,8
256,328,152092,1,0
256,328,152263,1,8
256,192,152606,5,4
112,164,153292,5,0
208,64,153463,1,0
344,112,153635,1,8
344,112,153978,6,0,B|316:148|336:220,1,80,4|0
392,252,154320,1,0
324,320,154492,2,0,B|236:376|156:300,1,160,2|0
80,332,155006,1,0
44,244,155178,1,0
56,228,155263,1,0
56,208,155349,1,0
120,112,155520,2,0,B|152:148|128:196,1,80
40,92,155863,2,0,B|116:92|232:88,1,160,2|0
304,48,156378,1,2
392,96,156549,1,0
372,192,156720,6,0,B|332:280|364:368,1,160,2|0
432,296,157235,2,0,B|240:316,1,160,2|0
152,256,157749,2,0,B|188:296|156:356,1,80,2|0
68,212,158092,2,0,B|36:180|64:112,1,80,2|0
156,168,158435,1,0
172,72,158606,2,0,B|344:72,1,160,2|0
444,72,159120,1,2
436,172,159292,1,0
424,184,159378,1,0
412,188,159463,6,0,B|420:240|452:280,1,80,4|0
360,344,159806,1,0
268,280,159978,2,0,B|172:248|104:320,1,160,2|0
200,192,160492,2,0,B|196:236|192:276,1,80,2|0
304,104,160835,2,0,B|412:88,1,80,2|0
160,64,161178,2,0,B|112:52|76:84,1,80,0|2
56,288,161692,1,0
60,292,161863,2,0,B|136:312,1,80,2|0
328,256,162206,5,2
332,260,162378,2,0,B|236:284,1,80,0|0
400,312,162720,2,0,B|444:228|352:168,1,160,2|0
256,216,163235,1,2
160,160,163406,1,0
148,168,163492,1,0
132,168,163578,2,0,B|124:120|132:80,1,80
256,48,163920,1,0
381,88,164092,2,0,B|456:160|384:268,1,160,2|0
256,216,164606,2,0,B|288:188|360:208,1,80,2|0
248,228,164949,6,0,B|180:288|92:236,1,160,6|0
168,176,165463,1,2
168,176,165806,2,0,B|160:128|156:88,1,80,0|2
340,164,166149,2,0,B|328:260,1,80,0|2
144,344,166492,2,0,B|112:248,1,80,0|0
292,100,166835,2,0,B|320:188|428:164,1,160,2|0
385,75,167349,1,2
234,44,167520,1,0
222,56,167606,1,0
212,68,167692,6,0,B|156:76|124:84,1,80
136,176,168035,2,0,B|120:232|168:272,1,80,0|2
376,276,168378,2,0,B|392:220|344:180,1,80
140,264,168720,2,0,B|232:244,1,80
280,324,169063,1,0
232,60,169406,1,0
236,64,169578,2,0,B|236:168|100:172,1,160,2|0
148,84,170092,1,2
424,132,170435,6,0,B|336:116,2,80,4|0|2
68,168,171120,2,0,B|80:264,2,80,2|0|2
432,304,171806,2,0,B|440:208,1,80,2|0
312,320,172149,2,0,B|320:216,1,80,2|2
192,300,172492,2,0,B|200:208,1,80,2|0
76,320,172835,1,2
80,324,173178,5,4
