osu file format v9

[General]
AudioFilename: Revive.mp3
AudioLeadIn: 2000
PreviewTime: 131870
Countdown: 0
SampleSet: Soft
StackLeniency: 0.7
Mode: 0
LetterboxInBreaks: 1

[Editor]
Bookmarks: 22327,44173,66115,88070,108630,131944,153887
DistanceSpacing: 1.1
BeatDivisor: 2
GridSize: 4

[Metadata]
Title:Revive
Artist:Ayakura Mei
Creator:Reiji-RJ
Version:B-Easy
Source:Umineko no Naku Koro ni
Tags:masayoshi minoshima haruka rokkenjima in love icebeam

[Difficulty]
HPDrainRate:2
CircleSize:4
OverallDifficulty:2
ApproachRate:4
SliderMultiplier:0.7
SliderTickRate:1

[Events]
//Background and Video events
0,0,"bg.jpg"
//Break Periods
2,33492,41572
//Storyboard Layer 0 (Background)
//Storyboard Layer 1 (Fail)
//Storyboard Layer 2 (Pass)
//Storyboard Layer 3 (Foreground)
//Storyboard Sound Samples
//Background Colour Transformations
3,100,163,162,255

[TimingPoints]
378,342.857142857143,4,2,0,20,1,0
378,-100,4,2,0,20,0,0
20863,-100,4,1,0,40,0,0
22320,-100,4,1,0,40,0,0
42892,-100,4,2,1,50,0,0
129463,-100,4,2,1,40,0,0
129806,-100,4,2,1,45,0,0
130149,-100,4,2,1,50,0,0
130492,-100,4,2,1,55,0,0
132035,-100,4,2,1,60,0,1
148320,-100,4,1,1,60,0,1
148663,-100,4,2,1,60,0,1
149692,-100,4,1,1,60,0,1
150035,-100,4,2,1,60,0,1
152435,-100,4,2,1,20,0,1
152778,-100,4,2,1,60,0,1
153978,-100,4,1,1,40,0,0

[Colours]
Combo1 : 231,207,215
Combo2 : 34,116,206
Combo3 : 224,225,198
Combo4 : 166,66,131

[HitObjects]
60,56,378,53,0
196,124,1063,2,0,B|244:120|296:120,1,70
344,120,1749,1,0
348,124,2778,1,0
404,176,3120,38,0,B|408:248|404:344,2,140,0|0|0
96,140,5863,5,0
76,292,6549,1,0
148,324,6892,2,0,B|220:320|304:320,1,140
348,272,7920,2,0,B|348:228|348:184,1,70
408,148,8606,38,0,B|388:116|347:108|301:119|282:152,1,140,0|0
135,112,9978,2,0,B|103:132|95:173|106:219|139:238,1,140,0|0
260,320,11349,5,0
408,280,12035,2,0,B|412:236|412:200,1,70
412,132,12720,1,0
416,136,13749,1,0
360,80,14092,38,0,B|292:48|224:76,2,140,0|0|0
332,324,16835,5,0
180,292,17520,2,0,B|144:288|96:288,1,70
68,224,18206,2,0,B|40:156|68:72,1,140,0|0
140,92,19235,1,0
216,104,19577,37,0
220,108,20949,1,0
172,256,21635,1,0
324,228,22320,22,0,B|384:224|456:236,2,105,4|2|2
252,204,23692,2,0,B|192:208|120:196,2,105,0|2|2
312,156,25063,6,0,B|332:100|304:36,2,105,0|2|2
292,232,26435,2,0,B|272:288|300:352,2,105,0|2|2
216,212,27806,6,0,B|144:216|84:220,2,105,4|2|2
196,136,29178,2,0,B|268:132|328:128,2,105,0|2|2
120,140,30549,6,0,B|100:92|116:20,2,105,0|2|2
196,136,31920,2,0,B|216:184|200:256,2,105,0|2|2
120,140,33292,5,4
72,104,42892,5,2
72,104,43578,1,2
72,104,44263,5,4
116,168,44606,2,0,B|108:248|136:328,1,140,8|8
208,308,45635,1,2
208,308,45978,2,0,B|280:304|364:300,1,140,8|8
424,316,47006,5,2
456,244,47349,2,0,B|476:172|452:100,1,140,8|8
384,72,48378,2,0,B|332:60|312:72|292:84|220:64,1,140,2|2
92,48,49749,5,4
60,116,50092,2,0,B|68:188|76:280,1,140,8|8
132,304,51120,1,2
132,304,51463,2,0,B|156:276|200:264|248:268|288:296,1,140,8|8
332,316,52492,5,2
387,262,52835,2,0,B|415:202|387:110,1,140,8|8
327,82,53863,2,0,B|171:82,1,140,2|2
36,120,55235,5,4
100,164,55578,2,0,B|140:240|80:312,1,140,8|8
32,348,56606,1,2
32,348,56949,2,0,B|92:296|196:340,1,140,8|8
236,356,57978,5,2
292,304,58320,2,0,B|324:232|276:164,1,140,8|8
340,116,59349,2,0,B|280:160|180:128,1,140,2|2
64,160,60720,5,4
64,160,61063,2,0,B|36:236|84:320,1,140,8|8
140,336,62092,1,2
204,292,62435,2,0,B|232:216|184:132,1,140,8|8
240,92,63463,5,2
240,92,63806,2,0,B|292:80|312:92|332:104|404:84,1,140,8|8
452,128,64835,2,0,B|456:172|444:208,1,70,4|8
424,272,65520,2,0,B|376:268|340:272,1,70,8|8
296,324,66206,5,4
148,284,66892,2,0,B|100:284|64:292,2,70,2|8|0
200,228,67920,2,0,B|224:160|188:80,1,140,8|8
128,48,68949,6,0,B|196:84|276:52,1,140,2|0
416,76,70320,1,2
440,148,70663,2,0,B|426:194|438:218|450:238|426:306,1,140,8|8
368,332,71692,5,4
296,308,72035,2,0,B|248:312|204:316,1,70,8|0
156,288,72720,2,0,B|148:216|148:136,1,140,8|8
220,124,73749,2,0,B|216:96|216:48,1,70,0|8
292,56,74435,6,0,B|364:56|448:60,1,140,2|0
488,112,75463,1,8
428,160,75806,2,0,B|356:160|272:156,1,140,2|0
212,156,76835,1,8
132,160,77177,6,0,B|88:236|144:312,1,140,4|0
200,332,78206,2,0,B|240:328|272:332,1,70,8|2
268,256,78892,2,0,B|332:256|416:256,1,140,8|8
436,184,79920,6,0,B|464:120|428:40,1,140,2|0
360,72,80949,2,0,B|324:76|268:84,1,70,8|2
216,48,81635,2,0,B|164:36|144:48|124:60|52:40,1,140,8|8
36,112,82663,6,0,B|40:184|48:268,1,140,4|0
120,272,83692,1,8
192,244,84035,2,0,B|232:248|268:244,1,70,2|8
336,228,84720,2,0,B|376:220|412:228,1,70,0|8
480,244,85406,5,2
472,168,85749,2,0,B|484:100|464:24,1,140,8|8
392,20,86777,1,2
244,64,87463,1,2
88,48,88149,6,0,B|80:120|96:208,1,140,4|0
168,208,89177,2,0,B|212:200|244:200,1,70,8|2
312,188,89863,2,0,B|364:256|304:328,1,140,8|8
244,356,90892,6,0,B|316:340|412:364,2,140,2|2|2
188,304,92606,2,0,B|174:258|186:234|198:214|174:146,1,140,8|8
108,128,93635,6,0,B|120:100|160:72|220:84|248:112,1,140,4|0
300,72,94663,1,8
368,112,95006,2,0,B|432:108|464:108,1,70,2|8
440,184,95692,2,0,B|376:188|344:188,1,70,2|8
292,192,96377,6,0,B|296:264|304:352,2,140,2|0|2
264,120,98092,2,0,B|276:88|272:36,2,70,8|2|8
188,132,99120,6,0,B|104:88|40:160,1,140,4|0
80,216,100149,2,0,B|84:272|88:312,1,70,8|2
28,340,100835,2,0,B|88:296|176:320,1,140,8|8
228,280,101863,6,0,B|232:212|224:112,2,140,2|2|2
284,332,103577,1,8
360,312,103920,2,0,B|396:308|444:308,1,70,0|8
444,232,104606,6,0,B|472:164|440:88,1,140,4|0
376,56,105635,1,8
308,96,105977,2,0,B|280:164|312:240,1,140,2|0
336,304,107006,1,8
264,336,107349,5,2
192,312,107692,2,0,B|124:308|48:308,1,140,8|8
52,232,108720,1,2
52,232,109406,1,2
52,232,110092,5,4
116,188,110435,2,0,B|92:124|112:28,1,140,8|8
184,60,111463,1,2
260,44,111806,2,0,B|348:40|420:44,1,140,8|8
424,116,112835,6,0,B|420:168|416:208,1,70,2|8
392,260,113520,2,0,B|352:260|296:264,1,70,0|8
244,272,114206,1,2
96,236,114892,1,2
72,84,115577,5,4
140,48,115920,2,0,B|192:36|212:48|232:60|304:40,1,140,8|8
352,72,116949,2,0,B|348:144|340:236,1,140,2|0
332,288,117977,1,8
256,272,118320,6,0,B|220:272|168:276,1,70,2|8
152,344,119006,2,0,B|172:268|132:188,1,140,0|2
128,132,120035,2,0,B|120:84|120:40,2,70,8|0|8
204,144,121063,5,4
280,128,121406,2,0,B|348:120|432:132,1,140,8|8
452,200,122435,2,0,B|448:236|444:292,1,70,2|8
388,320,123120,2,0,B|348:316|300:316,1,70,0|8
240,324,123806,5,4
164,308,124149,2,0,B|156:240|164:152,1,140,8|8
184,92,125177,2,0,B|228:84|272:84,1,70,2|8
328,100,125863,2,0,B|376:104|408:104,1,70,0|8
440,168,126549,6,0,B|448:224|428:296,2,105,4|2|8
368,136,127920,2,0,B|360:80|380:8,2,105,4|2|8
328,200,129292,6,0,B|292:204|236:200,1,70,4|8
180,192,129977,2,0,B|136:188|88:196,1,70,8|8
32,204,130663,1,4
32,204,132035,6,0,B|24:144|24:72,2,105,4|2|8
96,248,133406,2,0,B|104:308|104:380,2,105,2|2|8
156,200,134777,5,2
232,220,135120,2,0,B|272:208|300:220|328:232|372:216,1,140,8|8
444,196,136149,1,2
444,196,136492,2,0,B|476:128|432:56,1,140,8|8
364,32,137520,5,4
304,80,137863,2,0,B|236:84|156:92,1,140,8|8
112,152,138892,1,2
112,152,139235,2,0,B|128:300,1,140,8|8
204,308,140263,6,0,B|260:292|312:316,2,105,2|2|8
128,292,141635,2,0,B|72:308|20:284,2,105,2|2|8
176,232,143006,5,4
208,80,143692,2,0,B|256:76|296:80,1,70,0|8
356,80,144377,1,4
452,200,145063,2,0,B|456:240|448:292,1,70,0|8
440,348,145749,5,2
364,336,146092,2,0,B|296:316|216:336,1,140,8|8
156,300,147120,2,0,B|160:264|156:220,1,70,2|8
156,152,147806,2,0,B|148:104|152:56,1,70,2|8
224,56,148492,6,0,B|304:40,3,70,4|8|8|8
364,72,149863,2,0,B|452:88,3,70,4|8|8|8
256,192,151235,12,4,152606
116,144,153977,6,0,B|100:96|108:32,2,105,4|2|2
152,212,155349,2,0,B|168:260|160:324,2,105,4|2|2
212,164,156720,6,0,B|276:156|332:152,2,105,4|2|2
152,212,158092,2,0,B|88:220|32:224,2,105,4|2|2
212,164,159463,6,0,B|192:116|208:52,2,105,4|2|2
284,192,160835,2,0,B|332:172|396:188,2,105,4|2|2
228,244,162206,6,0,B|248:292|232:356,2,105,4|2|2
156,216,163577,2,0,B|108:236|44:220,2,105,4|2|2
192,148,164949,6,0,B|184:36,2,105,4|2|2
252,196,166320,2,0,B|260:308,2,105,4|2|2
324,168,167692,6,0,B|372:140|444:168,2,105,4|2|2
252,196,169063,2,0,B|204:224|132:196,2,105,4|2|2
264,120,170435,6,0,B|236:72|264:0,2,105,4|2|2
324,168,171806,2,0,B|352:216|324:288,2,105,4|2|2
252,196,173177,5,4
