osu file format v11

[General]
AudioFilename: Nightfall_192.mp3
AudioLeadIn: 0
PreviewTime: 280710
Countdown: 0
SampleSet: Soft
StackLeniency: 0.4
Mode: 0
LetterboxInBreaks: 1

[Editor]
DistanceSpacing: 1.2
BeatDivisor: 4
GridSize: 32

[Metadata]
Title:NIGHTFALL
TitleUnicode:NIGHTFALL
Artist:Ayakura Mei
ArtistUnicode:綾倉盟
Creator:233pc
Version:Normal
Source:Touhou
Tags:c83 DOMINATED DANCEHALL alstroemeria records
BeatmapID:213953
BeatmapSetID:75483

[Difficulty]
HPDrainRate:2
CircleSize:3
OverallDifficulty:3
ApproachRate:4
SliderMultiplier:1
SliderTickRate:1

[Events]
//Background and Video events
0,0,"night.jpg"
//Break Periods
2,180263,208743
//Storyboard Layer 0 (Background)
//Storyboard Layer 1 (Fail)
//Storyboard Layer 2 (Pass)
//Storyboard Layer 3 (Foreground)
//Storyboard Sound Samples
//Background Colour Transformations
3,100,163,162,255

[TimingPoints]
1938.90861795115,468.75,4,2,1,50,1,0
90063,-100,4,2,1,65,0,0
150063,-100,4,2,1,65,0,1
180063,-100,4,2,1,65,0,0
300063,-100,4,2,1,65,0,1
330063,-100,4,2,1,65,0,0

[Colours]
Combo1 : 242,48,25
Combo2 : 55,179,95
Combo3 : 127,182,160
Combo4 : 211,163,155
Combo5 : 148,139,148
Combo6 : 168,37,97
Combo7 : 74,203,134
Combo8 : 171,176,248

[HitObjects]
201,74,60063,5,0,0:0:0
97,134,60532,1,8,0:0:0
74,251,61001,6,0,B|38:311|38:311|9:316,1,100,0|4,0:0|0:0,0:0:0
111,253,61938,2,0,B|135:266|135:266|159:279|188:277|204:265|204:265|234:309|287:311,1,200,4|0,0:0|0:0,0:0:0
406,309,63344,6,0,B|408:309|408:309|408:305|408:305|412:307|412:307|412:303|412:303|415:306|415:306|415:301|415:301|419:304|419:304|419:299|419:299|422:302|422:302|422:297|422:297|426:300|426:300|426:295|426:295|429:298|429:298|429:294|429:294|433:296|433:296|433:292|433:292|436:294|436:294|436:290|436:290|440:292|440:292|440:288|440:288|444:291|444:291|443:286|443:286|446:287|446:287|432:257|444:219|444:219|472:205|472:205|419:119,1,300,0|10,0:0|0:0,0:0:0
355,220,65219,1,0,0:0:0
236,201,65688,5,0,0:0:0
226,320,66157,1,12,0:0:0
121,378,66626,2,0,B|72:342|72:342|50:333|35:345,1,100,0|2,0:0|0:0,0:0:0
55,226,67563,1,2,0:0:0
38,107,68032,5,0,0:0:0
108,9,68501,2,0,B|13:41,1,100,0|0,0:0|0:0,0:0:0
89,133,69438,1,0,0:0:0
175,216,69907,1,0,0:0:0
267,292,70376,6,0,B|230:339|230:339|211:354|193:347|193:347|236:314|287:330|287:330|346:340|346:340|367:350|370:369,1,300,0|0,0:0|0:0,0:0:0
475,311,72251,1,0,0:0:0
495,192,72719,2,0,B|471:143|495:96,2,100,0|2|0,0:0|0:0|0:0,0:0:0
511,73,74126,6,0,B|432:11,1,100,8|2,0:0|0:0,0:0:0
319,52,75063,1,0,0:0:0
277,164,75532,2,0,B|181:192|181:192|81:198,2,200,0|0|10,0:0|0:0|0:0,0:0:0
204,68,77876,1,0,0:0:0
134,165,78344,1,2,0:0:0
30,224,78813,5,0,0:0:0
30,343,79282,1,0,0:0:0
148,325,79751,1,0,0:0:0
172,280,79985,1,0,0:0:0
195,234,80219,1,0,0:0:0
273,143,80688,1,0,0:0:0
358,59,81157,1,12,0:0:0
477,73,81626,2,0,B|461:124|494:167,1,100,0|2,0:0|0:0,0:0:0
457,281,82563,2,0,B|429:277|429:277|401:274|375:286|365:303|365:303|342:247|342:247|327:228|308:230,1,200,0|0,0:0|0:0,0:0:0
339,345,83969,6,0,B|370:352|405:332|405:332|413:302|413:302|452:266|448:212|448:212|497:191|510:139,1,300,0|0,0:0|0:0,0:0:0
452,33,85844,1,2,0:0:0
332,31,86313,2,0,B|430:11,2,100,2|8|0,0:0|0:0|0:0,0:0:0
327,150,87719,6,0,B|255:220,1,100,0|2,0:0|0:0,0:0:0
208,330,88657,1,10,0:0:0
327,342,89126,2,0,B|376:308|376:308|392:289|386:271,1,100,8|0,0:0|0:0,0:0:0
453,171,90063,2,0,B|353:157,1,100,0|0,0:0|0:0,0:0:0
237,190,91001,5,8,0:0:0
151,274,91469,1,6,0:0:0
43,327,91938,2,0,B|38:227|38:227|17:201|19:161|19:161|42:141|42:141|-8:149|-8:149|11:103,1,300,0|4,0:0|0:0,0:0:0
96,187,93813,2,0,B|91:286|91:286|155:362,1,200,8|0,0:0|0:0,0:0:0
274,363,95219,5,2,0:0:0
377,301,95688,1,0,0:0:0
283,225,96157,2,0,B|268:201|268:201|253:177|253:149|264:132,1,100,8|0,0:0|0:0,0:0:0
337,37,97094,2,0,B|436:29|436:29|483:54|491:107,1,200,0|10,0:0|0:0,0:0:0
498,226,98501,5,8,0:0:0
503,345,98969,1,0,0:0:0
389,307,99438,1,0,0:0:0
300,225,99907,5,0,0:0:0
252,114,100376,1,8,0:0:0
358,57,100845,5,0,0:0:0
358,57,101313,1,0,0:0:0
470,14,101782,2,0,B|470:16|470:16|474:14|474:14|474:18|474:18|477:16|477:16|477:20|477:20|481:18|481:18|480:22|480:22|484:20|484:20|484:25|484:25|488:22|488:22|487:27|487:27|491:24|491:24|491:29|491:29|494:26|494:26|494:31|494:31|498:28|498:28|498:33|498:33|501:30|501:30|501:35|501:35|505:33|505:33|504:37|504:37|508:35|508:35|509:37,1,100,0|0,0:0|0:0,0:0:0
443,137,102719,1,0,0:0:0
323,149,103188,6,0,B|334:248,1,100,2|4,0:0|0:0,0:0:0
246,166,104126,1,0,0:0:0
180,266,104594,1,0,0:0:0
62,291,105063,6,0,B|50:350|50:350|39:371|21:373,1,100,0|0,0:0|0:0,0:0:0
140,377,106001,1,4,0:0:0
255,343,106469,1,0,0:0:0
368,382,106938,1,6,0:0:0
378,262,107407,5,8,0:0:0
263,226,107876,2,0,B|265:225|265:225|263:221|263:221|268:222|268:222|266:218|266:218|270:219|270:219|268:215|268:215|273:216|273:216|271:212|271:212|275:212|275:212|273:208|273:208|277:209|277:209|276:205|276:205|280:206|280:206|278:202|278:202|282:203|282:203|280:199|280:199|285:200|285:200|283:196|283:196|287:197|287:197|285:193|285:193|290:193|290:193|288:189|288:189|290:189|290:189|295:162|278:142|278:142|261:121|267:95,1,200,0|0,0:0|0:0,0:0:0
367,29,109282,2,0,B|326:64|331:118,1,100,2|2,0:0|0:0,0:0:0
270,221,110219,1,0,0:0:0
389,225,110688,6,0,B|407:248|432:252|432:252|447:274|471:277,2,100,2|8|2,0:0|0:0|0:0,0:0:0
434,336,112094,1,4,0:0:0
314,325,112563,1,2,0:0:0
208,381,113032,2,0,B|156:349|156:349|133:343|119:355,2,100,0|2|0,0:0|0:0|0:0,0:0:0
163,269,114438,5,4,0:0:0
216,161,114907,2,0,B|246:97|246:97|276:91|276:91|293:68|293:68|310:46|337:37|356:42|356:42|363:95|410:121,1,300,4|4,0:0|0:0,0:0:0
445,235,116782,2,0,B|453:266|435:302|435:302|406:311|406:311|360:282|355:229|355:229|328:219|328:219|302:209|274:216|261:230,1,300,10|0,0:0|0:0,0:0:0
168,306,118657,1,0,0:0:0
146,188,119126,1,0,0:0:0
158,68,119594,6,0,B|98:60|98:60|76:51|73:32,1,100,8|0,0:0|0:0,0:0:0
153,120,120532,1,0,0:0:0
143,239,121001,2,0,B|134:292|87:317|87:317|173:366|173:366|263:323,1,300,0|0,0:0|0:0,0:0:0
177,238,122876,1,0,0:0:0
87,157,123344,6,0,B|55:164|33:198|33:198|39:228|39:228|49:203|35:180|35:180|22:156|32:132|32:132|52:34,1,300,0|0,0:0|0:0,0:0:0
10,146,125219,2,0,B|87:209,1,100,8|0,0:0|0:0,0:0:0
142,315,126157,1,0,0:0:0
245,375,126626,2,0,B|337:336,2,100,0|0|0,0:0|0:0|0:0,0:0:0
321,282,128032,6,0,B|339:255|378:246|378:246|404:262|404:262|503:274|503:274|455:298|445:350,1,300,8|0,0:0|0:0,0:0:0
327,375,129907,1,0,0:0:0
207,372,130376,1,2,0:0:0
106,306,130844,2,0,B|54:320|34:370,2,100,4|0|0,0:0|0:0|0:0,0:0:0
74,190,132251,6,0,B|86:159|71:122|71:122|43:109|43:109|16:12,2,200,0|6|0,0:0|0:0|0:0,0:0:0
118,78,134594,1,2,0:0:0
212,3,135063,2,0,B|244:65|244:65|231:92,1,100,2|0,0:0|0:0,0:0:0
116,56,136001,2,0,B|89:46|89:46|63:36|35:42|22:56|22:56|1:105|29:151,1,200,0|2,0:0|0:0,0:0:0
26,270,137407,5,2,0:0:0
77,378,137876,1,0,0:0:0
173,306,138344,1,0,0:0:0
282,355,138813,5,4,0:0:0
312,238,139282,2,0,B|362:219|407:248,1,100,0|0,0:0|0:0,0:0:0
316,169,140219,1,0,0:0:0
249,268,140688,5,8,0:0:0
199,258,140922,1,0,0:0:0
149,247,141157,1,0,0:0:0
57,324,141626,2,0,B|10:235|10:235|41:226|63:193|63:193|56:162,2,200,4|10|0,0:0|0:0|0:0,0:0:0
130,229,143969,2,0,B|124:129,1,100,0|0,0:0|0:0,0:0:0
243,130,144907,5,2,0:0:0
339,58,145376,2,0,B|350:27|385:8|385:8|415:18,2,100,6|0|0,0:0|0:0|0:0,0:0:0
405,158,146782,1,0,0:0:0
445,271,147251,2,0,B|391:272|358:230,1,100,0|0,0:0|0:0,0:0:0
455,160,148188,6,0,B|490:66,1,100,0|4,0:0|0:0,0:0:0
480,185,149126,1,4,0:0:0
424,291,149594,1,4,0:0:0
341,378,150063,1,2,0:0:0
271,280,150532,1,8,0:0:0
261,160,151001,5,4,0:0:0
189,63,151469,1,0,0:0:0
250,165,151938,1,0,0:0:0
250,165,152172,1,0,0:0:0
319,262,152641,1,0,0:0:0
319,262,152876,1,0,0:0:0
435,290,153344,1,0,0:0:0
495,186,153813,6,0,B|441:191|405:152|405:152|382:137|381:110|381:110|379:83|357:68,1,200,0|0,0:0|0:0,0:0:0
241,37,155219,2,0,B|214:17|175:21|175:21|155:45|155:45|107:70|59:47,1,200,0|0,0:0|0:0,0:0:0
66,166,156626,5,0,0:0:0
52,285,157094,2,0,B|116:312|116:312|124:341,1,100,0|4,0:0|0:0,0:0:0
242,362,158032,2,0,B|234:330|253:295|253:295|283:286,1,100,2|8,0:0|0:0,0:0:0
219,184,158969,6,0,B|228:124|228:124|238:102|257:100,1,100,0|2,0:0|0:0,0:0:0
219,214,159907,1,4,0:0:0
104,250,160376,2,0,B|55:263|55:263|70:215|70:215|32:253|40:306|40:306|63:354|116:364,1,300,2|0,0:0|0:0,0:0:0
235,378,162251,2,0,B|213:280,1,100,0|2,0:0|0:0,0:0:0
237,162,163188,5,2,0:0:0
204,46,163657,2,0,B|109:13|109:13|16:50,1,200,2|0,0:0|0:0,0:0:0
109,125,165063,5,0,0:0:0
118,244,165532,1,8,0:0:0
23,317,166001,1,2,0:0:0
134,362,166469,1,0,0:0:0
248,326,166938,5,0,0:0:0
132,295,167407,1,0,0:0:0
77,188,167876,1,8,0:0:0
7,90,168344,2,0,B|50:47|50:47|71:36|87:45,2,100,2|4|8,0:0|0:0|0:0,0:0:0
41,205,169751,6,0,B|48:258|10:296,1,100,0|0,0:0|0:0,0:0:0
129,310,170688,1,0,0:0:0
248,319,171157,1,2,0:0:0
205,206,171626,1,0,0:0:0
231,88,172094,2,0,B|205:79|197:53|197:53|188:28|163:19|163:19|170:50|150:85|150:85|120:93,1,200,8|0,0:0|0:0,0:0:0
124,212,173501,5,4,0:0:0
136,331,173969,1,0,0:0:0
93,358,174204,1,0,0:0:0
49,384,174438,1,0,0:0:0
142,308,174907,1,0,0:0:0
252,261,175376,6,0,B|270:241|264:214|264:214|259:188|277:168,1,100,2|8,0:0|0:0,0:0:0
258,49,176313,1,0,0:0:0
377,35,176782,1,8,0:0:0
453,127,177251,5,2,0:0:0
426,244,177719,2,0,B|409:266|409:266|393:289|366:299|347:295,1,100,4|0,0:0|0:0,0:0:0
249,364,178657,1,0,0:0:0
185,262,179126,2,0,B|86:244,1,100,0|8,0:0|0:0,0:0:0
38,133,180063,1,4,0:0:0
145,293,210063,5,0,0:0:0
145,293,210532,1,0,0:0:0
255,338,211001,2,0,B|259:305|290:280|290:280|321:283,1,100,4|0,0:0|0:0,0:0:0
244,190,211938,5,0,0:0:0
281,75,212407,1,0,0:0:0
391,27,212876,1,0,0:0:0
503,67,213344,6,0,B|437:142,1,100,0|0,0:0|0:0,0:0:0
343,217,214282,1,0,0:0:0
347,336,214751,1,12,0:0:0
464,362,215219,2,0,B|447:293|447:293|419:281,1,100,2|0,0:0|0:0,0:0:0
321,350,216157,5,2,0:0:0
321,350,216391,1,0,0:0:0
201,345,216860,1,0,0:0:0
201,345,217094,1,0,0:0:0
86,379,217563,5,6,0:0:0
45,266,218032,1,4,0:0:0
157,224,218501,1,0,0:0:0
184,107,218969,1,0,0:0:0
271,24,219438,5,0,0:0:0
389,7,219907,2,0,B|412:21|412:21|435:36|464:36|481:25|481:25|469:77|420:99|420:99|471:13,1,300,0|0,0:0|0:0,0:0:0
374,84,221782,5,0,0:0:0
254,92,222251,1,0,0:0:0
192,194,222719,5,0,0:0:0
192,194,222954,1,2,0:0:0
91,260,223422,1,4,0:0:0
91,260,223657,1,0,0:0:0
15,353,224126,1,0,0:0:0
66,244,224594,2,0,B|78:185|78:185|89:163|107:162|107:162|128:211|101:257|101:257|123:271|148:261|148:261|173:251|196:266,1,300,0|8,0:0|0:0,0:0:0
291,338,226469,5,0,0:0:0
410,329,226938,1,0,0:0:0
343,229,227407,1,0,0:0:0
247,156,227876,1,0,0:0:0
228,37,228344,5,0,0:0:0
117,83,228813,1,0,0:0:0
13,143,229282,2,0,B|26:84|26:84|25:60|9:51,1,100,2|0,0:0|0:0,0:0:0
128,42,230219,6,0,B|173:13|223:32,1,100,0|0,0:0|0:0,0:0:0
342,38,231157,1,4,0:0:0
460,54,231626,1,8,0:0:0
511,162,232094,2,0,B|505:62,2,100,0|0|0,0:0|0:0|0:0,0:0:0
489,280,233501,5,0,0:0:0
370,259,233969,1,0,0:0:0
289,347,234438,1,8,0:0:0
170,329,234907,1,4,0:0:0
108,226,235376,1,0,0:0:0
11,154,235844,5,8,0:0:0
11,34,236313,2,0,B|49:71|102:63|102:63|180:0,1,200,12|0,0:0|0:0,0:0:0
246,99,237719,2,0,B|288:131|288:185,1,100,4|10,0:0|0:0,0:0:0
286,304,238657,6,0,B|385:303,2,100,0|4|0,0:0|0:0|0:0,0:0:0
396,258,240063,1,0,0:0:0
509,220,240532,1,10,0:0:0
441,120,241001,1,0,0:0:0
500,16,241469,5,4,0:0:0
381,34,241938,1,0,0:0:0
381,34,242172,1,4,0:0:0
456,126,242641,1,0,0:0:0
456,126,242876,1,6,0:0:0
469,245,243344,1,0,0:0:0
393,338,243813,6,0,B|387:387|387:387|348:355,1,100,0|0,0:0|0:0,0:0:0
236,310,244751,1,10,0:0:0
186,200,245219,6,0,B|230:110,1,100,8|0,0:0|0:0,0:0:0
340,62,246157,2,0,B|360:80|360:80|381:99|388:126|382:145,1,100,0|0,0:0|0:0,0:0:0
394,264,247094,2,0,B|392:324|392:324|385:347|367:352,1,100,0|0,0:0|0:0,0:0:0
251,384,248032,1,0,0:0:0
140,338,248501,6,0,B|41:353,2,100,0|0|0,0:0|0:0|0:0,0:0:0
44,265,249907,1,2,0:0:0
51,145,250376,1,8,0:0:0
29,26,250844,1,0,0:0:0
147,44,251313,5,8,0:0:0
128,160,251782,1,0,0:0:0
223,136,252251,2,0,B|225:103|253:75|253:75|284:76|284:76|264:26|212:11|212:11|160:25|140:75,2,300,8|8|0,0:0|0:0|0:0,0:0:0
241,254,255532,1,0,0:0:0
360,259,256001,6,0,B|420:179,2,100,0|0|0,0:0|0:0|0:0,0:0:0
457,329,257407,2,0,B|455:268|455:268|461:245|479:239,1,100,0|0,0:0|0:0,0:0:0
359,233,258344,6,0,B|356:234|356:234|359:237|359:237|355:238|355:238|358:241|358:241|354:242|354:242|357:245|357:245|353:245|353:245|356:248|356:248|352:249|352:249|355:252|355:252|351:253|351:253|354:256|354:256|350:257|350:257|353:260|353:260|349:261|349:261|352:264|352:264|348:265|348:265|351:268|351:268|347:269|347:269|350:272|350:272|346:273|346:273|349:276|349:276|347:277,2,100,0|0|0,0:0|0:0|0:0,0:0:0
434,139,259751,2,0,B|418:117|427:91|427:91|435:66|420:44,1,100,0|10,0:0|0:0,0:0:0
467,154,260688,2,0,B|413:238,1,100,0|0,0:0|0:0,0:0:0
359,345,261626,6,0,B|304:371|304:371|281:375|268:361|268:361|256:261|256:261|277:212|330:200,2,300,2|0|0,0:0|0:0|0:0,0:0:0
410,236,264907,1,0,0:0:0
347,133,265376,1,2,0:0:0
240,77,265844,5,6,0:0:0
128,33,266313,2,0,B|30:53|30:53|51:102|25:148,2,200,2|0|0,0:0|0:0|0:0,0:0:0
24,94,268657,1,8,0:0:0
96,189,269126,5,0,0:0:0
175,278,269594,2,0,B|135:370|135:370|167:372|198:347|198:347|202:316,1,200,4|0,0:0|0:0,0:0:0
276,222,271001,1,0,0:0:0
329,329,271469,2,0,B|322:360|290:384|290:384|259:379,1,100,0|0,0:0|0:0,0:0:0
146,337,272407,6,0,B|46:342|46:342|113:268,1,200,0|8,0:0|0:0,0:0:0
219,323,273813,2,0,B|240:347|280:351|280:351|304:331,1,100,0|2,0:0|0:0,0:0:0
421,305,274751,1,2,0:0:0
380,192,275219,2,0,B|383:138|428:108|428:108|481:103|510:58,1,200,0|0,0:0|0:0,0:0:0
406,119,276626,5,0,0:0:0
291,155,277094,1,2,0:0:0
297,206,277329,1,0,0:0:0
303,256,277563,1,4,0:0:0
229,351,278032,6,0,B|286:391|286:391|315:383,1,100,8|0,0:0|0:0,0:0:0
288,266,278969,1,8,0:0:0
190,195,279438,1,0,0:0:0
70,182,279907,1,0,0:0:0
108,295,280376,1,0,0:0:0
225,270,280844,1,8,0:0:0
318,194,281313,2,0,B|337:220|376:228|376:228|402:211,1,100,2|4,0:0|0:0,0:0:0
506,152,282251,6,0,B|482:96|482:96|467:77|448:80,1,100,0|2,0:0|0:0,0:0:0
330,56,283188,1,0,0:0:0
286,30,283422,1,8,0:0:0
242,3,283657,1,0,0:0:0
337,76,284126,1,0,0:0:0
347,195,284594,6,0,B|372:249|372:249|388:267|407:264,1,100,0|8,0:0|0:0,0:0:0
464,158,285532,2,0,B|434:112|453:62|453:62|420:60|391:32|391:32|391:1,2,200,0|0|0,0:0|0:0|0:0,0:0:0
486,40,287876,1,2,0:0:0
367,21,288344,5,0,0:0:0
260,76,288813,2,0,B|235:54|195:54|195:54|174:77,2,100,0|2|0,0:0|0:0|0:0,0:0:0
379,60,290219,1,2,0:0:0
368,179,290688,5,0,0:0:0
282,262,291157,1,0,0:0:0
282,262,291391,1,0,0:0:0
250,377,291860,1,2,0:0:0
250,377,292094,1,0,0:0:0
366,347,292563,1,4,0:0:0
438,251,293032,6,0,B|436:151,1,100,8|8,0:0|0:0,0:0:0
379,45,293969,2,0,B|331:69|283:45,1,100,0|8,0:0|0:0,0:0:0
165,70,294907,1,2,0:0:0
47,92,295376,2,0,B|59:144|109:165,1,100,0|0,0:0|0:0,0:0:0
121,284,296313,6,0,B|219:303,1,100,4|10,0:0|0:0,0:0:0
318,235,297251,2,0,B|409:275,1,100,0|0,0:0|0:0,0:0:0
309,207,298188,2,0,B|349:242|345:295,1,100,0|0,0:0|0:0,0:0:0
435,374,299126,6,0,B|335:380,1,100,0|2,0:0|0:0,0:0:0
282,272,300063,2,0,B|274:243|286:220|286:220|278:195|289:174,1,100,8|2,0:0|0:0,0:0:0
269,55,301001,2,0,B|171:77,1,100,0|2,0:0|0:0,0:0:0
155,196,301938,1,2,0:0:0
88,295,302407,6,0,B|41:383|41:383|140:382|140:382|199:377|199:377|222:368|226:350,1,300,0|4,0:0|0:0,0:0:0
297,253,304282,2,0,B|259:219|259:219|308:206,1,100,0|4,0:0|0:0,0:0:0
423,237,305219,2,0,B|396:230|376:247|376:247|355:264|329:258|329:258|261:278|261:278|250:305|250:305|156:340,1,300,0|0,0:0|0:0,0:0:0
50,282,307094,5,0,0:0:0
68,163,307563,2,0,B|95:116|149:111,1,100,0|6,0:0|0:0,0:0:0
262,150,308501,2,0,B|293:189|293:189|309:141|309:141|406:161,1,200,2|8,0:0|0:0,0:0:0
362,272,309907,5,4,0:0:0
449,353,310376,2,0,B|484:259|484:259|460:243|460:243|437:228|408:228|392:238,1,200,8|4,0:0|0:0,0:0:0
336,131,311782,1,0,0:0:0
268,31,312251,6,0,B|232:91|232:91|202:95|202:95|134:115|134:115|110:97|110:97|77:93|51:63|51:63|53:32,1,300,8|0,0:0|0:0,0:0:0
166,70,314126,2,0,B|201:110|189:162,1,100,0|8,0:0|0:0,0:0:0
303,125,315063,1,0,0:0:0
367,23,315532,5,0,0:0:0
486,13,316001,1,0,0:0:0
396,93,316469,1,0,0:0:0
471,186,316938,5,0,0:0:0
477,305,317407,2,0,B|400:369,2,100,0|0|0,0:0|0:0|0:0,0:0:0
440,190,318813,2,0,B|362:126,1,100,8|0,0:0|0:0,0:0:0
243,143,319751,6,0,B|175:216,2,100,2|0|8,0:0|0:0|0:0,0:0:0
250,23,321157,1,0,0:0:0
345,95,321626,1,4,0:0:0
463,115,322094,1,8,0:0:0
352,162,322563,5,8,0:0:0
302,150,322797,1,0,0:0:0
252,138,323032,1,0,0:0:0
140,181,323501,1,10,0:0:0
78,283,323969,1,0,0:0:0
159,371,324438,6,0,B|193:309|193:309|223:305,1,100,0|6,0:0|0:0,0:0:0
309,221,325376,2,0,B|308:167|351:135,2,100,8|0|0,0:0|0:0|0:0,0:0:0
357,111,326782,1,0,0:0:0
404,221,327251,2,0,B|456:211|496:248|496:248|497:148,1,200,0|2,0:0|0:0,0:0:0
391,205,328657,5,2,0:0:0
453,307,329126,2,0,B|462:359|510:383,1,100,0|4,0:0|0:0,0:0:0
497,263,330063,1,0,0:0:0
