osu file format v14

[General]
AudioFilename: bm.mp3
AudioLeadIn: 0
PreviewTime: 51262
Countdown: 0
SampleSet: Soft
StackLeniency: 0.7
Mode: 3
LetterboxInBreaks: 0
SpecialStyle: 0
WidescreenStoryboard: 1

[Editor]
DistanceSpacing: 1.3
BeatDivisor: 16
GridSize: 4
TimelineZoom: 3.099998

[Metadata]
Title:Wagamama MIRROR HEART
TitleUnicode:ワガママMIRROR HEART
Artist:Ayaka Ohashi
ArtistUnicode:大橋彩香
Creator:SDVX KevinKun
Version:7K Insane
Source:政宗くんのリベンジ
Tags:masamune kun no revenge opening 1 wagamama mirror heart ayaka ohashi ワガママMIRROR HEART 大橋 彩香 真崎エリカ 加藤裕介 酒井拓也 Another_Lie
BeatmapID:1183183
BeatmapSetID:556705

[Difficulty]
HPDrainRate:8
CircleSize:7
OverallDifficulty:8
ApproachRate:5
SliderMultiplier:1.4
SliderTickRate:1

[Events]
//Background and Video events
0,0,"bg.jpg",0,0
Video,0,"storyboard.avi"
//Break Periods
//Storyboard Layer 0 (Background)
//Storyboard Layer 1 (Fail)
//Storyboard Layer 2 (Pass)
//Storyboard Layer 3 (Foreground)
//Storyboard Sound Samples

[TimingPoints]
1869.78745864157,331.491712707182,4,2,1,70,1,0
52256,-100,4,2,1,70,0,1
62035,-100,4,2,1,70,0,0
64024,-100,4,2,1,70,0,1
67836,-100,4,2,1,70,0,0
68168,-100,4,2,1,70,0,1
73471,-100,4,2,1,70,0,0
76123,-100,4,2,1,70,0,1
84079,-100,4,2,1,70,0,0

[HitObjects]
475,192,999,5,0,0:0:0:0:
329,192,1041,1,0,0:0:0:0:
182,192,1041,1,0,0:0:0:0:
36,192,1082,1,0,0:0:0:0:
402,192,1372,1,0,0:0:0:0:
329,192,1372,1,0,0:0:0:0:
256,192,1538,1,0,0:0:0:0:
182,192,1538,1,0,0:0:0:0:
64,192,1704,1,0,0:0:0:0:
109,192,1704,1,0,0:0:0:0:
448,192,1869,1,0,0:0:0:0:
402,192,1869,1,0,0:0:0:0:
182,192,1869,1,0,0:0:0:0:
64,192,2035,1,0,0:0:0:0:
320,192,2035,1,0,0:0:0:0:
256,192,2035,1,0,0:0:0:0:
448,192,2201,1,0,0:0:0:0:
320,192,2201,1,0,0:0:0:0:
109,192,2201,1,0,0:0:0:0:
64,192,2367,1,0,0:0:0:0:
320,192,2367,1,0,0:0:0:0:
192,192,2367,1,0,0:0:0:0:
402,192,2367,1,0,0:0:0:0:
64,192,3030,1,0,0:0:0:0:
256,192,3030,1,0,0:0:0:0:
448,192,3195,1,0,0:0:0:0:
192,192,3195,1,0,0:0:0:0:
402,192,3195,1,0,0:0:0:0:
320,192,3361,1,0,0:0:0:0:
64,192,3361,1,0,0:0:0:0:
256,192,3361,1,0,0:0:0:0:
192,192,3527,1,0,0:0:0:0:
448,192,3527,1,0,0:0:0:0:
109,192,3527,1,0,0:0:0:0:
320,192,3858,1,0,0:0:0:0:
448,192,3858,1,0,0:0:0:0:
402,192,3858,1,0,0:0:0:0:
192,192,4024,1,0,0:0:0:0:
320,192,4024,1,0,0:0:0:0:
36,192,4024,1,0,0:0:0:0:
64,192,4190,1,0,0:0:0:0:
192,192,4190,1,0,0:0:0:0:
256,192,4190,1,0,0:0:0:0:
192,192,4521,1,0,0:0:0:0:
320,192,4521,1,0,0:0:0:0:
475,192,4521,1,0,0:0:0:0:
64,192,4687,1,0,0:0:0:0:
256,192,4687,1,0,0:0:0:0:
448,192,4853,1,0,0:0:0:0:
320,192,4853,1,0,0:0:0:0:
182,192,4853,1,0,0:0:0:0:
448,192,5101,1,0,0:0:0:0:
36,192,5101,1,0,0:0:0:0:
402,192,5143,1,0,0:0:0:0:
109,192,5143,1,0,0:0:0:0:
329,192,5184,1,0,0:0:0:0:
182,192,5184,1,0,0:0:0:0:
320,192,5516,1,0,0:0:0:0:
64,192,5516,1,0,0:0:0:0:
475,192,5516,1,0,0:0:0:0:
448,192,5847,1,0,0:0:0:0:
192,192,5847,1,0,0:0:0:0:
329,192,5847,128,0,6344:0:0:0:0:
109,192,5847,1,0,0:0:0:0:
256,192,5847,128,0,7505:0:0:0:0:
64,192,6013,1,0,0:0:0:0:
192,192,6013,1,0,0:0:0:0:
402,192,6013,1,0,0:0:0:0:
448,192,6344,1,0,0:0:0:0:
64,192,6344,1,0,0:0:0:0:
402,192,6344,1,0,0:0:0:0:
182,192,6344,128,0,7505:0:0:0:0:
448,192,7505,1,0,0:0:0:0:
402,192,7505,1,0,0:0:0:0:
192,192,7670,1,0,0:0:0:0:
109,192,7670,1,0,0:0:0:0:
256,192,8002,1,0,0:0:0:0:
329,192,8043,1,0,0:0:0:0:
402,192,8085,1,0,0:0:0:0:
475,192,8126,1,0,0:0:0:0:
182,192,8168,1,0,0:0:0:0:
64,192,8168,1,0,0:0:0:0:
109,192,8251,1,0,0:0:0:0:
256,192,8251,1,0,0:0:0:0:
182,192,8333,1,0,0:0:0:0:
329,192,8333,1,0,0:0:0:0:
256,192,8416,1,0,0:0:0:0:
402,192,8416,1,0,0:0:0:0:
64,192,8499,1,0,0:0:0:0:
475,192,8499,1,0,0:0:0:0:
109,192,8499,1,0,0:0:0:0:
256,192,8665,1,0,0:0:0:0:
402,192,8665,1,0,0:0:0:0:
448,192,8831,1,0,0:0:0:0:
64,192,8831,1,0,0:0:0:0:
320,192,8831,1,0,0:0:0:0:
320,192,8996,1,0,0:0:0:0:
182,192,8996,1,0,0:0:0:0:
192,192,9162,1,0,0:0:0:0:
64,192,9162,1,0,0:0:0:0:
448,192,9162,1,0,0:0:0:0:
402,192,9328,1,0,0:0:0:0:
109,192,9328,1,0,0:0:0:0:
329,192,9328,1,0,0:0:0:0:
182,192,9494,1,0,0:0:0:0:
36,192,9494,1,0,0:0:0:0:
256,192,9659,1,0,0:0:0:0:
329,192,9659,1,0,0:0:0:0:
402,192,9659,1,0,0:0:0:0:
448,192,9825,1,0,0:0:0:0:
64,192,9825,1,0,0:0:0:0:
256,192,9825,1,0,0:0:0:0:
192,192,9991,1,0,0:0:0:0:
402,192,9991,1,0,0:0:0:0:
256,192,10074,1,0,0:0:0:0:
320,192,10157,1,0,0:0:0:0:
64,192,10157,1,0,0:0:0:0:
402,192,10157,1,0,0:0:0:0:
192,192,10322,1,0,0:0:0:0:
109,192,10322,1,0,0:0:0:0:
192,192,10488,1,0,0:0:0:0:
448,192,10488,1,0,0:0:0:0:
329,192,10488,1,0,0:0:0:0:
320,192,10654,1,0,0:0:0:0:
109,192,10654,1,0,0:0:0:0:
182,192,10820,1,0,0:0:0:0:
256,192,10820,1,0,0:0:0:0:
402,192,10820,1,0,0:0:0:0:
36,192,10985,1,2,0:0:0:0:
256,192,10985,1,0,0:0:0:0:
475,192,10985,1,0,0:0:0:0:
448,192,11151,1,0,0:0:0:0:
64,192,11151,1,2,0:0:0:0:
256,192,11151,1,0,0:0:0:0:
320,192,11317,1,0,0:0:0:0:
182,192,11317,1,0,0:0:0:0:
64,192,11483,1,0,0:0:0:0:
192,192,11483,1,0,0:0:0:0:
256,192,11483,1,0,0:0:0:0:
329,192,11648,1,0,0:0:0:0:
402,192,11648,1,0,0:0:0:0:
64,192,11731,1,0,0:0:0:0:
475,192,11731,1,0,0:0:0:0:
109,192,11731,1,0,0:0:0:0:
182,192,11814,1,0,0:0:0:0:
256,192,11814,1,0,0:0:0:0:
36,192,11855,1,0,0:0:0:0:
109,192,11897,1,0,0:0:0:0:
475,192,11938,1,0,0:0:0:0:
402,192,11980,1,0,0:0:0:0:
329,192,12021,1,0,0:0:0:0:
256,192,12063,1,0,0:0:0:0:
182,192,12104,1,0,0:0:0:0:
64,192,12146,1,0,0:0:0:0:
329,192,12146,1,0,0:0:0:0:
192,192,12311,1,0,0:0:0:0:
256,192,12311,1,0,0:0:0:0:
475,192,12311,1,0,0:0:0:0:
192,192,12477,1,0,0:0:0:0:
448,192,12477,1,0,0:0:0:0:
320,192,12643,1,0,0:0:0:0:
256,192,12684,1,0,0:0:0:0:
192,192,12726,1,0,0:0:0:0:
36,192,12767,1,0,0:0:0:0:
475,192,12809,1,0,0:0:0:0:
109,192,12809,1,0,0:0:0:0:
182,192,12850,1,0,0:0:0:0:
256,192,12891,1,0,0:0:0:0:
329,192,12933,1,0,0:0:0:0:
402,192,12974,1,0,0:0:0:0:
64,192,13057,1,0,0:0:0:0:
448,192,13140,1,0,0:0:0:0:
64,192,13223,1,0,0:0:0:0:
192,192,13306,1,0,0:0:0:0:
320,192,13306,1,2,0:0:0:0:
64,192,13471,1,0,0:0:0:0:
448,192,13471,1,8,0:0:0:0:
256,192,13471,1,0,0:0:0:0:
256,192,13637,1,2,0:0:0:0:
320,192,13720,1,2,0:0:0:0:
448,192,13803,1,2,0:0:0:0:
192,192,13803,1,0,0:0:0:0:
64,192,13803,128,0,13969:0:0:0:0:
256,192,13803,1,0,0:0:0:0:
320,192,13969,1,0,0:0:0:0:
192,192,13969,128,0,14134:0:0:0:0:
402,192,13969,1,0,0:0:0:0:
109,192,14134,1,0,0:0:0:0:
320,192,14134,1,2,0:0:0:0:
448,192,14134,128,0,14300:0:0:0:0:
36,192,14134,1,0,0:0:0:0:
256,192,14300,1,0,0:0:0:0:
320,192,14300,128,0,14632:0:0:0:0:
402,192,14300,1,0,0:0:0:0:
64,192,14466,1,0,0:0:0:0:
192,192,14466,1,2,0:0:0:0:
475,192,14466,1,0,0:0:0:0:
448,192,14632,1,0,0:0:0:0:
192,192,14632,128,0,14797:0:0:0:0:
256,192,14632,1,0,0:0:0:0:
448,192,14797,1,0,0:0:0:0:
320,192,14797,1,0,0:0:0:0:
64,192,14797,128,0,14963:0:0:0:0:
109,192,14797,1,2,0:0:0:0:
192,192,14963,1,0,0:0:0:0:
402,192,14963,128,0,15295:0:0:0:0:
475,192,14963,1,0,0:0:0:0:
256,192,14963,1,0,0:0:0:0:
320,192,15129,1,0,0:0:0:0:
192,192,15129,1,2,0:0:0:0:
36,192,15129,1,0,0:0:0:0:
320,192,15295,128,0,15460:0:0:0:0:
109,192,15295,1,0,0:0:0:0:
475,192,15295,1,0,0:0:0:0:
192,192,15460,1,0,0:0:0:0:
448,192,15460,1,0,0:0:0:0:
64,192,15460,128,0,15626:0:0:0:0:
256,192,15460,1,2,0:0:0:0:
448,192,15626,1,0,0:0:0:0:
192,192,15626,128,0,16123:0:0:0:0:
402,192,15626,1,0,0:0:0:0:
320,192,15792,1,2,0:0:0:0:
64,192,15792,1,0,0:0:0:0:
256,192,15792,1,0,0:0:0:0:
402,192,15958,1,0,0:0:0:0:
109,192,15958,1,0,0:0:0:0:
64,192,16123,1,0,0:0:0:0:
320,192,16123,1,8,0:0:0:0:
448,192,16123,1,0,0:0:0:0:
402,192,16289,1,2,0:0:0:0:
329,192,16372,1,2,0:0:0:0:
448,192,16455,1,0,0:0:0:0:
192,192,16455,1,2,0:0:0:0:
64,192,16455,128,0,16621:0:0:0:0:
109,192,16455,1,0,0:0:0:0:
320,192,16621,1,0,0:0:0:0:
448,192,16621,1,0,0:0:0:0:
192,192,16621,128,0,16786:0:0:0:0:
256,192,16621,1,2,0:0:0:0:
320,192,16786,1,0,0:0:0:0:
64,192,16786,1,0,0:0:0:0:
448,192,16786,128,0,16952:0:0:0:0:
109,192,16786,1,2,0:0:0:0:
192,192,16952,1,2,0:0:0:0:
64,192,16952,1,0,0:0:0:0:
320,192,16952,128,0,17284:0:0:0:0:
402,192,16952,1,0,0:0:0:0:
448,192,17118,1,0,0:0:0:0:
192,192,17118,1,0,0:0:0:0:
402,192,17118,1,2,0:0:0:0:
192,192,17284,1,2,0:0:0:0:
64,192,17284,1,0,0:0:0:0:
448,192,17284,128,0,17449:0:0:0:0:
402,192,17284,1,0,0:0:0:0:
64,192,17449,1,0,0:0:0:0:
320,192,17449,1,0,0:0:0:0:
192,192,17449,128,0,17615:0:0:0:0:
256,192,17449,1,2,0:0:0:0:
64,192,17615,1,0,0:0:0:0:
448,192,17615,1,0,0:0:0:0:
320,192,17615,128,0,17947:0:0:0:0:
109,192,17615,1,8,0:0:0:0:
192,192,17947,1,2,0:0:0:0:
448,192,17947,128,0,18112:0:0:0:0:
402,192,17947,1,0,0:0:0:0:
36,192,17947,1,0,0:0:0:0:
192,192,18112,1,8,0:0:0:0:
320,192,18112,1,0,0:0:0:0:
64,192,18112,128,0,18444:0:0:0:0:
402,192,18112,1,0,0:0:0:0:
402,192,18775,1,0,0:0:0:0:
329,192,18858,1,0,0:0:0:0:
256,192,18941,1,0,0:0:0:0:
64,192,19107,1,2,0:0:0:0:
320,192,19107,1,0,0:0:0:0:
448,192,19107,128,0,20433:0:0:0:0:
192,192,19107,1,0,0:0:0:0:
192,192,19438,1,2,0:0:0:0:
320,192,19438,1,0,0:0:0:0:
402,192,19438,1,0,0:0:0:0:
64,192,19770,1,0,0:0:0:0:
192,192,19770,1,0,0:0:0:0:
256,192,19770,1,2,0:0:0:0:
320,192,20101,1,0,0:0:0:0:
192,192,20101,1,2,0:0:0:0:
402,192,20101,1,0,0:0:0:0:
182,192,20267,1,0,0:0:0:0:
256,192,20350,1,0,0:0:0:0:
192,192,20433,1,2,0:0:0:0:
320,192,20433,128,0,21759:0:0:0:0:
64,192,20433,1,0,0:0:0:0:
109,192,20433,1,0,0:0:0:0:
448,192,20764,1,0,0:0:0:0:
256,192,20764,1,2,0:0:0:0:
402,192,20764,1,0,0:0:0:0:
64,192,21096,1,0,0:0:0:0:
448,192,21096,1,0,0:0:0:0:
109,192,21096,1,2,0:0:0:0:
192,192,21427,1,8,0:0:0:0:
64,192,21427,1,0,0:0:0:0:
448,192,21427,1,0,0:0:0:0:
402,192,21427,1,0,0:0:0:0:
448,192,21759,1,0,0:0:0:0:
192,192,21759,128,0,23085:0:0:0:0:
64,192,21759,1,0,0:0:0:0:
109,192,21759,1,2,0:0:0:0:
64,192,22090,1,0,0:0:0:0:
256,192,22090,1,2,0:0:0:0:
402,192,22090,1,0,0:0:0:0:
320,192,22422,1,2,0:0:0:0:
448,192,22422,1,0,0:0:0:0:
402,192,22422,1,0,0:0:0:0:
448,192,22753,1,0,0:0:0:0:
64,192,22753,1,0,0:0:0:0:
402,192,22753,1,2,0:0:0:0:
329,192,22919,1,0,0:0:0:0:
402,192,23002,1,0,0:0:0:0:
320,192,23085,1,0,0:0:0:0:
64,192,23085,128,0,24411:0:0:0:0:
448,192,23085,1,0,0:0:0:0:
256,192,23085,1,2,0:0:0:0:
192,192,23416,1,0,0:0:0:0:
320,192,23416,1,0,0:0:0:0:
109,192,23416,1,2,0:0:0:0:
182,192,23582,1,0,0:0:0:0:
256,192,23665,1,0,0:0:0:0:
448,192,23748,1,0,0:0:0:0:
320,192,23748,1,2,0:0:0:0:
402,192,23748,1,0,0:0:0:0:
192,192,24079,1,8,0:0:0:0:
448,192,24079,1,0,0:0:0:0:
320,192,24079,1,0,0:0:0:0:
109,192,24079,1,0,0:0:0:0:
320,192,24411,1,0,0:0:0:0:
192,192,24411,128,0,25737:0:0:0:0:
448,192,24411,1,0,0:0:0:0:
109,192,24411,1,2,0:0:0:0:
64,192,24742,1,0,0:0:0:0:
448,192,24742,1,0,0:0:0:0:
109,192,24742,1,2,0:0:0:0:
448,192,25074,1,0,0:0:0:0:
320,192,25074,1,0,0:0:0:0:
256,192,25074,1,2,0:0:0:0:
448,192,25405,1,0,0:0:0:0:
64,192,25405,1,0,0:0:0:0:
402,192,25405,1,2,0:0:0:0:
320,192,25737,1,0,0:0:0:0:
64,192,25737,128,0,27063:0:0:0:0:
448,192,25737,1,0,0:0:0:0:
256,192,25737,1,2,0:0:0:0:
448,192,26068,1,0,0:0:0:0:
320,192,26068,1,2,0:0:0:0:
109,192,26068,1,0,0:0:0:0:
192,192,26400,1,2,0:0:0:0:
448,192,26400,1,0,0:0:0:0:
256,192,26400,1,0,0:0:0:0:
448,192,26731,1,0,0:0:0:0:
192,192,26731,1,0,0:0:0:0:
320,192,26731,1,8,0:0:0:0:
402,192,26731,1,0,0:0:0:0:
320,192,27063,1,0,0:0:0:0:
448,192,27063,128,0,28389:0:0:0:0:
192,192,27063,1,0,0:0:0:0:
109,192,27063,1,2,0:0:0:0:
192,192,27394,1,2,0:0:0:0:
64,192,27394,1,0,0:0:0:0:
402,192,27394,1,0,0:0:0:0:
64,192,27726,1,0,0:0:0:0:
320,192,27726,1,2,0:0:0:0:
256,192,27726,1,0,0:0:0:0:
320,192,28057,1,2,0:0:0:0:
192,192,28057,1,0,0:0:0:0:
109,192,28057,1,0,0:0:0:0:
192,192,28389,1,2,0:0:0:0:
64,192,28389,128,0,29052:0:0:0:0:
320,192,28389,1,0,0:0:0:0:
402,192,28389,1,0,0:0:0:0:
320,192,28720,1,0,0:0:0:0:
192,192,28720,1,2,0:0:0:0:
475,192,28720,1,0,0:0:0:0:
192,192,29052,1,8,0:0:0:0:
109,192,29052,1,0,0:0:0:0:
448,192,29052,1,2,0:0:0:0:
402,192,29093,1,8,0:0:0:0:
320,192,29134,1,8,0:0:0:0:
256,192,29176,1,2,0:0:0:0:
36,192,29217,1,2,0:0:0:0:
109,192,29259,1,2,0:0:0:0:
182,192,29300,1,2,0:0:0:0:
256,192,29342,1,2,0:0:0:0:
402,192,29383,1,2,0:0:0:0:
329,192,29425,1,2,0:0:0:0:
256,192,29466,1,2,0:0:0:0:
182,192,29507,1,2,0:0:0:0:
402,192,29549,1,0,0:0:0:0:
64,192,29549,1,0,0:0:0:0:
448,192,29549,1,2,0:0:0:0:
320,192,29880,1,2,0:0:0:0:
192,192,29880,1,0,0:0:0:0:
192,192,30046,1,0,0:0:0:0:
64,192,30046,1,0,0:0:0:0:
448,192,30046,1,8,0:0:0:0:
192,192,30378,1,0,0:0:0:0:
448,192,30378,1,2,0:0:0:0:
109,192,30378,1,0,0:0:0:0:
320,192,30543,1,2,0:0:0:0:
64,192,30543,1,0,0:0:0:0:
192,192,30709,1,8,0:0:0:0:
448,192,30709,1,0,0:0:0:0:
64,192,30709,1,0,0:0:0:0:
402,192,30709,1,0,0:0:0:0:
320,192,30875,1,2,0:0:0:0:
448,192,30875,1,0,0:0:0:0:
256,192,30875,1,0,0:0:0:0:
64,192,31041,1,0,0:0:0:0:
192,192,31041,1,2,0:0:0:0:
109,192,31041,1,0,0:0:0:0:
192,192,31206,1,2,0:0:0:0:
448,192,31206,1,0,0:0:0:0:
256,192,31206,1,0,0:0:0:0:
192,192,31372,1,8,0:0:0:0:
448,192,31372,1,0,0:0:0:0:
320,192,31372,1,0,0:0:0:0:
109,192,31372,1,0,0:0:0:0:
192,192,31538,1,2,0:0:0:0:
64,192,31538,1,0,0:0:0:0:
402,192,31538,1,0,0:0:0:0:
320,192,31704,1,0,0:0:0:0:
64,192,31704,1,0,0:0:0:0:
256,192,31704,1,2,0:0:0:0:
192,192,31869,1,2,0:0:0:0:
448,192,31869,1,0,0:0:0:0:
402,192,31869,1,0,0:0:0:0:
64,192,32035,1,0,0:0:0:0:
192,192,32035,1,0,0:0:0:0:
448,192,32035,1,0,0:0:0:0:
256,192,32035,1,8,0:0:0:0:
320,192,32201,1,2,0:0:0:0:
64,192,32201,1,0,0:0:0:0:
402,192,32201,1,0,0:0:0:0:
320,192,32367,1,2,0:0:0:0:
192,192,32367,1,0,0:0:0:0:
256,192,32367,1,0,0:0:0:0:
448,192,32532,1,0,0:0:0:0:
320,192,32532,1,2,0:0:0:0:
109,192,32532,1,0,0:0:0:0:
448,192,32698,1,0,0:0:0:0:
192,192,32698,1,0,0:0:0:0:
64,192,32698,1,8,0:0:0:0:
256,192,32698,1,0,0:0:0:0:
192,192,32864,1,2,0:0:0:0:
448,192,32864,1,0,0:0:0:0:
402,192,32864,1,0,0:0:0:0:
64,192,33030,1,0,0:0:0:0:
320,192,33030,1,0,0:0:0:0:
256,192,33030,1,2,0:0:0:0:
192,192,33195,1,0,0:0:0:0:
320,192,33195,1,2,0:0:0:0:
109,192,33195,1,0,0:0:0:0:
192,192,33361,1,8,0:0:0:0:
448,192,33361,1,0,0:0:0:0:
320,192,33361,1,0,0:0:0:0:
402,192,33361,1,0,0:0:0:0:
192,192,33527,1,2,0:0:0:0:
448,192,33527,1,0,0:0:0:0:
256,192,33527,1,0,0:0:0:0:
320,192,33692,1,0,0:0:0:0:
64,192,33692,1,0,0:0:0:0:
109,192,33692,1,2,0:0:0:0:
64,192,33858,1,0,0:0:0:0:
192,192,33858,1,2,0:0:0:0:
402,192,33858,1,0,0:0:0:0:
192,192,34024,1,0,0:0:0:0:
320,192,34024,1,8,0:0:0:0:
448,192,34024,1,0,0:0:0:0:
256,192,34024,1,0,0:0:0:0:
192,192,34190,1,2,0:0:0:0:
448,192,34190,1,0,0:0:0:0:
109,192,34190,1,0,0:0:0:0:
64,192,34355,1,0,0:0:0:0:
320,192,34355,1,2,0:0:0:0:
402,192,34355,1,0,0:0:0:0:
320,192,34521,1,0,0:0:0:0:
64,192,34521,1,0,0:0:0:0:
182,192,34521,1,2,0:0:0:0:
192,192,34687,1,8,0:0:0:0:
448,192,34687,1,0,0:0:0:0:
64,192,34687,1,0,0:0:0:0:
402,192,34687,1,0,0:0:0:0:
192,192,35018,1,2,0:0:0:0:
64,192,35018,1,0,0:0:0:0:
448,192,35018,1,0,0:0:0:0:
256,192,35018,1,0,0:0:0:0:
320,192,35184,1,2,0:0:0:0:
192,192,35184,1,0,0:0:0:0:
109,192,35184,1,0,0:0:0:0:
64,192,35350,1,0,0:0:0:0:
192,192,35350,1,0,0:0:0:0:
448,192,35350,1,0,0:0:0:0:
402,192,35350,1,8,0:0:0:0:
320,192,35516,1,0,0:0:0:0:
64,192,35516,1,0,0:0:0:0:
256,192,35516,1,2,0:0:0:0:
192,192,35681,1,2,0:0:0:0:
320,192,35681,1,0,0:0:0:0:
109,192,35681,1,0,0:0:0:0:
192,192,35847,1,2,0:0:0:0:
448,192,35847,1,0,0:0:0:0:
402,192,35847,1,0,0:0:0:0:
320,192,36013,1,0,0:0:0:0:
448,192,36013,1,0,0:0:0:0:
64,192,36013,1,0,0:0:0:0:
256,192,36013,1,8,0:0:0:0:
192,192,36179,1,0,0:0:0:0:
320,192,36179,1,0,0:0:0:0:
402,192,36179,1,2,0:0:0:0:
448,192,36344,1,0,0:0:0:0:
192,192,36344,1,2,0:0:0:0:
109,192,36344,1,0,0:0:0:0:
64,192,36510,1,0,0:0:0:0:
320,192,36510,1,2,0:0:0:0:
402,192,36510,1,0,0:0:0:0:
320,192,36676,1,8,0:0:0:0:
64,192,36676,1,0,0:0:0:0:
448,192,36676,1,0,0:0:0:0:
182,192,36676,1,0,0:0:0:0:
320,192,36842,1,2,0:0:0:0:
448,192,36842,1,0,0:0:0:0:
109,192,36842,1,0,0:0:0:0:
402,192,36925,1,0,0:0:0:0:
64,192,37007,1,0,0:0:0:0:
192,192,37007,1,0,0:0:0:0:
448,192,37007,1,0,0:0:0:0:
256,192,37007,1,2,0:0:0:0:
402,192,37173,1,0,0:0:0:0:
256,192,37173,1,8,0:0:0:0:
320,192,37256,1,8,0:0:0:0:
64,192,37256,1,0,0:0:0:0:
448,192,37339,1,0,0:0:0:0:
192,192,37339,1,2,0:0:0:0:
64,192,37505,1,0,0:0:0:0:
192,192,37505,1,2,0:0:0:0:
402,192,37505,1,0,0:0:0:0:
256,192,38002,1,8,0:0:0:0:
320,192,38002,1,0,0:0:0:0:
448,192,38002,1,0,0:0:0:0:
64,192,38002,1,0,0:0:0:0:
448,192,38333,1,8,0:0:0:0:
402,192,38375,1,8,0:0:0:0:
320,192,38416,1,8,0:0:0:0:
256,192,38458,1,2,0:0:0:0:
36,192,38541,1,2,0:0:0:0:
109,192,38582,1,2,0:0:0:0:
182,192,38623,1,2,0:0:0:0:
256,192,38665,1,2,0:0:0:0:
329,192,38706,1,2,0:0:0:0:
402,192,38748,1,2,0:0:0:0:
475,192,38789,1,2,0:0:0:0:
182,192,38831,1,2,0:0:0:0:
64,192,38831,128,0,39079:0:0:0:0:
109,192,38831,1,0,0:0:0:0:
320,192,39162,1,0,0:0:0:0:
64,192,39162,128,0,39411:0:0:0:0:
256,192,39162,1,2,0:0:0:0:
192,192,39328,1,8,0:0:0:0:
448,192,39328,1,0,0:0:0:0:
109,192,39328,1,0,0:0:0:0:
320,192,39494,1,0,0:0:0:0:
448,192,39494,128,0,39991:0:0:0:0:
256,192,39494,1,2,0:0:0:0:
192,192,39825,1,2,0:0:0:0:
402,192,39825,1,0,0:0:0:0:
192,192,39991,1,0,0:0:0:0:
64,192,39991,1,0,0:0:0:0:
320,192,39991,128,0,40322:0:0:0:0:
256,192,39991,1,8,0:0:0:0:
192,192,40157,1,2,0:0:0:0:
109,192,40157,1,0,0:0:0:0:
64,192,40322,1,0,0:0:0:0:
448,192,40322,1,8,0:0:0:0:
182,192,40322,1,0,0:0:0:0:
256,192,40322,1,2,0:0:0:0:
192,192,40488,1,2,0:0:0:0:
448,192,40488,1,8,0:0:0:0:
109,192,40488,1,0,0:0:0:0:
402,192,40488,1,0,0:0:0:0:
320,192,40654,1,8,0:0:0:0:
64,192,40654,1,0,0:0:0:0:
256,192,40654,1,2,0:0:0:0:
109,192,40654,1,0,0:0:0:0:
448,192,40820,1,0,0:0:0:0:
402,192,40861,1,0,0:0:0:0:
320,192,40902,1,0,0:0:0:0:
256,192,40944,1,0,0:0:0:0:
192,192,40985,1,0,0:0:0:0:
109,192,41027,1,0,0:0:0:0:
64,192,41068,1,0,0:0:0:0:
329,192,41110,1,0,0:0:0:0:
192,192,41151,1,2,0:0:0:0:
448,192,41151,1,0,0:0:0:0:
402,192,41151,1,0,0:0:0:0:
320,192,41317,1,8,0:0:0:0:
448,192,41317,1,0,0:0:0:0:
64,192,41317,1,0,0:0:0:0:
64,192,41483,1,0,0:0:0:0:
192,192,41483,1,0,0:0:0:0:
448,192,41483,1,0,0:0:0:0:
256,192,41483,1,8,0:0:0:0:
320,192,41814,1,2,0:0:0:0:
109,192,41814,1,0,0:0:0:0:
192,192,41980,1,0,0:0:0:0:
448,192,41980,1,0,0:0:0:0:
256,192,41980,1,8,0:0:0:0:
64,192,42146,1,0,0:0:0:0:
182,192,42146,1,2,0:0:0:0:
109,192,42146,1,0,0:0:0:0:
402,192,42228,1,0,0:0:0:0:
329,192,42228,1,2,0:0:0:0:
475,192,42228,1,0,0:0:0:0:
36,192,42311,1,0,0:0:0:0:
182,192,42311,1,2,0:0:0:0:
109,192,42311,1,0,0:0:0:0:
192,192,42477,1,0,0:0:0:0:
256,192,42477,1,2,0:0:0:0:
402,192,42477,1,0,0:0:0:0:
448,192,42643,1,0,0:0:0:0:
320,192,42643,1,8,0:0:0:0:
64,192,42643,1,0,0:0:0:0:
109,192,42643,1,0,0:0:0:0:
192,192,42974,1,10,0:0:0:0:
448,192,42974,1,0,0:0:0:0:
109,192,42974,1,0,0:0:0:0:
320,192,43140,1,0,0:0:0:0:
64,192,43140,1,10,0:0:0:0:
475,192,43140,1,0,0:0:0:0:
192,192,43306,1,0,0:0:0:0:
448,192,43306,1,0,0:0:0:0:
109,192,43306,1,10,0:0:0:0:
64,192,43471,1,0,0:0:0:0:
109,192,43513,1,0,0:0:0:0:
192,192,43554,1,0,0:0:0:0:
256,192,43596,1,2,0:0:0:0:
320,192,43637,1,0,0:0:0:0:
109,192,43637,1,8,0:0:0:0:
402,192,43679,1,0,0:0:0:0:
448,192,43720,1,0,0:0:0:0:
182,192,43762,1,0,0:0:0:0:
329,192,43803,1,0,0:0:0:0:
36,192,43803,1,0,0:0:0:0:
109,192,43803,1,0,0:0:0:0:
320,192,43969,1,0,0:0:0:0:
448,192,43969,1,0,0:0:0:0:
182,192,43969,1,8,0:0:0:0:
64,192,44134,1,0,0:0:0:0:
256,192,44134,1,2,0:0:0:0:
320,192,44466,1,2,0:0:0:0:
109,192,44466,1,0,0:0:0:0:
192,192,44632,1,0,0:0:0:0:
448,192,44632,1,0,0:0:0:0:
256,192,44632,1,8,0:0:0:0:
320,192,44797,1,2,0:0:0:0:
402,192,44797,1,0,0:0:0:0:
475,192,44797,1,0,0:0:0:0:
192,192,44880,1,2,0:0:0:0:
36,192,44880,1,0,0:0:0:0:
109,192,44880,1,0,0:0:0:0:
320,192,44963,1,2,0:0:0:0:
402,192,44963,1,0,0:0:0:0:
475,192,44963,1,0,0:0:0:0:
64,192,45129,1,0,0:0:0:0:
182,192,45129,1,2,0:0:0:0:
320,192,45295,1,8,0:0:0:0:
448,192,45295,1,0,0:0:0:0:
109,192,45295,1,0,0:0:0:0:
64,192,45626,1,0,0:0:0:0:
182,192,45626,1,0,0:0:0:0:
402,192,45792,1,0,0:0:0:0:
320,192,45958,1,0,0:0:0:0:
64,192,46123,1,0,0:0:0:0:
475,192,46289,1,0,0:0:0:0:
256,192,46455,1,0,0:0:0:0:
109,192,46621,1,0,0:0:0:0:
182,192,46621,1,0,0:0:0:0:
402,192,46786,1,0,0:0:0:0:
256,192,46952,1,0,0:0:0:0:
192,192,47118,1,0,0:0:0:0:
320,192,47118,1,0,0:0:0:0:
320,192,47449,1,0,0:0:0:0:
256,192,47449,1,0,0:0:0:0:
192,192,47615,1,10,0:0:0:0:
64,192,47615,1,0,0:0:0:0:
448,192,47615,1,0,0:0:0:0:
402,192,47615,1,0,0:0:0:0:
192,192,47947,1,0,0:0:0:0:
320,192,47947,1,0,0:0:0:0:
64,192,47947,1,0,0:0:0:0:
256,192,47947,1,10,0:0:0:0:
448,192,48112,1,0,0:0:0:0:
320,192,48278,1,2,0:0:0:0:
36,192,48278,1,0,0:0:0:0:
320,192,48444,1,2,0:0:0:0:
109,192,48444,1,0,0:0:0:0:
192,192,48610,1,8,0:0:0:0:
64,192,48610,1,0,0:0:0:0:
448,192,48610,1,0,0:0:0:0:
256,192,48775,1,2,0:0:0:0:
329,192,48775,1,0,0:0:0:0:
64,192,48858,1,0,0:0:0:0:
192,192,48858,1,2,0:0:0:0:
109,192,48858,1,0,0:0:0:0:
320,192,48941,1,2,0:0:0:0:
448,192,48941,1,0,0:0:0:0:
402,192,48941,1,0,0:0:0:0:
64,192,49107,1,0,0:0:0:0:
192,192,49107,1,2,0:0:0:0:
448,192,49273,1,0,0:0:0:0:
192,192,49273,1,0,0:0:0:0:
320,192,49273,1,8,0:0:0:0:
402,192,49273,1,0,0:0:0:0:
320,192,49438,1,0,0:0:0:0:
64,192,49438,1,0,0:0:0:0:
192,192,49438,1,2,0:0:0:0:
192,192,49770,1,0,0:0:0:0:
64,192,49770,1,0,0:0:0:0:
402,192,49770,1,2,0:0:0:0:
64,192,49936,1,0,0:0:0:0:
182,192,49936,1,0,0:0:0:0:
402,192,49936,1,2,0:0:0:0:
64,192,50101,1,0,0:0:0:0:
192,192,50101,1,0,0:0:0:0:
402,192,50101,1,2,0:0:0:0:
320,192,50267,1,8,0:0:0:0:
64,192,50267,1,0,0:0:0:0:
402,192,50267,1,2,0:0:0:0:
256,192,50267,1,0,0:0:0:0:
64,192,50516,1,0,0:0:0:0:
320,192,50516,1,10,0:0:0:0:
256,192,50516,1,0,0:0:0:0:
182,192,50516,1,0,0:0:0:0:
64,192,50764,1,0,0:0:0:0:
192,192,50764,1,0,0:0:0:0:
256,192,50764,1,10,0:0:0:0:
109,192,50764,1,0,0:0:0:0:
320,192,50930,1,10,0:0:0:0:
448,192,50930,1,0,0:0:0:0:
64,192,50930,1,0,0:0:0:0:
402,192,50930,1,0,0:0:0:0:
36,192,51262,1,0,0:0:0:0:
182,192,51282,1,0,0:0:0:0:
329,192,51282,1,0,0:0:0:0:
475,192,51303,1,0,0:0:0:0:
192,192,51842,1,0,0:0:0:0:
256,192,51883,1,0,0:0:0:0:
329,192,51925,1,0,0:0:0:0:
402,192,51966,1,0,0:0:0:0:
475,192,52007,1,0,0:0:0:0:
36,192,52049,1,0,0:0:0:0:
109,192,52090,1,0,0:0:0:0:
182,192,52132,1,0,0:0:0:0:
256,192,52173,1,0,0:0:0:0:
329,192,52215,1,0,0:0:0:0:
192,192,52256,1,2,0:0:0:0:
64,192,52256,128,0,53582:0:0:0:0:
402,192,52256,1,0,0:0:0:0:
109,192,52256,1,0,0:0:0:0:
256,192,52422,1,0,0:0:0:0:
402,192,52422,1,0,0:0:0:0:
448,192,52588,1,0,0:0:0:0:
320,192,52588,1,8,0:0:0:0:
182,192,52588,1,0,0:0:0:0:
256,192,52588,1,0,0:0:0:0:
256,192,52753,1,0,0:0:0:0:
109,192,52753,1,0,0:0:0:0:
448,192,52919,1,0,0:0:0:0:
192,192,52919,1,2,0:0:0:0:
329,192,52919,1,0,0:0:0:0:
256,192,53085,1,0,0:0:0:0:
402,192,53085,1,0,0:0:0:0:
448,192,53251,1,0,0:0:0:0:
182,192,53251,1,8,0:0:0:0:
329,192,53251,1,0,0:0:0:0:
109,192,53251,1,0,0:0:0:0:
256,192,53416,1,0,0:0:0:0:
182,192,53416,1,0,0:0:0:0:
192,192,53582,1,2,0:0:0:0:
448,192,53582,128,0,54908:0:0:0:0:
109,192,53582,1,0,0:0:0:0:
329,192,53582,1,0,0:0:0:0:
402,192,53582,128,0,54245:0:0:0:0:
192,192,53748,1,0,0:0:0:0:
256,192,53748,1,0,0:0:0:0:
64,192,53913,1,0,0:0:0:0:
320,192,53913,1,0,0:0:0:0:
109,192,53913,1,8,0:0:0:0:
192,192,54079,1,0,0:0:0:0:
256,192,54079,1,0,0:0:0:0:
64,192,54245,1,0,0:0:0:0:
192,192,54245,1,2,0:0:0:0:
256,192,54245,128,0,54908:0:0:0:0:
320,192,54411,1,0,0:0:0:0:
109,192,54411,1,0,0:0:0:0:
320,192,54576,1,0,0:0:0:0:
64,192,54576,1,0,0:0:0:0:
402,192,54576,1,8,0:0:0:0:
192,192,54742,1,0,0:0:0:0:
109,192,54742,1,0,0:0:0:0:
64,192,54908,1,2,0:0:0:0:
320,192,54908,1,0,0:0:0:0:
182,192,54908,128,0,56234:0:0:0:0:
320,192,55074,1,0,0:0:0:0:
402,192,55074,1,0,0:0:0:0:
64,192,55239,1,0,0:0:0:0:
448,192,55239,1,0,0:0:0:0:
256,192,55239,1,8,0:0:0:0:
320,192,55405,1,0,0:0:0:0:
109,192,55405,1,0,0:0:0:0:
64,192,55571,1,2,0:0:0:0:
329,192,55571,1,0,0:0:0:0:
475,192,55737,1,0,0:0:0:0:
402,192,55737,1,0,0:0:0:0:
448,192,55902,1,0,0:0:0:0:
64,192,55902,1,0,0:0:0:0:
109,192,55902,1,8,0:0:0:0:
256,192,56068,1,0,0:0:0:0:
402,192,56068,1,0,0:0:0:0:
448,192,56234,1,0,0:0:0:0:
329,192,56234,1,2,0:0:0:0:
320,192,56400,1,0,0:0:0:0:
109,192,56400,1,0,0:0:0:0:
192,192,56565,1,8,0:0:0:0:
64,192,56565,1,0,0:0:0:0:
256,192,56565,1,0,0:0:0:0:
192,192,56731,1,2,0:0:0:0:
402,192,56731,128,0,56897:0:0:0:0:
109,192,56814,1,8,0:0:0:0:
329,192,56814,1,0,0:0:0:0:
192,192,56897,1,2,0:0:0:0:
64,192,56897,1,0,0:0:0:0:
256,192,56897,128,0,57063:0:0:0:0:
320,192,56980,1,2,0:0:0:0:
448,192,57063,1,2,0:0:0:0:
109,192,57063,128,0,57228:0:0:0:0:
64,192,57228,1,0,0:0:0:0:
320,192,57228,1,0,0:0:0:0:
402,192,57228,128,0,57560:0:0:0:0:
182,192,57228,1,8,0:0:0:0:
256,192,57394,1,0,0:0:0:0:
448,192,57560,1,2,0:0:0:0:
36,192,57560,1,0,0:0:0:0:
329,192,57560,128,0,58886:0:0:0:0:
192,192,57726,1,0,0:0:0:0:
109,192,57726,1,0,0:0:0:0:
64,192,57891,1,0,0:0:0:0:
192,192,57891,1,0,0:0:0:0:
256,192,57891,1,8,0:0:0:0:
448,192,58057,1,0,0:0:0:0:
402,192,58057,1,0,0:0:0:0:
448,192,58223,1,0,0:0:0:0:
109,192,58223,1,2,0:0:0:0:
192,192,58389,1,0,0:0:0:0:
256,192,58389,1,0,0:0:0:0:
64,192,58554,1,0,0:0:0:0:
448,192,58554,1,0,0:0:0:0:
109,192,58554,1,8,0:0:0:0:
192,192,58720,1,0,0:0:0:0:
256,192,58720,1,0,0:0:0:0:
448,192,58886,1,0,0:0:0:0:
192,192,58886,128,0,59549:0:0:0:0:
402,192,58886,1,2,0:0:0:0:
448,192,59052,1,0,0:0:0:0:
256,192,59052,1,0,0:0:0:0:
320,192,59217,1,8,0:0:0:0:
64,192,59217,1,0,0:0:0:0:
402,192,59217,1,0,0:0:0:0:
320,192,59383,1,0,0:0:0:0:
109,192,59383,1,0,0:0:0:0:
64,192,59549,1,0,0:0:0:0:
320,192,59549,1,2,0:0:0:0:
448,192,59549,128,0,60212:0:0:0:0:
320,192,59715,1,0,0:0:0:0:
402,192,59715,1,0,0:0:0:0:
64,192,59880,1,0,0:0:0:0:
192,192,59880,1,0,0:0:0:0:
256,192,59880,1,8,0:0:0:0:
192,192,60046,1,2,0:0:0:0:
402,192,60046,1,0,0:0:0:0:
64,192,60212,1,2,0:0:0:0:
320,192,60212,1,0,0:0:0:0:
448,192,60378,1,0,0:0:0:0:
192,192,60378,1,2,0:0:0:0:
192,192,60543,1,0,0:0:0:0:
64,192,60543,1,0,0:0:0:0:
320,192,60543,1,8,0:0:0:0:
109,192,60543,128,0,60709:0:0:0:0:
448,192,60709,1,0,0:0:0:0:
402,192,60709,1,2,0:0:0:0:
256,192,60709,128,0,61206:0:0:0:0:
320,192,60875,1,2,0:0:0:0:
192,192,60875,1,0,0:0:0:0:
448,192,61041,1,0,0:0:0:0:
109,192,61041,1,2,0:0:0:0:
192,192,61206,1,8,0:0:0:0:
64,192,61206,1,0,0:0:0:0:
448,192,61206,1,0,0:0:0:0:
320,192,61372,1,2,0:0:0:0:
448,192,61372,1,0,0:0:0:0:
192,192,61372,1,0,0:0:0:0:
402,192,61372,128,0,61869:0:0:0:0:
320,192,61704,1,0,0:0:0:0:
64,192,61704,1,0,0:0:0:0:
256,192,61704,1,2,0:0:0:0:
448,192,61869,1,0,0:0:0:0:
192,192,61869,1,8,0:0:0:0:
64,192,61869,1,0,0:0:0:0:
320,192,62035,1,2,0:0:0:0:
402,192,62035,1,0,0:0:0:0:
192,192,62201,1,2,0:0:0:0:
256,192,62201,1,0,0:0:0:0:
448,192,62532,1,0,0:0:0:0:
402,192,62574,1,0,0:0:0:0:
320,192,62615,1,0,0:0:0:0:
36,192,62657,1,0,0:0:0:0:
109,192,62698,1,0,0:0:0:0:
475,192,62698,1,0,0:0:0:0:
182,192,62739,1,0,0:0:0:0:
256,192,62781,1,0,0:0:0:0:
329,192,62822,1,0,0:0:0:0:
64,192,62864,1,0,0:0:0:0:
448,192,62864,1,0,0:0:0:0:
192,192,62864,1,10,0:0:0:0:
192,192,63030,1,10,0:0:0:0:
320,192,63030,1,0,0:0:0:0:
64,192,63030,1,0,0:0:0:0:
320,192,63195,1,0,0:0:0:0:
192,192,63195,1,10,0:0:0:0:
448,192,63195,1,0,0:0:0:0:
448,192,63361,1,0,0:0:0:0:
64,192,63361,1,0,0:0:0:0:
256,192,63361,1,10,0:0:0:0:
64,192,63527,1,0,0:0:0:0:
192,192,63527,1,10,0:0:0:0:
448,192,63527,1,0,0:0:0:0:
448,192,63692,1,0,0:0:0:0:
64,192,63692,1,0,0:0:0:0:
182,192,63692,1,10,0:0:0:0:
402,192,63734,1,0,0:0:0:0:
320,192,63775,1,0,0:0:0:0:
256,192,63817,1,0,0:0:0:0:
192,192,63858,1,0,0:0:0:0:
109,192,63900,1,0,0:0:0:0:
64,192,63941,1,0,0:0:0:0:
192,192,64024,1,2,0:0:0:0:
448,192,64024,1,0,0:0:0:0:
320,192,64024,1,0,0:0:0:0:
320,192,64190,1,2,0:0:0:0:
64,192,64190,1,0,0:0:0:0:
448,192,64190,128,0,65516:0:0:0:0:
320,192,64355,1,0,0:0:0:0:
182,192,64355,1,0,0:0:0:0:
64,192,64521,1,0,0:0:0:0:
192,192,64521,1,8,0:0:0:0:
256,192,64521,1,0,0:0:0:0:
320,192,64687,1,0,0:0:0:0:
402,192,64687,1,0,0:0:0:0:
192,192,64853,1,2,0:0:0:0:
64,192,64853,1,0,0:0:0:0:
256,192,65018,1,0,0:0:0:0:
109,192,65018,1,0,0:0:0:0:
320,192,65184,1,0,0:0:0:0:
64,192,65184,1,0,0:0:0:0:
256,192,65184,1,8,0:0:0:0:
192,192,65350,1,0,0:0:0:0:
402,192,65350,1,0,0:0:0:0:
64,192,65516,1,0,0:0:0:0:
320,192,65516,1,0,0:0:0:0:
256,192,65516,1,2,0:0:0:0:
192,192,65681,1,2,0:0:0:0:
448,192,65681,1,0,0:0:0:0:
402,192,65681,1,0,0:0:0:0:
448,192,65847,1,0,0:0:0:0:
320,192,65847,1,0,0:0:0:0:
64,192,65847,1,0,0:0:0:0:
256,192,65847,1,8,0:0:0:0:
448,192,66179,1,0,0:0:0:0:
192,192,66179,1,2,0:0:0:0:
109,192,66179,1,0,0:0:0:0:
320,192,66344,1,0,0:0:0:0:
64,192,66344,1,0,0:0:0:0:
256,192,66344,1,2,0:0:0:0:
192,192,66510,1,8,0:0:0:0:
64,192,66510,1,0,0:0:0:0:
448,192,66510,1,0,0:0:0:0:
402,192,66510,1,0,0:0:0:0:
192,192,66842,1,2,0:0:0:0:
448,192,66842,1,0,0:0:0:0:
109,192,66842,1,0,0:0:0:0:
320,192,67007,1,0,0:0:0:0:
192,192,67007,1,2,0:0:0:0:
402,192,67007,1,0,0:0:0:0:
192,192,67173,1,0,0:0:0:0:
64,192,67173,1,0,0:0:0:0:
448,192,67173,1,0,0:0:0:0:
256,192,67173,1,8,0:0:0:0:
320,192,67339,1,0,0:0:0:0:
192,192,67339,1,2,0:0:0:0:
402,192,67339,1,0,0:0:0:0:
192,192,67670,1,2,0:0:0:0:
402,192,67670,1,0,0:0:0:0:
320,192,67836,1,0,0:0:0:0:
64,192,67836,1,0,0:0:0:0:
256,192,67836,1,8,0:0:0:0:
192,192,68168,1,0,0:0:0:0:
448,192,68168,1,2,0:0:0:0:
64,192,68168,128,0,69494:0:0:0:0:
320,192,68333,1,0,0:0:0:0:
109,192,68333,1,0,0:0:0:0:
192,192,68499,1,8,0:0:0:0:
320,192,68499,1,0,0:0:0:0:
402,192,68499,1,0,0:0:0:0:
448,192,68665,1,0,0:0:0:0:
256,192,68665,1,0,0:0:0:0:
192,192,68831,1,2,0:0:0:0:
320,192,68831,1,0,0:0:0:0:
192,192,68996,1,0,0:0:0:0:
402,192,68996,1,0,0:0:0:0:
448,192,69162,1,0,0:0:0:0:
320,192,69162,1,0,0:0:0:0:
109,192,69162,1,8,0:0:0:0:
192,192,69328,1,0,0:0:0:0:
256,192,69328,1,0,0:0:0:0:
320,192,69494,1,2,0:0:0:0:
402,192,69494,1,0,0:0:0:0:
182,192,69494,128,0,70820:0:0:0:0:
448,192,69659,1,0,0:0:0:0:
256,192,69659,1,0,0:0:0:0:
320,192,69825,1,0,0:0:0:0:
64,192,69825,1,8,0:0:0:0:
402,192,69825,1,0,0:0:0:0:
109,192,69991,1,0,0:0:0:0:
256,192,69991,1,0,0:0:0:0:
402,192,70157,1,2,0:0:0:0:
448,192,70157,1,0,0:0:0:0:
320,192,70322,1,0,0:0:0:0:
109,192,70322,1,0,0:0:0:0:
64,192,70488,1,8,0:0:0:0:
448,192,70488,1,0,0:0:0:0:
256,192,70488,1,0,0:0:0:0:
329,192,70654,1,0,0:0:0:0:
109,192,70654,1,0,0:0:0:0:
448,192,70820,1,0,0:0:0:0:
320,192,70820,1,10,0:0:0:0:
402,192,70820,1,0,0:0:0:0:
320,192,70985,1,10,0:0:0:0:
192,192,70985,1,0,0:0:0:0:
402,192,70985,1,0,0:0:0:0:
64,192,71151,1,0,0:0:0:0:
192,192,71151,1,0,0:0:0:0:
256,192,71151,1,10,0:0:0:0:
320,192,71317,1,0,0:0:0:0:
448,192,71317,1,0,0:0:0:0:
109,192,71317,1,10,0:0:0:0:
192,192,71483,1,10,0:0:0:0:
320,192,71483,1,0,0:0:0:0:
256,192,71483,1,0,0:0:0:0:
64,192,71648,1,0,0:0:0:0:
402,192,71648,1,0,0:0:0:0:
256,192,71648,1,10,0:0:0:0:
320,192,71814,1,0,0:0:0:0:
448,192,71814,1,0,0:0:0:0:
109,192,71814,1,8,0:0:0:0:
182,192,71814,1,0,0:0:0:0:
64,192,71980,1,0,0:0:0:0:
192,192,71980,1,0,0:0:0:0:
448,192,71980,1,0,0:0:0:0:
320,192,72311,1,8,0:0:0:0:
448,192,72311,128,0,72477:0:0:0:0:
192,192,72394,1,8,0:0:0:0:
109,192,72477,1,8,0:0:0:0:
64,192,72643,1,0,0:0:0:0:
320,192,72643,1,0,0:0:0:0:
256,192,72643,1,2,0:0:0:0:
64,192,72809,128,0,72974:0:0:0:0:
182,192,72809,1,8,0:0:0:0:
402,192,72891,1,8,0:0:0:0:
256,192,72974,1,8,0:0:0:0:
64,192,73140,1,0,0:0:0:0:
182,192,73140,1,2,0:0:0:0:
320,192,73306,1,8,0:0:0:0:
448,192,73306,1,0,0:0:0:0:
64,192,73389,1,0,0:0:0:0:
109,192,73389,1,8,0:0:0:0:
448,192,73471,1,0,0:0:0:0:
256,192,73471,1,2,0:0:0:0:
402,192,73471,1,0,0:0:0:0:
320,192,73637,1,0,0:0:0:0:
192,192,73637,1,2,0:0:0:0:
109,192,73637,1,0,0:0:0:0:
448,192,73803,1,0,0:0:0:0:
256,192,73803,1,0,0:0:0:0:
64,192,73969,1,0,0:0:0:0:
320,192,73969,1,2,0:0:0:0:
402,192,73969,1,0,0:0:0:0:
192,192,74134,1,2,0:0:0:0:
448,192,74134,1,0,0:0:0:0:
109,192,74134,1,0,0:0:0:0:
448,192,74466,1,0,0:0:0:0:
192,192,74466,1,2,0:0:0:0:
402,192,74466,1,0,0:0:0:0:
320,192,74632,1,0,0:0:0:0:
64,192,74632,1,0,0:0:0:0:
256,192,74632,1,2,0:0:0:0:
192,192,74963,1,8,0:0:0:0:
402,192,74963,1,0,0:0:0:0:
475,192,74963,1,0,0:0:0:0:
329,192,75129,1,2,0:0:0:0:
64,192,75129,1,0,0:0:0:0:
192,192,75295,1,0,0:0:0:0:
402,192,75295,1,2,0:0:0:0:
320,192,75460,1,8,0:0:0:0:
448,192,75460,1,0,0:0:0:0:
256,192,75460,1,0,0:0:0:0:
64,192,75626,1,0,0:0:0:0:
182,192,75626,1,2,0:0:0:0:
448,192,75792,1,0,0:0:0:0:
329,192,75792,1,0,0:0:0:0:
109,192,75792,1,8,0:0:0:0:
402,192,75958,1,0,0:0:0:0:
256,192,75958,1,2,0:0:0:0:
64,192,76123,1,0,0:0:0:0:
402,192,76123,128,0,77449:0:0:0:0:
109,192,76123,1,0,0:0:0:0:
182,192,76123,1,10,0:0:0:0:
320,192,76289,1,0,0:0:0:0:
256,192,76289,1,0,0:0:0:0:
64,192,76455,1,0,0:0:0:0:
192,192,76455,1,10,0:0:0:0:
109,192,76455,1,0,0:0:0:0:
320,192,76621,1,0,0:0:0:0:
256,192,76621,1,0,0:0:0:0:
192,192,76786,1,10,0:0:0:0:
64,192,76786,1,0,0:0:0:0:
109,192,76786,1,0,0:0:0:0:
320,192,76952,1,0,0:0:0:0:
256,192,76952,1,0,0:0:0:0:
64,192,77118,1,0,0:0:0:0:
192,192,77118,1,10,0:0:0:0:
109,192,77118,1,0,0:0:0:0:
320,192,77284,1,0,0:0:0:0:
256,192,77284,1,0,0:0:0:0:
182,192,77449,128,0,78775:0:0:0:0:
256,192,77449,1,10,0:0:0:0:
329,192,77449,1,0,0:0:0:0:
475,192,77449,1,0,0:0:0:0:
64,192,77615,1,0,0:0:0:0:
109,192,77615,1,0,0:0:0:0:
448,192,77781,1,0,0:0:0:0:
402,192,77781,1,0,0:0:0:0:
329,192,77781,1,10,0:0:0:0:
64,192,77947,1,0,0:0:0:0:
109,192,77947,1,0,0:0:0:0:
448,192,78112,1,0,0:0:0:0:
402,192,78112,1,0,0:0:0:0:
329,192,78112,1,10,0:0:0:0:
64,192,78278,1,0,0:0:0:0:
109,192,78278,1,0,0:0:0:0:
320,192,78444,1,10,0:0:0:0:
448,192,78444,1,0,0:0:0:0:
402,192,78444,1,0,0:0:0:0:
36,192,78610,1,0,0:0:0:0:
109,192,78610,1,0,0:0:0:0:
448,192,78775,1,0,0:0:0:0:
109,192,78775,128,0,79936:0:0:0:0:
402,192,78775,1,0,0:0:0:0:
329,192,78775,1,10,0:0:0:0:
256,192,78941,1,0,0:0:0:0:
182,192,78941,1,0,0:0:0:0:
320,192,79107,1,10,0:0:0:0:
448,192,79107,1,0,0:0:0:0:
402,192,79107,1,0,0:0:0:0:
192,192,79273,1,0,0:0:0:0:
256,192,79273,1,0,0:0:0:0:
448,192,79438,1,0,0:0:0:0:
320,192,79438,1,10,0:0:0:0:
402,192,79438,1,0,0:0:0:0:
256,192,79604,1,0,0:0:0:0:
182,192,79604,1,0,0:0:0:0:
320,192,79770,1,10,0:0:0:0:
448,192,79770,1,0,0:0:0:0:
402,192,79770,1,0,0:0:0:0:
192,192,79936,1,0,0:0:0:0:
256,192,79936,128,0,80101:0:0:0:0:
329,192,79936,1,0,0:0:0:0:
192,192,80101,1,10,0:0:0:0:
64,192,80101,1,0,0:0:0:0:
475,192,80101,128,0,80599:0:0:0:0:
109,192,80101,1,0,0:0:0:0:
320,192,80267,1,0,0:0:0:0:
402,192,80267,1,0,0:0:0:0:
64,192,80433,1,0,0:0:0:0:
109,192,80433,1,0,0:0:0:0:
182,192,80433,1,10,0:0:0:0:
402,192,80599,128,0,80764:0:0:0:0:
182,192,80599,1,0,0:0:0:0:
256,192,80681,1,0,0:0:0:0:
64,192,80764,1,0,0:0:0:0:
109,192,80764,128,0,81427:0:0:0:0:
182,192,80764,1,10,0:0:0:0:
329,192,80764,1,0,0:0:0:0:
402,192,80930,1,0,0:0:0:0:
475,192,80930,1,0,0:0:0:0:
192,192,81096,1,10,0:0:0:0:
320,192,81096,1,0,0:0:0:0:
36,192,81096,1,0,0:0:0:0:
402,192,81262,1,0,0:0:0:0:
475,192,81262,1,0,0:0:0:0:
320,192,81427,1,0,0:0:0:0:
256,192,81427,1,10,0:0:0:0:
402,192,81427,1,0,0:0:0:0:
36,192,81593,1,0,0:0:0:0:
182,192,81593,1,0,0:0:0:0:
256,192,81759,1,10,0:0:0:0:
329,192,81759,1,0,0:0:0:0:
402,192,81759,1,0,0:0:0:0:
64,192,81925,1,0,0:0:0:0:
109,192,81925,1,0,0:0:0:0:
256,192,82090,1,10,0:0:0:0:
329,192,82090,1,0,0:0:0:0:
402,192,82090,1,0,0:0:0:0:
448,192,82256,1,0,0:0:0:0:
64,192,82256,1,0,0:0:0:0:
320,192,82422,1,0,0:0:0:0:
402,192,82422,1,0,0:0:0:0:
256,192,82422,1,10,0:0:0:0:
64,192,82588,1,0,0:0:0:0:
182,192,82588,1,0,0:0:0:0:
64,192,82753,1,0,0:0:0:0:
192,192,82753,1,0,0:0:0:0:
109,192,82753,1,10,0:0:0:0:
320,192,82919,1,0,0:0:0:0:
256,192,82919,1,0,0:0:0:0:
64,192,83085,1,0,0:0:0:0:
109,192,83085,1,10,0:0:0:0:
182,192,83085,1,0,0:0:0:0:
329,192,83251,1,0,0:0:0:0:
402,192,83251,1,0,0:0:0:0:
64,192,83416,1,0,0:0:0:0:
192,192,83416,1,0,0:0:0:0:
109,192,83416,1,10,0:0:0:0:
448,192,83582,1,0,0:0:0:0:
402,192,83582,1,0,0:0:0:0:
64,192,83748,1,0,0:0:0:0:
109,192,83748,1,10,0:0:0:0:
182,192,83748,1,0,0:0:0:0:
402,192,83913,1,0,0:0:0:0:
475,192,83913,1,0,0:0:0:0:
192,192,84079,1,2,0:0:0:0:
448,192,84079,1,0,0:0:0:0:
320,192,84079,1,0,0:0:0:0:
109,192,84079,1,0,0:0:0:0:
192,192,84245,1,2,0:0:0:0:
448,192,84245,1,0,0:0:0:0:
320,192,84245,1,0,0:0:0:0:
109,192,84245,1,0,0:0:0:0:
448,192,84411,1,0,0:0:0:0:
192,192,84411,1,0,0:0:0:0:
64,192,84411,1,0,0:0:0:0:
320,192,84411,1,0,0:0:0:0:
256,192,84411,1,8,0:0:0:0:
320,192,84742,1,0,0:0:0:0:
64,192,84742,1,0,0:0:0:0:
192,192,84742,1,0,0:0:0:0:
256,192,84742,1,2,0:0:0:0:
64,192,84908,1,0,0:0:0:0:
320,192,84908,1,0,0:0:0:0:
192,192,84908,1,2,0:0:0:0:
256,192,84908,1,0,0:0:0:0:
320,192,85074,1,0,0:0:0:0:
64,192,85074,1,0,0:0:0:0:
448,192,85074,1,0,0:0:0:0:
192,192,85074,1,8,0:0:0:0:
402,192,85074,1,0,0:0:0:0:
448,192,85405,1,0,0:0:0:0:
192,192,85405,1,2,0:0:0:0:
320,192,85405,1,0,0:0:0:0:
402,192,85405,1,0,0:0:0:0:
320,192,85571,1,0,0:0:0:0:
64,192,85571,1,0,0:0:0:0:
109,192,85571,1,0,0:0:0:0:
182,192,85571,1,2,0:0:0:0:
192,192,85737,1,0,0:0:0:0:
64,192,85737,1,0,0:0:0:0:
448,192,85737,1,0,0:0:0:0:
320,192,85737,1,0,0:0:0:0:
256,192,85737,1,8,0:0:0:0:
64,192,86068,1,0,0:0:0:0:
320,192,86068,1,0,0:0:0:0:
448,192,86068,1,0,0:0:0:0:
109,192,86068,1,2,0:0:0:0:
192,192,86234,1,2,0:0:0:0:
448,192,86234,1,0,0:0:0:0:
64,192,86234,1,0,0:0:0:0:
402,192,86234,1,0,0:0:0:0:
320,192,86400,1,0,0:0:0:0:
448,192,86400,1,0,0:0:0:0:
64,192,86400,1,0,0:0:0:0:
192,192,86400,1,0,0:0:0:0:
256,192,86400,1,8,0:0:0:0:
192,192,86565,1,0,0:0:0:0:
475,192,86565,1,0,0:0:0:0:
109,192,86648,1,0,0:0:0:0:
402,192,86648,1,0,0:0:0:0:
320,192,86731,1,0,0:0:0:0:
64,192,86731,1,0,0:0:0:0:
256,192,86731,1,0,0:0:0:0:
109,192,86897,1,0,0:0:0:0:
182,192,86897,1,0,0:0:0:0:
320,192,87063,1,0,0:0:0:0:
256,192,87063,1,0,0:0:0:0:
402,192,87063,1,0,0:0:0:0:
109,192,87228,1,0,0:0:0:0:
475,192,87228,1,0,0:0:0:0:
64,192,87394,1,0,0:0:0:0:
192,192,87394,1,0,0:0:0:0:
402,192,87394,1,0,0:0:0:0:
320,192,87560,1,0,0:0:0:0:
256,192,87560,1,0,0:0:0:0:
448,192,87726,1,0,0:0:0:0:
192,192,87726,1,0,0:0:0:0:
402,192,87726,1,0,0:0:0:0:
320,192,87891,1,0,0:0:0:0:
109,192,87891,1,0,0:0:0:0:
256,192,87974,1,0,0:0:0:0:
192,192,88057,1,0,0:0:0:0:
64,192,88057,1,0,0:0:0:0:
109,192,88057,1,0,0:0:0:0:
320,192,88223,1,0,0:0:0:0:
109,192,88223,1,0,0:0:0:0:
64,192,88389,1,0,0:0:0:0:
448,192,88389,1,0,0:0:0:0:
256,192,88389,1,0,0:0:0:0:
192,192,88554,1,0,0:0:0:0:
329,192,88554,1,0,0:0:0:0:
320,192,88720,1,0,0:0:0:0:
64,192,88720,1,0,0:0:0:0:
402,192,88720,1,0,0:0:0:0:
192,192,88886,1,0,0:0:0:0:
64,192,88886,1,0,0:0:0:0:
109,192,88886,1,2,0:0:0:0:
448,192,89052,1,0,0:0:0:0:
402,192,89052,1,0,0:0:0:0:
329,192,89052,1,2,0:0:0:0:
36,192,89217,128,0,89632:0:0:0:0:
109,192,89217,128,0,89549:0:0:0:0:
256,192,89217,128,0,89466:0:0:0:0:
475,192,89217,128,0,89383:0:0:0:0:
