osu file format v5

[General]
AudioFilename: Ayaka Hirahara-The wind of the beginning.mp3
AudioLeadIn: 1985
PreviewTime: -1
Countdown: 1
SampleSet: Soft
StackLeniency: 0.7
Mode: 0
LetterboxInBreaks: 1
EditorBookmarks: 38471

[Metadata]
Title:The wind of the beginning
Artist:Ayaka Hirahara
Creator:KLoveSKY
Version:Sing
Source:
Tags:

[Difficulty]
HPDrainRate:4
CircleSize:3
OverallDifficulty:3
SliderMultiplier:1.3
SliderTickRate:2

[Events]
//Background and Video events
0,0,"302050406.jpg"
//Break Periods
2,20193,37271
//Storyboard Layer 0 (Background)
//Storyboard Layer 1 (Failing)
//Storyboard Layer 2 (Passing)
//Storyboard Layer 3 (Foreground)
//Storyboard Sound Samples
//Background Colour Transformations
3,100,163,162,255

[TimingPoints]
1249,535.570829242167,3,2,0,100,1
3390,535.570829242167,4,2,0,100,1

[Colours]
Combo1 : 157,255,157
Combo2 : 0,77,0
Combo3 : 0,170,0
Combo4 : 119,245,5

[HitObjects]
96,96,2587,2,0,B|224:256,1,195
256,256,3659,1,8
352,256,4194,5,0
352,208,4462,2,0,B|256:96,1,130
224,144,5265,2,0,B|240:224,1,65
256,256,5800,1,4
128,224,6872,5,0
160,192,7140,1,0
192,160,7408,1,0
224,192,7674,2,0,B|304:128,1,97.5
368,96,8477,5,2
400,144,8745,6,0,B|304:256,1,130
256,256,9549,1,0
256,176,9950,2,0,B|176:144,1,65
96,304,11155,5,0
144,272,11423,1,0
192,240,11691,1,0
240,208,11959,2,0,B|336:112,1,130
384,128,12762,1,0
384,176,13030,2,0,B|288:272,1,130
256,304,13833,2,0,B|192:336|144:240,1,130
112,80,15441,5,0
144,112,15709,1,0
176,144,15977,1,0
208,176,16243,2,0,B|272:256,1,97.5
336,288,17047,1,2
368,320,17314,1,2
368,144,18252,5,2
368,96,18521,2,0,B|64:320,1,357.5
208,176,38471,5,8
288,240,39006,1,0
320,272,39274,2,0,B|368:320,1,65
384,112,40613,5,0
336,160,41015,1,0
320,176,41149,1,0
288,208,41416,1,0
240,240,41684,1,0
208,272,41952,1,0
160,304,42218,1,2
144,208,42755,6,0,B|256:128,1,130
320,64,43825,1,2
368,32,44093,1,2
400,64,44362,2,8,B|64:304,1,390
80,80,47039,5,2
160,128,47441,1,0
176,144,47575,1,0
208,176,47843,2,0,B|272:240,1,65
416,80,49181,5,2
368,144,49584,1,0
352,160,49718,1,0
320,192,49985,1,0
288,224,50253,1,0
256,256,50521,1,0
224,288,50788,1,2
160,208,51324,5,0
192,176,51592,1,0
224,144,51860,1,0
256,112,52128,1,0
288,80,52396,1,0
320,48,52663,1,0
368,32,52931,2,0,B|448:32,1,65
432,128,53733,5,2
336,240,54538,5,0
272,208,54806,1,0
224,240,55072,1,2
128,192,55608,5,0
192,144,55875,1,0
240,160,56143,1,2
336,192,56679,5,0
384,160,56947,1,0
416,192,57214,1,0
384,240,57482,1,0
336,272,57750,1,0
288,304,58018,1,0
240,272,58286,1,2
144,240,58821,5,0
176,192,59089,1,0
240,192,59357,1,2
192,96,59892,5,0
240,80,60160,1,0
288,112,60428,1,0
320,144,60696,1,0
320,192,60963,1,0
272,224,61231,1,0
224,224,61499,1,0
176,192,61767,1,0
128,160,62035,2,8,B|112:112|160:112,1,65
208,112,62570,1,10
288,176,63106,5,0
336,144,63373,1,0
384,176,63641,1,2
384,272,64177,1,0
336,304,64445,1,0
288,272,64712,1,2
192,208,65248,5,0
144,176,65516,1,0
192,144,65784,1,0
240,176,66051,1,0
192,208,66319,1,0
192,256,66587,1,0
192,304,66855,1,2
288,272,67390,5,0
336,240,67658,1,0
384,208,67926,1,2
272,208,68461,5,0
320,176,68729,1,0
368,144,68997,1,2
336,96,69265,1,2
288,64,69532,2,4,B|192:160,1,130
64,320,71139,5,4
96,288,71407,1,4
128,256,71675,1,4
160,224,71943,2,4,B|272:112,1,130
288,96,72746,1,2
320,64,73014,1,2
384,128,73549,5,2
400,176,73817,2,2,B|320:256,1,97.5
112,320,75424,5,4
144,288,75692,1,4
176,256,75959,1,4
208,208,76227,2,2,B|304:112,1,130
336,80,77030,1,2
368,48,77298,2,2,B|368:208,1,130
368,224,78102,1,2
368,320,78637,1,2
160,256,79708,5,4
192,224,79976,1,4
224,192,80244,1,4
256,160,80512,2,0,B|304:112,1,65
384,64,81315,1,2
384,112,81583,2,8,B|384:256,1,130
384,288,82386,2,8,B|288:288,1,65
272,288,82922,2,8,B|112:288,1,130
96,192,83993,5,0
128,160,84261,1,0
160,128,84528,1,0
192,96,84796,1,2
224,64,85064,1,2
320,64,85600,5,2
352,96,85867,2,2,B|448:192,1,130
400,256,86805,1,4
336,224,87206,2,4,B|240:128,1,130
144,160,88277,5,0
176,192,88545,1,0
208,224,88813,1,0
240,256,89081,2,2,B|336:352,1,130
384,352,89884,1,2
432,352,90152,2,2,B|432:208,1,130
432,176,90955,6,8,B|432:48|336:16,1,195
224,112,92562,1,8
192,144,92830,1,8
160,176,93098,1,8
128,208,93365,2,0,B|16:304,1,130
80,320,94169,5,0
112,288,94437,2,0,B|224:192,1,130
256,176,95240,1,0
304,144,95508,2,2,B|416:64,1,130
400,224,96847,5,0
352,208,97114,1,0
304,176,97382,1,0
256,144,97650,2,0,B|144:64,1,130
112,96,98453,5,2
80,128,98721,6,0,B|192:224,1,130
224,240,99524,1,0
304,304,100060,2,0,B|400:304|448:160|384:96,1,260
336,80,101399,1,2
288,64,101667,1,2
240,80,101935,2,2,B|192:96|160:144|176:192,1,130
192,224,102738,1,0
224,256,103006,2,0,B|272:304|352:272,1,130
384,240,103809,6,2,B|448:176|400:112,1,130
192,96,105416,5,0
224,128,105684,1,0
256,160,105951,1,0
288,192,106219,2,2,B|352:256,1,65
272,320,107022,5,8
224,288,107290,2,0,B|144:240|192:160,1,130
208,128,108094,1,0
256,96,108361,5,14
