osu file format v5

[General]
AudioFilename: Reset.mp3
AudioLeadIn: 2000
PreviewTime: 74804
Countdown: 0
SampleSet: Soft
StackLeniency: 0.7
Mode: 0
LetterboxInBreaks: 0
SkinPreference:okami
EditorDistanceSpacing: 0.699999988079071

[Metadata]
Title:Reset
Artist:Ayaka Hirahara
Creator:Zekira
Version:Gekiretsu ni Okami Dan
Source:okami
Tags:okami ayaka hirahara iNiS style

[Difficulty]
HPDrainRate:6
CircleSize:4
OverallDifficulty:6
SliderMultiplier:2.6
SliderTickRate:2

[Events]
//Background and Video events
0,0,"GijinkaOkamiSemiSep.PNG"
//Break Periods
2,63208,73958
2,101457,125708
2,162208,176727
2,189208,199958
//Storyboard Layer 0 (Background)
//Storyboard Layer 1 (Fail)
//Storyboard Layer 2 (Pass)
//Storyboard Layer 3 (Foreground)
//Storyboard Sound Samples
//Background Colour Transformations
3,100,255,255,255

[TimingPoints]
6758,750,4,2,1,71,1,0
177777,750,4,2,1,51,1,0
195758,750,4,2,1,71,1,0

[Colours]
Combo1 : 184,124,135
Combo2 : 255,21,232
Combo3 : 255,53,58
Combo4 : 61,224,52

[HitObjects]
80,192,16508,1,0
168,192,16883,1,0
256,192,17258,1,2
344,192,17633,1,0
432,192,18008,1,0
432,48,18758,6,2,B|112:48,1,260,0|2
168,136,19883,1,2
168,232,20258,2,2,B|456:232,1,260,0|2
432,192,22508,5,0
344,192,22883,1,0
256,192,23258,1,2
168,192,23633,1,0
80,192,24008,1,0
80,48,24758,6,2,B|400:48,1,260,0|2
344,136,25883,1,2
344,232,26258,2,2,B|56:232,1,260,0|2
464,64,28508,5,0
408,144,28883,1,0
352,208,29258,1,2
288,272,29633,1,0
224,336,30008,1,0
40,320,30758,6,0,B|56:104|280:120,1,260,0|2
264,80,31883,1,2
352,56,32258,2,0,B|440:256|200:288,1,260,0|2
387,335,33758,5,4
299,335,34133,1,0
211,335,34508,1,0
123,335,34883,1,0
123,247,35258,1,4
203,207,35633,1,0
283,167,36008,1,0
363,119,36383,1,2
456,104,36758,2,2,B|272:400|32:88,1,520,2|4
56,56,40508,5,2
56,144,40883,1,0
104,224,41258,1,2
160,296,41633,1,0
248,328,42008,1,0
432,328,42758,2,0,B|640:184|424:0,2,390,0|0|8
256,192,45758,1,4
456,56,46508,5,0
456,144,46883,1,0
408,224,47258,1,2
352,296,47633,1,0
264,328,48008,1,0
80,328,48758,2,4,B|-128:184|88:0,2,390,0|0|8
256,192,51758,1,4
64,48,52508,5,0
128,112,52883,1,0
192,48,53258,1,2
256,112,53633,1,0
320,48,54008,1,0
371,228,54758,2,0,B|243:340|131:228,1,260,0|2
136,144,55883,1,8
136,56,56258,2,0,B|264:-56|376:56,1,260,0|2
371,140,57383,1,8
368,224,57758,5,0
320,296,58133,1,0
256,360,58508,1,8
184,296,58883,1,0
112,232,59258,1,0
48,160,59633,1,0
48,72,60008,1,8
136,72,60383,1,0
224,72,60758,2,2,B|336:176|480:64,3,260,2|6|2|6
40,352,75008,5,4
128,352,75383,1,0
216,352,75758,2,6,B|440:280|224:208|216:200,1,260,2|6
128,200,76883,1,2
40,200,77258,2,2,B|72:-8|232:192,1,260,2|6
296,160,78383,1,2
384,160,78758,2,2,B|176:336,2,260,2|2|2
472,192,80633,1,0
472,192,81008,1,8
408,352,81758,6,4,B|24:176|448:8,1,520,2|2
344,80,83633,1,0
256,80,84008,1,2
168,80,84383,1,0
89,29,84758,6,4,B|480:184|96:360,1,520,2|4
472,352,87008,5,4
384,352,87383,1,0
296,352,87758,2,6,B|72:280|288:208|296:200,1,260,2|4
384,200,88883,1,2
472,200,89258,2,2,B|440:-8|280:192,1,260,2|4
216,160,90383,1,2
128,160,90758,2,2,B|336:336,2,260,2|2|2
40,192,92633,1,0
40,192,93008,1,8
168,312,93758,5,2
256,312,94133,1,0
344,312,94508,1,0
344,312,94695,1,0
344,312,94883,1,0
344,224,95258,5,2
256,224,95633,1,0
168,224,96008,1,0
168,224,96195,1,0
168,224,96383,1,0
216,112,96758,6,4,B|29:246|245:390|469:254|291:107,1,520,4|2
256,192,98633,1,2
256,280,99008,1,2
256,368,99383,1,2
216,272,99758,6,4,B|29:139|245:-5|469:131|291:277,1,520,2|4
368,304,126758,5,2
368,304,126945,1,2
368,304,127133,1,2
368,304,127320,2,2,B|152:304,1,195,0|2
168,208,128258,1,2
168,208,128445,1,2
168,208,128633,1,2
168,208,128820,2,2,B|408:208,1,195,0|2
368,120,129758,5,0
368,120,129945,1,0
368,120,130133,1,2
368,120,130320,2,2,B|160:120,1,195
152,160,131070,2,2,B|267:352|403:160,1,325,2|6
256,192,132758,12,6,137258
472,32,138008,5,4
384,32,138383,1,0
296,32,138758,2,6,B|72:104|288:176|296:184,1,260,2|6
384,184,139883,1,2
472,184,140258,2,6,B|440:392|280:192,1,260,2|6
216,224,141383,1,2
128,224,141758,2,2,B|336:48,2,260,2|2|0
40,192,143633,1,0
40,192,144008,1,8
104,32,144758,6,4,B|488:208|64:376,1,520,2|2
168,304,146633,1,0
256,304,147008,1,2
344,304,147383,1,0
423,355,147758,6,4,B|32:200|416:24,1,520,2|4
40,32,150008,5,4
128,32,150383,1,0
216,32,150758,2,6,B|440:104|224:176|216:184,1,260,2|6
128,184,151883,1,2
40,184,152258,2,2,B|72:392|232:192,1,260,2|6
296,224,153383,1,2
384,224,153758,2,2,B|176:48,2,260,2|2|2
472,192,155633,1,0
472,192,156008,1,8
344,72,156758,5,2
256,72,157133,1,0
168,72,157508,1,0
168,72,157695,1,0
168,72,157883,1,0
168,160,158258,5,2
256,160,158633,1,0
344,160,159008,1,0
344,160,159195,1,0
344,160,159383,1,0
288,272,159758,6,4,B|475:138|259:-6|35:130|213:277,1,520,4|0
256,192,161633,1,0
256,192,162008,1,4
76,316,177777,6,2,B|248:272|129:126,1,260
382,126,179277,6,2,B|264:272|435:316,1,260
256,368,180777,5,2
256,280,181152,1,2
256,192,181527,1,2
256,104,181902,1,2
256,24,182277,1,0
344,24,182652,1,0
432,24,183027,1,2
435,67,183777,6,2,B|264:112|382:257,1,260
129,257,185277,6,2,B|248:112|76:67,1,260
256,16,186777,5,2
256,104,187152,1,2
256,192,187527,1,2
256,280,187902,1,2
256,360,188277,1,0
168,360,188652,1,0
80,360,189027,1,2
472,352,201008,5,4
384,352,201383,1,0
296,352,201758,2,6,B|72:280|288:208|296:200,1,260,2|6
352,200,202695,1,0
352,200,202883,1,2
472,200,203258,2,2,B|440:-8|280:192,1,260,2|6
246,163,204195,1,0
246,163,204383,1,2
128,160,204758,2,2,B|336:336,2,260,2|2|0
40,192,206633,1,0
40,192,206820,1,0
40,192,207008,1,8
104,352,207758,6,4,B|488:176|64:8,1,520,2|2
168,80,209633,1,0
256,80,210008,1,2
344,80,210383,2,0,B|416:80,1,65
423,29,210758,2,4,B|32:184|416:360,1,520,2|4
40,352,213008,5,4
128,352,213383,1,0
216,352,213758,2,6,B|440:280|224:208|216:200,1,260,2|6
160,200,214695,1,0
160,200,214883,1,2
40,200,215258,2,2,B|72:-8|232:192,1,260,0|6
264,160,216195,1,0
264,160,216383,1,2
384,160,216758,2,2,B|176:336,2,260,2|2|2
472,192,218633,1,0
472,192,218820,1,0
472,192,219008,1,8
64,32,219758,6,4,B|464:32,1,390,4|0
456,168,221258,2,4,B|56:168,1,390,4|0
72,336,222758,2,4,B|256:256|256:16|256:16|256:24|256:40|256:40|256:264|488:352,1,780
256,192,225758,12,6,228758
