osu file format v6

[General]
AudioFilename: Yume wo Mikata ni.mp3
AudioLeadIn: 0
PreviewTime: 50901
Countdown: 0
SampleSet: Soft
StackLeniency: 0.4
Mode: 0
LetterboxInBreaks: 1

[Editor]
DistanceSpacing: 1
BeatDivisor: 4
GridSize: 8

[Metadata]
Title:Yume wo Mikata ni
Artist:Ayaka
Creator:Mystearica
Version:Hard
Source:
Tags:J-Pop

[Difficulty]
HPDrainRate:8
CircleSize:5
OverallDifficulty:6
SliderMultiplier:1.4
SliderTickRate:0.5

[Events]
//Background and Video events
0,0,"bg.jpg"
//Break Periods
2,71948,79540
2,141737,151224
//Storyboard Layer 0 (Background)
//Storyboard Layer 1 (Fail)
//Storyboard Layer 2 (Pass)
//Storyboard Layer 3 (Foreground)
//Storyboard Sound Samples
//Background Colour Transformations
3,100,0,0,0

[TimingPoints]
10801,631.578947368421,4,2,1,90,1,0
14590,-100,4,2,1,40,0,0
14906,-100,4,2,1,90,0,0
20432,-100,4,2,1,40,0,0
20748,-100,4,2,1,90,0,0
24695,-100,4,2,1,40,0,0
24853,-100,4,2,1,90,0,0
29590,-100,4,2,1,40,0,0
29906,-100,4,2,1,90,0,0
40643,-100,4,2,1,40,0,0
40958,-100,4,2,1,90,0,0
48537,-100,4,2,1,60,0,0
49011,-100,4,2,1,70,0,0
49485,-100,4,2,1,60,0,0
51222,-100,4,1,1,50,0,1
70643,-100,4,1,1,0,0,1
71748,-100,4,1,1,0,0,0
80432,-100,4,2,1,90,0,0
84064,-100,4,2,1,40,0,0
84222,-100,4,2,1,90,0,0
88958,-100,4,2,1,40,0,0
89274,-100,4,2,1,90,0,0
94169,-100,4,2,1,50,0,0
94327,-100,4,2,1,90,0,0
99537,-100,4,2,1,40,0,0
99695,-100,4,2,1,90,0,0
109958,-100,4,2,1,40,0,0
110116,-100,4,2,1,90,0,0
114222,-100,4,2,1,40,0,0
114537,-100,4,2,1,90,0,0
117379,-100,4,2,1,70,0,0
118011,-100,4,2,1,80,0,0
118485,-100,4,2,1,90,0,0
118958,-100,4,2,1,50,0,0
120537,-100,4,1,1,50,0,1
140116,-100,4,1,1,0,0,1
141537,-100,4,1,1,0,0,0
152116,-100,4,1,1,40,0,0
152432,-100,4,1,1,50,0,0
169169,-100,4,1,1,30,0,0
169485,-100,4,1,1,30,0,0
171537,-100,4,1,1,0,0,0
171695,-100,4,1,1,30,0,0
173432,-100,4,1,1,20,0,1

[Colours]
Combo1 : 252,252,252
Combo2 : 217,29,19
Combo3 : 37,80,224
Combo4 : 233,65,162

[HitObjects]
96,72,11116,1,0
96,72,11274,1,0
96,72,11432,1,2
112,144,11748,1,0
120,176,11906,2,0,B|136:224|208:248,1,105
232,256,12537,1,0
264,264,12695,2,0,B|304:288|320:344,1,70,2|0
376,312,13327,2,0,B|448:272|432:160,1,140,0|2
432,160,14116,1,0
368,192,14432,1,0
368,192,14590,1,4
416,64,15222,5,2
384,88,15379,1,0
352,64,15537,1,0
320,88,15695,1,0
280,64,15853,2,0,B|184:64,1,70
152,128,16485,2,0,B|240:128,1,70,2|0
272,192,17116,2,0,B|136:192,1,105,0|0
167,192,17748,1,2
256,288,18064,5,0
320,232,18379,1,0
256,176,18695,1,0
192,232,19011,1,2
256,176,19327,2,0,B|256:88,1,70,0|0
256,64,19801,1,0
200,120,20116,1,0
168,152,20274,1,2
104,208,20590,1,4
408,80,21222,5,0
408,80,21379,1,0
408,80,21537,1,2
376,144,21853,1,0
376,176,22011,2,0,B|381:215|336:256,1,70
304,192,22643,1,0
296,224,22801,2,0,B|296:264|248:288,1,70,2|0
224,216,23432,2,0,B|176:280|104:296,1,140,0|2
80,304,24222,1,0
96,232,24537,1,0
128,216,24695,1,4
160,80,25327,5,0
192,112,25485,1,0
232,112,25643,1,0
264,144,25801,1,0
304,144,25958,2,0,B|400:264,1,140,2|0
304,248,26906,1,0
336,280,27064,1,0
320,320,27222,1,2
280,336,27379,1,0
240,336,27537,2,0,B|72:336,1,140
48,272,28485,1,2
136,272,28801,1,0
136,272,28958,2,0,B|272:272,1,105
328,272,29748,1,4
96,56,31011,6,0,B|56:120,1,70,2|0
104,112,31485,2,0,B|120:184,1,70,0|0
80,168,31958,2,0,B|48:256,1,70,0|2
56,233,32590,1,0
136,248,32906,2,0,B|160:328,1,70
136,232,33537,2,0,B|160:152,1,70,2|0
168,120,34011,2,0,B|200:96|240:120,1,70
216,160,34485,1,0
224,240,34801,2,0,B|216:296|280:312,1,70,2|0
288,320,35274,1,0
328,336,35432,1,0
360,256,35748,5,0
416,216,36064,2,0,B|456:184|432:136,1,70,2|0
432,120,36537,1,0
416,88,36695,1,0
360,128,37011,2,0,B|256:128,1,70,0|2
216,136,37643,1,0
200,160,37801,1,0
176,184,37958,2,0,B|8:184,1,140,0|2
80,240,38906,1,0
136,280,39222,1,0
168,304,39379,1,0
200,280,39537,1,0
272,280,39853,1,2
272,280,40169,2,0,B|272:120,1,140,0|4
272,56,41116,5,0
160,120,41590,1,2
96,176,41906,1,0
96,264,42222,1,0
160,216,42537,1,2
160,304,42853,1,0
232,264,43169,1,0
232,176,43485,1,2
232,176,43643,2,0,B|400:176,1,140
344,256,44590,1,2
432,256,44906,1,0
432,256,45064,1,0
432,256,45222,1,2
392,336,45537,5,0
304,336,45853,1,0
216,336,46169,2,0,B|72:336,1,140,2|0
112,264,47116,1,0
152,192,47432,2,0,B|312:192,1,140,2|0
256,264,48379,1,0
256,336,48695,5,2
384,152,49169,5,2
128,152,49643,5,4
152,48,51222,6,0,B|88:80|64:176,1,140,0|8
152,136,52169,1,0
152,136,52485,2,0,B|128:160|120:208,1,70,0|0
120,240,52958,1,0
160,256,53116,2,0,B|136:280|128:328,1,70,8|0
216,312,53748,2,0,B|280:280|304:184,1,140,0|8
216,216,54695,1,0
176,144,55011,1,0
208,112,55169,1,0
288,144,55485,1,0
312,112,55643,1,8
392,144,55958,1,0
392,232,56274,6,0,B|432:232|456:288,1,70
464,312,56748,1,0
424,312,56906,2,0,B|408:352|352:352,1,70,8|0
304,304,57537,1,0
216,304,57853,1,0
256,232,58169,2,0,B|256:80,1,140,8|0
184,136,59116,1,0
112,184,59432,1,8
80,208,59590,1,0
136,272,59906,1,0
168,296,60064,1,0
240,336,60379,1,0
312,288,60695,1,8
344,264,60853,1,0
376,240,61011,1,0
256,80,61327,6,0,B|104:168,1,140,0|8
136,224,62274,1,0
208,224,62590,2,0,B|272:256,1,70
240,288,63064,1,0
280,296,63222,2,0,B|344:264,1,70
368,344,63853,2,0,B|520:256,1,140,0|8
416,232,64801,1,0
368,160,65116,1,0
344,192,65274,1,0
264,160,65590,1,0
240,192,65748,1,8
272,272,66064,1,0
200,232,66379,6,0,B|168:200|112:232,1,70
152,264,66853,1,0
176,296,67011,2,0,B|120:312|80:272,1,70,8|0
48,232,67643,1,0
48,152,67958,1,0
120,192,68274,2,0,B|280:192,1,140
344,200,69222,1,0
312,280,69537,1,4
296,320,69695,1,0
216,288,70011,1,0
200,328,70169,1,0
120,304,70485,1,0
256,208,70801,12,0,71748
368,80,80590,5,0
392,104,80748,1,0
360,120,80906,2,0,B|376:168|344:200,1,70,2|0
320,200,81379,2,0,B|312:240|368:280,1,70
408,232,82011,1,0
408,232,82169,1,2
440,296,82485,1,0
440,296,82801,2,0,B|280:296,1,140,0|2
300,296,83590,1,0
232,312,83906,1,0
208,336,84064,1,4
80,272,84695,5,0
64,240,84853,1,0
88,216,85011,1,0
40,160,85327,1,2
112,88,85801,2,0,B|176:112|168:200,1,105
160,200,86432,1,0
184,224,86590,1,2
160,248,86748,1,0
192,264,86906,2,0,B|184:304|248:320,1,70
256,248,87537,2,0,B|272:208|344:216,1,70,0|2
304,288,88169,1,0
240,312,88485,2,0,B|240:352|304:368,1,70
328,304,89116,1,4
448,56,90379,5,2
392,96,90695,1,0
395,123,90853,1,0
383,149,91011,1,0
320,128,91327,2,0,B|304:168|344:224,1,70,0|2
352,224,91801,2,0,B|384:216|440:264,1,70
416,280,92274,1,0
352,312,92590,1,0
288,328,92906,2,0,B|208:336|152:264,1,140,2|0
144,304,93695,1,0
80,280,94011,1,0
56,304,94169,1,4
64,168,94801,5,0
104,168,94958,1,0
64,168,95116,1,0
88,88,95432,1,2
88,88,95748,2,0,B|144:48|232:96,1,140
192,120,96537,1,0
224,144,96695,1,2
256,120,96853,1,0
256,80,97011,1,0
304,216,97643,5,0
304,216,97958,2,0,B|200:320,1,140,2|0
192,232,98906,1,0
248,176,99222,1,2
216,144,99379,1,0
256,128,99537,1,4
80,64,100485,6,0,B|176:64,1,70,2|0
136,104,100958,1,0
112,136,101116,2,0,B|208:136,1,70
128,200,101748,1,2
128,200,102064,2,0,B|160:264,1,70
232,224,102695,1,0
192,152,103011,1,2
232,152,103169,1,0
208,112,103327,1,0
128,112,103643,1,0
80,184,103958,1,0
128,256,104274,2,0,B|128:304|200:312,1,70,2|0
184,264,104748,1,0
184,264,104906,1,0
160,184,105222,5,0
160,184,105537,2,0,B|296:184,1,105,2|0
368,184,106485,1,0
320,136,106801,1,2
272,184,107116,2,0,B|192:248,1,70
272,272,107748,1,0
272,272,107906,1,0
272,272,108064,2,0,B|416:272,1,140,2|0
256,192,109327,5,2
256,192,109643,1,0
256,192,109801,1,0
256,192,109958,1,4
128,128,110590,5,0
104,192,110906,1,0
80,256,111222,1,2
56,320,111537,1,0
88,320,111695,1,0
120,320,111853,2,0,B|184:176,1,140,0|2
216,192,112643,2,0,B|248:312,1,105
312,296,113432,1,0
312,224,113748,1,2
312,224,113906,1,0
312,224,114064,1,0
312,296,114379,1,4
256,168,115011,5,0
200,88,115327,1,0
312,88,115643,1,2
256,168,116274,6,0,B|256:312,1,140
256,112,117537,1,2
256,112,118169,5,2
168,232,118643,5,2
344,232,119116,5,4
72,56,120695,6,0,B|192:168,1,140,0|8
144,200,121643,1,0
200,200,121958,2,0,B|352:200,1,140,0|8
320,256,122906,1,0
264,256,123222,2,0,B|184:256,1,70
168,240,123695,1,0
144,224,123853,2,0,B|48:224,1,70,8|0
48,288,124485,5,0
66,309,124643,1,0
91,321,124801,1,0
118,329,124958,1,0
146,331,125116,1,8
146,331,125432,1,0
232,320,125748,6,0,B|287:251,1,70,0|0
248,232,126222,1,0
216,264,126379,2,0,B|161:195,1,70,0|0
88,208,127011,1,0
128,136,127327,1,0
192,192,127643,2,0,B|344:192,1,140,8|0
280,256,128590,1,0
200,272,128906,1,8
176,304,129064,1,0
152,224,129379,1,0
128,256,129537,1,0
96,176,129853,1,0
72,208,130011,1,0
48,240,130169,1,8
48,240,130485,1,0
56,320,130801,6,0,B|208:320,1,140,0|8
264,320,131748,1,0
264,320,132064,2,0,B|208:248,1,70
256,248,132537,1,0
224,232,132695,2,0,B|280:160,1,70
240,112,133327,2,0,B|152:224,1,140,0|8
120,280,134274,1,0
64,240,134590,1,0
88,216,134748,1,0
48,160,135064,1,0
72,136,135222,1,8
32,80,135537,1,0
112,48,135853,6,0,B|192:80,1,70
208,104,136327,1,0
168,120,136485,2,0,B|168:216,1,70,8|0
248,168,137116,1,0
216,248,137432,1,0
232,264,137590,1,0
248,280,137748,2,0,B|408:280,1,140
424,216,138695,1,0
352,200,139011,1,8
368,168,139169,1,0
296,168,139485,1,0
312,136,139643,1,0
240,128,139958,1,0
256,208,140274,12,0,141537
104,80,152274,5,4
120,152,152590,1,0
144,168,152748,1,0
168,184,152906,1,8
120,240,153222,1,0
120,240,153537,2,0,B|248:320,1,140,0|8
256,248,154485,5,0
256,248,154801,2,0,B|328:200,1,70
328,280,155432,1,8
328,280,155748,2,0,B|480:280,1,140
440,216,156695,1,8
416,200,156853,1,0
392,184,157011,1,0
376,248,157327,6,0,B|312:288|224:240,1,140,0|8
312,200,158274,2,0,B|248:160|152:200,1,140
242,249,159222,2,0,B|178:289|90:241,1,140,8|0
168,192,160169,5,0
168,192,160485,2,0,B|104:152|8:192,1,140,8|0
96,240,161432,5,0
160,296,161748,5,8
224,240,162064,5,0
160,184,162379,1,0
136,168,162537,1,0
120,144,162695,1,0
136,120,162853,1,0
160,104,163011,1,8
224,160,163327,2,0,B|368:160,1,140
328,240,164274,5,8
280,296,164590,1,0
280,296,164906,2,0,B|104:296,1,140,0|8
96,240,165853,1,0
112,216,166011,1,0
128,192,166169,1,0
120,168,166327,1,0
104,144,166485,1,0
64,88,166801,1,8
64,88,167116,1,0
64,88,167432,6,0,B|136:48|224:96,1,140,0|8
160,144,168379,2,0,B|232:184|320:136,1,140,0|0
336,88,169327,1,4
256,208,169643,12,0,171537
256,208,171853,12,4,173432
