osu file format v5

[General]
AudioFilename: 2-22 Why.mp3
AudioLeadIn: 0
PreviewTime: -1
Countdown: 0
SampleSet: Soft
StackLeniency: 0.7
Mode: 0
LetterboxInBreaks: 1
EditorBookmarks: 4127,43000,105110,108491,195533,196800

[Metadata]
Title:Why
Artist:Ayaka
Creator:DawnII
Version:JAMES DIFFICULTY!!
Source:
Tags:Crisis Core Final Fantasy 7 Sing Sky

[Difficulty]
HPDrainRate:5
CircleSize:5
OverallDifficulty:5
SliderMultiplier:2
SliderTickRate:2

[Events]
//Background and Video events
0,0,"wp_feather_HD.jpg"
//Break Periods
2,68173,81139
2,105338,108163
2,135778,150585
2,164070,167740
2,193225,196050
//Storyboard Layer 0 (Background)
4,0,1,"feather1.png",0,0 L,105956,1 M,1,0,646,160,200,100,250 F,0,0,400,0,1 R,1,0,646,0,1 M,1,646,1392,100,250,200,280 R,1,646,1392,1,0.2 M,1,1392,2146,200,280,90,325 R,1,1392,2146,0.2,0.9 M,1,2146,2535,90,325,120,340 R,1,2146,2535,0.9,0.5 F,0,2535,2900,1,0 R,1,2535,2700,0.5,0.4 R,1,2700,2900,0.4,0.5
4,0,1,"feather1.png",0,0 L,105556,1 M,1,0,546,340,80,230,120 F,0,0,400,0,1 R,1,0,546,0,1 M,1,546,1392,230,120,360,150 R,1,546,1392,1,0.2 M,1,1392,2446,360,150,210,180 R,1,1392,2446,0.2,0.9 F,0,1900,2440,1,0
4,0,1,"feather1.png",0,0 L,105110,1 M,1,0,846,410,350,500,400 F,0,0,500,0,1 R,1,0,846,0,-1 M,1,846,1692,500,400,410,440 R,1,846,1692,-1,-0.2 M,1,1692,2235,410,440,500,480 R,1,1692,2235,-0.2,-0.7 F,0,2235,2535,1,0 P,0,105110,108856,H
4,0,1,"wp_feather_HD.jpg",320,240 L,162708,1 M,0,0,211,320,240,300,240 M,0,211,422,300,240,320,240 M,0,422,633,320,240,340,240 M,0,633,844,340,240,320,240 M,0,844,1055,320,240,300,240 M,0,1055,1266,300,240,320,240
4,0,0,"feather1.png",0,0 L,195533,1 R,1,0,1267,0,6.5 M,2,800,1267,220,280,640,200
//Storyboard Layer 1 (Failing)
//Storyboard Layer 2 (Passing)
//Storyboard Layer 3 (Foreground)
4,3,0,"snap312-2.jpg",0,0 F,0,194477,194880,1,0.7
4,3,0,"snap317-1.jpg",0,0 F,0,194899,195502,1,0.3
//Storyboard Sound Samples
//Background Colour Transformations
3,100,163,162,255

[TimingPoints]
7123,845.070422535211,4,2,0,70,1

[Colours]
Combo1 : 5,206,0
Combo2 : 5,207,250
Combo3 : 179,1,254
Combo4 : 255,255,0
Combo5 : 224,36,31

[HitObjects]
32,192,5221,2,0,B|143:136|199:198|275:257|400:176,1,350
464,152,7122,1,0
392,88,7545,1,0
320,152,7968,1,8
392,216,8390,1,0
392,216,8601,1,0
320,288,9024,1,0
320,288,9235,2,0,B|200:288,1,100,0|8
120,288,10080,5,2
120,288,10292,1,2
120,288,10503,2,0,B|75:245|96:184,1,100
112,96,11348,1,8
192,40,11770,1,0
192,40,11982,2,0,B|297:57|231:192|256:308|392:304,1,350
464,312,13883,1,0
440,216,14306,1,0
336,224,14728,1,8
240,240,15151,5,0
240,240,15362,1,0
144,256,15784,1,0
144,256,15996,2,0,B|112:208|144:144,1,100,0|8
176,64,16841,1,2
224,64,17052,1,2
272,64,17263,1,0
336,144,17686,1,0
256,208,18108,5,8
256,208,18320,2,0,B|224:264|256:312,1,100
328,360,19165,1,0
392,288,19587,1,0
320,216,20010,2,0,B|260:173|216:241|160:192,1,150
88,152,21066,1,0
152,72,21489,1,8
240,112,21911,5,0
240,112,22122,2,0,B|264:232,1,100
260,209,22756,1,0
184,272,23179,1,8
104,208,23601,1,2
120,160,23813,1,2
136,112,24024,2,0,B|264:112,1,100
336,112,24869,1,8
384,200,25292,5,0
336,200,25503,1,0
288,200,25714,1,0
240,200,25925,2,0,B|112:200,1,100
80,280,26770,1,0
168,320,27193,2,0,B|266:360|343:340|392:216,1,250,0|8
424,160,28672,5,0
376,160,28883,1,0
328,160,29094,2,0,B|208:160,1,100,2|2
192,192,29728,1,0
152,224,29939,1,8
152,224,30151,2,0,B|216:336,1,100,8|8
200,312,30784,1,4
296,312,31207,1,0
392,312,31630,6,0,B|439:248|340:178|416:88,1,200,8|0
320,48,32897,1,0
232,88,33320,1,8
248,136,33531,1,0
232,184,33742,1,0
248,232,33953,2,0,B|128:296,1,100
88,208,34799,2,0,B|88:96,1,100
176,72,35644,2,0,B|248:28|336:80,1,150,0|0
400,128,36700,5,8
352,216,37122,1,8
304,216,37334,1,8
256,216,37545,2,0,B|268:156|224:88,1,100,4|0
200,24,38390,1,8
152,48,38601,1,0
112,80,38813,1,0
72,112,39024,2,0,B|72:232,1,100
128,296,39869,1,0
216,256,40292,1,0
304,216,40714,1,0
304,216,40925,2,0,B|380:166|454:279|368:336,3,200,0|8|0|8
385,321,43672,1,8
56,320,44306,5,4
128,256,44728,1,0
56,184,45151,2,0,B|139:161|144:32,2,150,8|0|2
400,72,46841,1,8
400,72,47052,2,0,B|336:94|344:192,1,100
344,200,47686,2,0,B|402:211|408:280,1,100,0|2
408,320,48320,1,0
360,344,48531,2,0,B|306:370|256:320,1,100,8|2
216,312,49165,2,0,B|164:283|104:320,4,100,0|0|0|0|0
216,312,51066,1,0
264,168,51489,1,0
208,40,51911,6,0,B|97:36|104:160,1,150,8|0
112,224,52968,1,2
112,224,53179,1,0
168,304,53601,2,0,B|264:287|229:157|303:92|408:88,1,300,8|2
416,96,55080,1,0
448,136,55292,1,2
432,184,55503,1,0
384,200,55714,2,0,B|247:122|72:216,1,300,6|8
32,280,57404,1,2
120,328,57827,5,4
200,272,58249,1,0
288,320,58672,1,8
376,272,59094,1,0
376,272,59306,1,0
464,320,59728,1,0
464,320,59939,1,0
464,320,60151,1,0
464,320,60362,1,8
448,176,60784,1,2
472,40,61207,6,0,B|384:24|328:72|256:72,1,200,0|8
176,80,62475,1,0
176,80,62686,2,0,B|168:160|128:208,1,100
104,264,63531,1,0
104,264,63742,2,0,B|154:257|224:304,1,100,8|0
240,312,64376,1,0
288,304,64587,2,0,B|408:288,1,100,2|2
387,291,65432,1,8
328,40,66066,5,0
280,40,66277,1,0
232,40,66489,1,2
184,40,66700,1,0
152,192,67122,2,0,B|288:192,1,100,10|0
352,192,67968,1,4
408,112,82334,5,0
368,144,82545,2,0,B|264:224|312:288|352:328,1,200,0|0
416,256,83813,1,0
456,168,84235,2,0,B|496:88|472:32|376:16|272:16|200:56,1,350,0|8
128,80,86137,5,0
80,104,86348,1,0
128,192,86770,1,0
80,216,86982,1,0
88,312,87404,1,8
184,312,87827,1,2
232,312,88038,1,2
280,312,88249,1,0
240,216,88672,1,0
272,120,89094,1,8
352,64,89517,6,0,B|424:72,1,50,0|0
400,120,89939,2,0,B|384:172|432:240,2,100,0|0|8
296,120,91207,1,2
248,120,91418,1,2
200,120,91630,1,0
96,120,92052,2,0,B|112:172|64:240,1,100,0|8
200,280,92897,5,0
248,280,93108,1,0
296,280,93320,1,2
256,168,93742,1,2
168,56,94165,1,2
168,56,94376,1,2
344,56,94799,1,2
344,56,95010,1,4
416,128,95432,1,0
344,200,95855,5,8
400,280,96277,1,0
400,280,96489,1,0
400,280,96700,2,0,B|348:322|272:328,1,100
264,296,97334,5,0
288,248,97545,1,8
264,200,97756,1,0
288,160,97968,1,0
272,112,98179,1,0
208,32,98601,1,0
128,96,99024,1,0
192,168,99446,1,0
272,112,99869,1,0
208,32,100292,1,0
32,264,100925,6,0,B|87:350|232:352,1,200,0|4
304,352,102193,1,0
400,336,102615,1,8
432,296,102827,1,0
416,248,103038,1,0
376,216,103249,2,0,B|321:192|256:224,4,100,0|0|0|0|0
376,216,105151,1,4
256,32,109376,6,0,B|178:120|216:240,1,200,0|0
232,312,110644,1,2
328,296,111066,2,0,B|472:266|376:120,1,200,8|0
344,64,112334,1,2
296,72,112545,1,0
248,80,112756,2,0,B|200:208,1,100,8|0
213,174,113390,1,0
176,264,113813,1,0
136,352,114235,2,0,B|16:284|136:176,1,200,0|0
120,192,115292,1,0
280,120,115714,1,2
440,40,116137,6,0,B|481:108|472:174|416:248,1,200,8|0
384,320,117404,1,0
256,192,117827,12,8,121207
120,64,122052,5,0
104,112,122263,1,0
88,160,122475,1,2
72,208,122686,1,0
56,256,122897,2,0,B|152:296,1,100,8|0
200,288,123531,2,0,B|251:264|320:296,1,100,0|0
344,296,124165,2,0,B|480:280,1,100,2|10
400,48,125432,5,0
416,96,125644,1,0
432,144,125855,1,0
448,192,126066,1,0
464,240,126277,2,0,B|336:272,1,100,8|0
366,264,126911,1,0
272,232,127334,1,0
176,264,127756,1,0
176,264,127968,2,0,B|48:232,1,100,8|2
104,200,128601,1,2
88,152,128813,2,0,B|72:48,1,100,0|0
168,80,129658,1,8
256,40,130080,5,0
280,80,130292,1,0
256,128,130503,1,0
280,168,130714,1,2
248,208,130925,1,0
328,272,131348,1,8
416,224,131770,1,0
352,144,132193,1,4
264,192,132615,1,2
328,272,133038,1,0
416,224,133461,1,4
256,192,133672,12,2,135573
384,328,151630,6,0,L|304:320|304:264,1,100,2|2
304,248,152263,1,0
304,200,152475,2,0,L|192:200,1,100,4|0
104,200,153320,1,8
88,104,153742,1,0
136,96,153953,1,0
184,88,154165,1,0
232,80,154376,1,2
240,128,154587,1,0
264,224,155010,1,8
280,320,155432,5,2
328,312,155644,1,2
376,304,155855,1,0
416,208,156277,1,0
360,120,156700,1,8
296,40,157123,1,2
248,64,157334,1,2
200,88,157545,1,0
208,136,157756,1,2
224,184,157968,1,0
248,280,158390,1,8
152,304,158813,5,2
104,280,159024,1,2
64,256,159235,1,4
112,168,159658,1,0
168,80,160080,1,8
256,120,160503,5,2
256,120,160714,1,2
272,168,160925,1,2
272,168,161137,1,0
256,216,161348,1,0
256,216,161559,1,2
272,264,161770,1,0
272,264,161982,1,0
256,312,162193,1,2
256,312,162404,1,0
256,312,162615,2,0,B|368:320,1,100,4|0
408,320,163249,2,0,B|408:192,1,100,4|0
408,218,163883,1,4
88,160,168953,6,0,B|27:342|120:288|152:312,1,200
240,312,170221,1,8
272,216,170644,2,0,B|333:34|240:88|208:64,1,200,0|0
120,56,171911,1,8
104,152,172334,2,0,B|43:334|136:280|168:304,1,200
256,304,173601,1,8
280,208,174024,2,0,B|341:26|248:80|216:56,1,200,0|0
128,56,175292,1,8
64,136,175714,5,2
64,136,175925,1,2
64,136,176137,2,0,B|131:151|136:240,1,100
160,296,176982,1,8
248,248,177404,1,0
264,200,177615,1,0
248,152,177827,1,0
264,104,178038,1,2
240,56,178249,2,0,L|112:24,1,100,0|8
72,96,179094,5,2
72,96,179306,1,2
72,96,179517,1,0
128,176,179939,1,0
88,264,180362,1,8
168,320,180784,1,0
216,312,180996,1,0
264,320,181207,1,0
312,312,181418,1,2
360,328,181630,1,0
456,288,182052,1,8
480,192,182475,6,0,B|541:10|448:64|416:40,1,200,0|0
328,32,183742,1,8
304,128,184165,2,0,B|243:310|336:256|368:280,1,200
456,280,185432,1,8
480,184,185855,2,0,B|541:2|448:56|416:32,1,200,0|0
328,24,187122,1,8
304,120,187545,2,0,B|243:302|336:248|368:272,1,200
456,272,188813,1,8
256,192,189446,12,4,193038
400,72,197263,6,0,B|482:173|400:216|376:256,1,200,0|0
296,304,198531,1,0
200,272,198953,1,10
200,272,199165,1,0
104,296,199587,2,0,B|61:219|104:128,1,150,0|0
112,104,200432,1,0
152,80,200644,2,0,B|215:110|208:192,1,100,8|0
208,208,201277,2,0,B|328:208,1,100,0|0
408,208,202122,2,0,B|433:257|408:328,2,100
408,208,203179,1,0
232,248,203601,1,0
64,296,204024,6,0,B|3:237|32:128,1,150,8|0
208,104,205080,1,2
208,104,205292,1,0
392,40,205714,2,0,B|472:128|480:216|360:328,1,300,8|0
336,296,207193,1,0
288,288,207404,1,0
240,296,207615,1,0
192,312,207827,2,0,B|133:225|192:76|328:72,1,300,12|8
392,56,209517,1,2
448,136,209939,5,0
400,152,210151,1,0
352,168,210362,1,0
304,184,210573,1,0
256,200,210784,2,0,B|256:280|256:320,1,100,8|0
255,300,211418,1,0
160,264,211841,1,0
160,216,212052,1,0
160,168,212263,1,0
160,120,212475,2,0,L|264:120,1,100,8|2
360,120,213320,5,0
360,168,213531,1,0
360,216,213742,1,0
360,264,213953,1,0
360,312,214165,2,0,B|288:357|220:288|152:336,2,200,8|0|8
312,224,216277,1,2
256,136,216700,5,0
208,48,217122,1,0
120,96,217545,1,8
168,184,217968,1,0
168,184,218179,1,0
256,136,218601,1,2
256,136,218813,1,0
352,96,219235,2,0,B|352:264|272:264,1,200,8|4
176,272,220503,1,0
216,184,220925,1,0
280,264,221348,1,4
256,192,221559,12,4,223461
