osu file format v7

[General]
AudioFilename: Ayahi Takagaki - Kigurumi Wakusei.mp3
AudioLeadIn: 1996
PreviewTime: 38150
Countdown: 1
SampleSet: Normal
StackLeniency: 0.7
Mode: 0
LetterboxInBreaks: 1

[Editor]
DistanceSpacing: 0.899999976158142
BeatDivisor: 4
GridSize: 8

[Metadata]
Title:Kigurumi Wakusei (TV Size)
Artist:Ayahi Takagaki
Creator:KIA
Version:WyndII Wakusei
Source:Hanamaru Youchien
Tags:ED 2 kawaii wyndii hiichan

[Difficulty]
HPDrainRate:7
CircleSize:4
OverallDifficulty:6
SliderMultiplier:1.75
SliderTickRate:2

[Events]
//Background and Video events
0,0,"HY.jpg"
Video,0,"Hanamaru Youchien ED-ep02.avi"
//Break Periods
//Storyboard Layer 0 (Background)
//Storyboard Layer 1 (Fail)
//Storyboard Layer 2 (Pass)
//Storyboard Layer 3 (Foreground)
//Storyboard Sound Samples
//Background Colour Transformations
3,100,0,0,0

[TimingPoints]
1320,571.158571428574,4,1,1,50,1,0
5982,-100,4,2,1,0,0,0
6267,-100,4,2,1,100,0,0
6552,-100,4,2,1,0,0,0
6837,-100,4,2,1,70,0,0
7122,-100,4,2,1,0,0,0
7407,-100,4,2,1,70,0,0
7696,-100,4,1,1,50,0,0
8262,-100,4,2,1,70,0,0
10547,-100,4,2,1,0,0,0
10832,-100,4,2,1,100,0,0
11117,-100,4,2,1,0,0,0
11402,-100,4,2,1,100,0,0
11687,-100,4,2,1,0,0,0
11972,-100,4,2,1,100,0,0
12257,-100,4,2,1,0,0,0
12542,-100,4,2,1,100,0,0
12827,-100,4,2,1,0,0,0
13112,-100,4,2,1,70,0,0
18553,-100,4,2,2,70,0,0
18839,-100,4,2,1,70,0,0
19696,-100,4,2,1,0,0,0
19982,-100,4,2,2,70,0,0
20266,-100,4,2,1,0,0,0
20551,-100,4,2,1,100,0,0
20836,-100,4,2,1,0,0,0
21125,-100,4,2,2,70,0,0
21406,-100,4,2,1,0,0,0
21691,-100,4,2,1,100,0,0
21976,-100,4,2,1,0,0,0
22261,-100,4,2,1,70,0,0
24260,-100,4,2,1,0,0,0
24553,-100,4,2,2,70,0,0
24830,-100,4,2,1,0,0,0
25115,-100,4,2,1,100,0,0
25400,-100,4,2,1,0,0,0
25696,-100,4,2,2,70,0,0
25970,-100,4,2,1,0,0,0
26255,-100,4,2,1,100,0,0
26540,-100,4,2,1,0,0,0
26825,-100,4,2,1,70,0,0
27125,-100,4,2,1,100,0,0
27410,-100,4,1,1,70,0,0
37125,-100,4,2,1,0,0,0
39410,-100,4,1,1,50,0,0
39552,-100,4,1,1,50,0,1
40553,-100,4,2,2,100,0,1
40838,-100,4,1,1,70,0,1
42839,-100,4,2,2,100,0,1
43124,-100,4,1,1,70,0,1
45125,-100,4,2,2,100,0,1
45410,-100,4,1,1,70,0,1
45982,-100,4,2,2,100,0,1
46267,-100,4,1,1,70,0,1
47410,-100,4,2,2,100,0,1
47696,-100,4,1,1,0,0,1
47981,-100,4,2,2,90,0,1
48267,-100,4,1,1,70,0,1
48553,-100,4,1,1,70,0,0
48696,-100,4,1,1,70,0,1
49696,-100,4,2,2,100,0,1
49981,-100,4,1,1,70,0,1
50267,-100,4,2,2,90,0,1
50553,-100,4,1,1,70,0,1
51125,-200,4,2,1,70,0,1
51982,-200,4,1,1,70,0,1
52267,-200,4,2,1,70,0,1
53124,-200,4,1,1,70,0,1
53409,-100,4,2,1,70,0,1
54266,-200,4,1,1,70,0,1
54551,-200,4,2,1,70,0,1
55408,-100,4,1,1,70,0,1
55696,-100,4,2,1,70,0,1
57696,-100,4,2,1,70,0,0
57767,-100,4,1,1,70,0,1
58839,-100,4,2,2,100,0,1
59124,-100,4,1,1,70,0,1
60264,-100,4,2,1,70,0,1
62263,-100,4,1,1,70,0,1
62548,-100,4,2,1,70,0,1
64548,-100,4,1,1,70,0,1
64833,-100,4,2,1,70,0,1
66833,-100,4,1,1,70,0,1
67118,-100,4,2,1,70,0,1
69118,-100,4,1,1,70,0,1
69403,-100,4,2,1,70,0,1
70260,-100,4,1,1,70,0,1
71831,-100,4,2,1,70,0,1
72545,-100,4,1,1,70,0,1
72830,-100,4,2,1,70,0,1
74830,-100,4,1,1,70,0,1
76267,-100,4,2,1,70,0,1
78839,-100,4,1,1,50,0,1
79124,-100,4,2,1,70,0,1
79410,-100,4,1,1,50,0,1
79695,-100,4,2,1,70,0,1
80625,-100,4,1,1,70,0,1
80696,-100,4,1,1,70,0,0
80839,-100,4,2,1,0,0,0
81124,-100,4,2,1,100,0,0
81409,-100,4,2,1,0,0,0
81694,-100,4,2,1,100,0,0
81979,-100,4,2,1,0,0,0
82264,-100,4,2,1,90,0,0
82549,-100,4,2,1,0,0,0
82834,-100,4,1,1,35,0,0
83119,-100,4,2,1,0,0,0
83404,-100,4,2,1,80,0,0
83689,-100,4,2,1,0,0,0
83974,-100,4,2,1,70,0,0
84259,-100,4,2,1,0,0,0
84544,-100,4,2,1,60,0,0
84829,-100,4,2,1,0,0,0
85114,-100,4,1,1,0,0,0
85399,-100,4,2,1,0,0,0
85684,-100,4,2,1,40,0,0
85969,-100,4,2,1,0,0,0
86254,-100,4,2,1,30,0,0
86539,-100,4,2,1,0,0,0
86824,-100,4,2,1,25,0,0
87109,-100,4,2,1,0,0,0
87394,-100,4,2,1,0,0,0

[Colours]
Combo1 : 0,0,255
Combo2 : 255,0,128
Combo3 : 0,128,255
Combo4 : 255,0,255

[HitObjects]
464,48,1319,1,4
48,48,2462,1,4
464,336,3604,1,4
48,336,4746,1,4
360,192,5889,2,0,B|376:80|232:16|120:48|72:192|120:320|200:320|296:320|323:294|344:256,1,612.5,4|4
340,262,8173,1,4
112,272,10458,6,0,B|48:208|80:112|80:112|48:48|80:-16|176:16|176:48|176:48|256:16|336:48|336:48|336:16|432:-16|464:48|432:112|432:112|464:208|400:288,1,875
256,192,13885,1,0
256,192,14456,1,0
64,256,15027,6,0,B|64:304|128:320|192:304|192:256,1,175,0|2
320,124,16170,2,0,B|320:80|384:64|448:80|448:128,1,175,0|2
448,256,17312,6,0,B|448:304|384:320|320:304|320:256,1,175,0|2
192,124,18454,2,0,B|192:80|128:64|64:80|64:128,1,175,0|2
32,304,19597,6,0,B|56:380|102:365|148:350|123:274|123:274|148:350|193:335|239:320|219:259|219:259|239:320|284:305|330:291|305:215|305:215|330:291|376:276|421:261|402:200|402:200|421:261|467:246|513:231|488:155,1,875,0|2
320,128,23024,5,0
192,256,23595,1,2
22,225,24166,6,0,B|-1:152|44:137|90:122|109:183|109:183|90:122|135:107|181:92|206:168|206:168|181:92|227:78|272:63|292:124|292:124|272:63|318:48|363:33|388:109|388:109|363:33|409:18|455:3|480:80,1,875,0|2
448,256,27593,5,0
384,320,27878,1,0
336,304,28021,1,0
288,320,28164,1,4
112,320,28735,6,0,B|64:288|0:304,1,87.5,0|0
160,256,29306,2,0,B|112:208|64:208,1,87.5,4|4
224,208,29877,2,0,B|192:160|160:144,1,87.5,4|0
296,168,30449,2,0,B|280:104|248:72,1,87.5,4|0
376,160,31020,2,0,B|376:104|368:64,1,87.5,0|4
456,168,31591,5,4
256,336,32162,1,4
56,168,32733,1,4
256,192,32876,12,4,35019
256,192,35089,12,4,36161
256,192,36232,12,0,37302
80,192,38445,5,0
432,192,39016,1,0
354,158,39587,2,4,B|332:47|176:33|80:100|82:251|169:357|244:331|335:300|350:264|356:226,1,612.5,4|0
316,215,41872,6,4,B|237:296|98:222|54:114|138:-11|269:-52|318:10|377:85|370:124|354:158,1,612.5,4|0
384,216,44156,6,4,B|495:194|508:37|442:-57|290:-56|184:30|210:106|242:197|278:212|316:217,1,612.5,4|0
264,266,46441,6,4,B|170:329|49:228|29:113|137:7|273:-5|308:66|350:152|336:188|313:219,1,612.5,4|0
355,157,48726,6,4,B|333:45|176:32|81:98|82:250|169:356|245:330|336:298|351:262|356:224,1,612.5,4|0
356,226,51010,5,4
448,80,51581,1,0
368,64,51867,1,0
288,80,52153,2,0,B|288:192,1,87.5,4|0
208,208,53009,1,0
288,240,53295,6,0,B|288:352,1,87.5,4|0
208,352,54152,1,0
128,336,54437,1,4
128,256,54723,2,0,B|128:224,2,21.875
48,272,55294,1,0
32,192,55580,1,4
48,112,55865,6,0,B|112:96|144:160,1,87.5
256,192,56436,1,0
464,272,56722,2,0,B|400:288|368:224,1,87.5
340,249,57150,1,0
297,260,57293,1,0
253,257,57436,1,0
211,244,57579,1,0
180,213,57721,1,0
160,176,57864,6,4,B|181:64|338:51|433:117|432:269|345:375|269:349|178:317|163:281|158:243,1,612.5,4|0
158,245,60149,5,4
96,48,60720,1,0
160,112,61006,1,0
224,48,61291,2,0,B|320:80|416:48,1,175,2|0
464,96,62148,1,0
416,160,62433,6,0,B|448:256|416:352,1,175,4|0
336,320,63290,1,0
336,320,63576,1,2
160,320,64147,1,0
128,240,64433,1,0
96,160,64718,5,4
96,160,65004,2,0,B|208:160,1,87.5
256,208,65575,1,0
336,160,65860,1,0
256,112,66146,2,0,B|256:80,4,21.875,0|2|2|2|0
256,288,67003,5,4
336,240,67288,1,0
304,160,67574,1,0
208,160,67859,1,0
176,240,68145,1,0
176,64,68716,6,0,B|256:-16|336:64,1,175,0|4
176,144,69859,1,0
256,176,70144,1,0
336,144,70430,5,4
256,304,71001,1,4
176,144,71572,1,4
48,272,72143,5,0
128,304,72429,1,0
208,272,72714,2,0,B|288:240|384:272,1,175,4|0
448,320,73571,1,0
480,240,73857,1,0
448,160,74142,1,0
416,128,74285,2,0,B|400:80|336:96,1,87.5
304,96,74713,1,4
224,48,74999,5,4
112,224,75570,1,4
288,336,76141,1,4
464,288,76712,5,0
384,240,76998,1,0
400,160,77284,1,0
416,80,77569,2,0,B|448:80,4,21.875,0|2|2|2|0
336,48,78140,5,0
256,32,78426,1,4
192,80,78711,1,0
176,160,78997,1,0
256,192,79283,1,0
336,224,79568,1,0
320,304,79854,1,0
256,352,80139,1,4
184,328,80425,1,0
184,328,80568,1,0
184,328,80711,6,4,B|72:306|59:149|125:54|277:55|383:142|357:218|325:309|289:324|251:329,1,612.5,4|0
240,256,82995,6,4,B|348:287|432:153|416:38|280:-29|146:0|135:79|122:174|147:204|178:226,1,612.5,4|0
248,192,85280,6,4,B|186:97|289:-21|404:-39|509:70|519:206|447:240|360:280|324:265|293:241,1,612.5,4|0
295,243,87564,1,0
295,243,88136,1,0
